osu file format v14

[General]
AudioFilename: 482872.mp3
AudioLeadIn: 0
PreviewTime: 45216
Countdown: 0
SampleSet: Soft
StackLeniency: 0.7
Mode: 1
LetterboxInBreaks: 0
WidescreenStoryboard: 0

[Editor]
Bookmarks: 22588,45176,50823,62117,101647
DistanceSpacing: 1.2
BeatDivisor: 8
GridSize: 16
TimelineZoom: 1.4

[Metadata]
Title:Stalemate
TitleUnicode:Stalemate
Artist:Kayoszx
ArtistUnicode:Kayoszx
Creator:_Barti
Version:Muzukashii
Source:
Tags:newgrounds spooky house kzx slow easy
BeatmapID:1008491
BeatmapSetID:471883

[Difficulty]
HPDrainRate:6
CircleSize:2
OverallDifficulty:6
ApproachRate:7
SliderMultiplier:3.13599804939978
SliderTickRate:2

[Events]
//Background and Video events
0,0,"spooky-painting-wallpaper-1.jpg",0,0
//Break Periods
//Storyboard Layer 0 (Background)
//Storyboard Layer 1 (Fail)
//Storyboard Layer 2 (Pass)
//Storyboard Layer 3 (Foreground)
//Storyboard Sound Samples

[TimingPoints]
40,705.882352941176,4,1,0,50,1,0
45216,-100,4,2,0,80,0,0
50863,-83.3333333333333,4,1,0,90,0,1
73451,-78.7401574803149,4,2,0,87,0,0
96039,-76.9230769230769,4,1,0,90,0,1
118628,-100,4,2,0,25,0,0

[HitObjects]
256,192,40,5,0,0:0:0:0:
256,192,745,1,2,0:0:0:0:
256,192,1451,1,0,0:0:0:0:
256,192,1804,1,0,0:0:0:0:
256,192,1981,1,0,0:0:0:0:
256,192,2157,1,2,0:0:0:0:
256,192,2510,1,0,0:0:0:0:
256,192,2863,1,0,0:0:0:0:
256,192,3392,1,0,0:0:0:0:
256,192,3569,1,2,0:0:0:0:
256,192,4275,1,0,0:0:0:0:
256,192,4628,1,0,0:0:0:0:
256,192,4804,1,0,0:0:0:0:
256,192,4981,1,2,0:0:0:0:
256,192,5157,1,0,0:0:0:0:
256,192,5334,1,2,0:0:0:0:
256,192,5687,5,0,0:0:0:0:
256,192,6392,1,2,0:0:0:0:
256,192,7098,1,0,0:0:0:0:
256,192,7451,1,0,0:0:0:0:
256,192,7628,1,0,0:0:0:0:
256,192,7804,1,2,0:0:0:0:
256,192,8157,1,0,0:0:0:0:
256,192,8510,1,0,0:0:0:0:
256,192,9039,1,0,0:0:0:0:
256,192,9216,1,2,0:0:0:0:
256,192,9922,1,0,0:0:0:0:
256,192,10275,1,0,0:0:0:0:
256,192,10451,1,0,0:0:0:0:
256,192,10628,1,2,0:0:0:0:
256,192,10804,1,0,0:0:0:0:
256,192,10981,1,2,0:0:0:0:
256,192,11334,5,0,0:0:0:0:
256,192,12039,1,2,0:0:0:0:
256,192,12745,1,0,0:0:0:0:
256,192,13098,1,0,0:0:0:0:
256,192,13275,1,0,0:0:0:0:
256,192,13451,1,2,0:0:0:0:
256,192,13804,1,0,0:0:0:0:
256,192,14157,1,0,0:0:0:0:
256,192,14686,1,0,0:0:0:0:
256,192,14863,1,2,0:0:0:0:
256,192,15569,1,0,0:0:0:0:
256,192,15922,1,0,0:0:0:0:
256,192,16098,1,0,0:0:0:0:
256,192,16275,1,2,0:0:0:0:
256,192,16451,1,0,0:0:0:0:
256,192,16628,1,2,0:0:0:0:
256,192,16981,1,0,0:0:0:0:
256,192,17334,1,0,0:0:0:0:
256,192,17510,1,0,0:0:0:0:
256,192,17687,1,2,0:0:0:0:
256,192,17863,1,0,0:0:0:0:
256,192,18039,1,2,0:0:0:0:
256,192,18392,1,0,0:0:0:0:
256,192,18745,1,0,0:0:0:0:
256,192,18921,1,0,0:0:0:0:
256,192,19098,1,2,0:0:0:0:
256,192,19274,1,0,0:0:0:0:
256,192,19450,1,2,0:0:0:0:
256,192,19804,1,0,0:0:0:0:
256,192,20157,2,0,L|352:192,2,79.9999529645726
256,192,21216,1,0,0:0:0:0:
256,192,21569,2,0,L|352:192,2,79.9999529645726
256,192,22451,1,2,0:0:0:0:
256,192,22628,5,0,0:0:0:0:
256,192,23333,1,2,0:0:0:0:
256,192,24039,1,0,0:0:0:0:
256,192,24392,1,0,0:0:0:0:
256,192,24569,1,0,0:0:0:0:
256,192,24745,1,2,0:0:0:0:
256,192,25098,1,2,0:0:0:0:
256,192,25451,1,0,0:0:0:0:
256,192,25980,1,0,0:0:0:0:
256,192,26157,1,2,0:0:0:0:
256,192,26863,1,0,0:0:0:0:
256,192,27216,1,0,0:0:0:0:
256,192,27392,1,0,0:0:0:0:
256,192,27569,1,2,0:0:0:0:
256,192,27745,1,0,0:0:0:0:
256,192,27922,1,2,0:0:0:0:
256,192,28275,1,0,0:0:0:0:
256,192,28628,1,0,0:0:0:0:
256,192,28981,1,2,0:0:0:0:
256,192,29334,1,0,0:0:0:0:
256,192,29687,1,0,0:0:0:0:
256,192,30039,1,0,0:0:0:0:
256,192,30216,1,0,0:0:0:0:
256,192,30392,1,2,0:0:0:0:
256,192,30745,1,0,0:0:0:0:
256,192,31098,1,0,0:0:0:0:
256,192,31451,1,0,0:0:0:0:
256,192,31628,1,0,0:0:0:0:
256,192,31804,1,2,0:0:0:0:
256,192,32157,1,0,0:0:0:0:
256,192,32510,1,0,0:0:0:0:
256,192,32863,1,2,0:0:0:0:
256,192,33216,1,2,0:0:0:0:
256,192,33392,1,0,0:0:0:0:
256,192,33569,1,2,0:0:0:0:
256,192,33922,5,0,0:0:0:0:
256,192,34627,1,2,0:0:0:0:
256,192,35333,1,0,0:0:0:0:
256,192,35686,1,0,0:0:0:0:
256,192,35863,1,0,0:0:0:0:
256,192,36039,1,2,0:0:0:0:
256,192,36392,1,2,0:0:0:0:
256,192,36745,1,0,0:0:0:0:
256,192,37274,1,0,0:0:0:0:
256,192,37451,1,2,0:0:0:0:
256,192,38157,1,0,0:0:0:0:
256,192,38510,1,0,0:0:0:0:
256,192,38686,1,0,0:0:0:0:
256,192,38863,1,2,0:0:0:0:
256,192,39039,1,0,0:0:0:0:
256,192,39216,1,2,0:0:0:0:
256,192,39569,1,4,0:0:0:0:
256,192,39922,1,2,0:0:0:0:
256,192,40275,1,2,0:0:0:0:
256,192,40451,1,0,0:0:0:0:
256,192,40628,1,2,0:0:0:0:
256,192,40981,1,0,0:0:0:0:
256,192,41157,1,0,0:0:0:0:
256,192,41334,1,2,0:0:0:0:
256,192,41687,1,2,0:0:0:0:
256,192,42039,1,2,0:0:0:0:
256,192,42392,1,0,0:0:0:0:
256,192,42569,1,0,0:0:0:0:
256,192,42745,1,0,0:0:0:0:
256,192,42922,1,0,0:0:0:0:
256,192,43098,1,2,0:0:0:0:
256,192,43451,1,2,0:0:0:0:
256,192,43804,1,0,0:0:0:0:
256,192,43981,1,0,0:0:0:0:
256,192,44157,1,0,0:0:0:0:
256,192,44334,1,0,0:0:0:0:
256,192,44510,1,2,0:0:0:0:
256,192,44863,1,0,0:0:0:0:
256,192,44951,1,0,0:0:0:0:
256,192,45039,1,0,0:0:0:0:
256,192,45216,1,4,0:0:0:0:
256,192,45922,1,0,0:0:0:0:
256,192,46628,1,0,0:0:0:0:
256,192,47334,1,0,0:0:0:0:
256,192,48039,1,0,0:0:0:0:
256,192,48745,1,0,0:0:0:0:
256,192,49451,1,4,0:0:0:0:
256,192,50157,1,2,0:0:0:0:
256,192,50334,1,2,0:0:0:0:
256,192,50863,1,4,0:0:0:0:
256,192,51216,2,0,L|304:192,2,47.9999900688178
256,192,51922,1,2,0:0:0:0:
256,192,52275,1,0,0:0:0:0:
256,192,52628,1,4,0:0:0:0:
256,192,52981,1,0,0:0:0:0:
256,192,53069,1,0,0:0:0:0:
256,192,53157,1,0,0:0:0:0:
256,192,53334,1,2,0:0:0:0:
256,192,53687,1,0,0:0:0:0:
256,192,53775,1,0,0:0:0:0:
256,192,53863,1,0,0:0:0:0:
256,192,54039,1,2,0:0:0:0:
256,192,54216,1,2,0:0:0:0:
256,192,54392,1,0,0:0:0:0:
256,192,54745,1,2,0:0:0:0:
256,192,55098,1,4,0:0:0:0:
256,192,55451,1,2,0:0:0:0:
256,192,55628,1,2,0:0:0:0:
256,192,55804,1,0,0:0:0:0:
256,192,55981,1,0,0:0:0:0:
256,192,56157,1,0,0:0:0:0:
256,192,56245,1,0,0:0:0:0:
256,192,56334,1,0,0:0:0:0:
256,192,56510,1,4,0:0:0:0:
256,192,56863,2,0,L|320:192,2,47.9999855378734
256,192,57569,1,2,0:0:0:0:
256,192,57922,1,0,0:0:0:0:
256,192,58275,1,4,0:0:0:0:
256,192,58628,1,0,0:0:0:0:
256,192,58716,1,0,0:0:0:0:
256,192,58804,1,0,0:0:0:0:
256,192,58981,1,2,0:0:0:0:
256,192,59334,1,0,0:0:0:0:
256,192,59422,1,0,0:0:0:0:
256,192,59510,1,0,0:0:0:0:
256,192,59686,1,2,0:0:0:0:
256,192,59863,1,2,0:0:0:0:
256,192,60039,1,0,0:0:0:0:
256,192,60392,1,2,0:0:0:0:
256,192,60745,1,4,0:0:0:0:
256,192,61098,1,2,0:0:0:0:
256,192,61275,1,2,0:0:0:0:
256,192,61451,1,0,0:0:0:0:
256,192,61628,1,0,0:0:0:0:
256,192,61804,1,4,0:0:0:0:
256,192,62157,1,2,0:0:0:0:
256,192,62510,1,0,0:0:0:0:
256,192,62863,1,2,0:0:0:0:
256,192,63040,1,2,0:0:0:0:
256,192,63216,1,0,0:0:0:0:
256,192,63569,1,2,0:0:0:0:
256,192,63746,1,2,0:0:0:0:
256,192,63922,1,0,0:0:0:0:
256,192,64275,1,2,0:0:0:0:
256,192,64452,1,2,0:0:0:0:
256,192,64628,1,0,0:0:0:0:
256,192,64981,1,4,0:0:0:0:
256,192,65334,1,0,0:0:0:0:
256,192,65510,1,0,0:0:0:0:
256,192,65687,1,2,0:0:0:0:
256,192,66039,1,0,0:0:0:0:
256,192,66392,1,0,0:0:0:0:
256,192,66481,1,0,0:0:0:0:
256,192,66569,1,0,0:0:0:0:
256,192,66745,1,2,0:0:0:0:
256,192,67098,1,0,0:0:0:0:
256,192,67187,1,0,0:0:0:0:
256,192,67275,1,0,0:0:0:0:
256,192,67451,1,6,0:0:0:0:
256,192,67804,1,4,0:0:0:0:
256,192,68157,2,0,L|320:192,2,47.9999855378734
256,192,68863,1,2,0:0:0:0:
256,192,69216,1,0,0:0:0:0:
256,192,69569,1,4,0:0:0:0:
256,192,69922,1,0,0:0:0:0:
256,192,70010,1,0,0:0:0:0:
256,192,70098,1,0,0:0:0:0:
256,192,70275,1,2,0:0:0:0:
256,192,70628,1,0,0:0:0:0:
256,192,70804,1,0,0:0:0:0:
256,192,70981,1,0,0:0:0:0:
256,192,71157,1,0,0:0:0:0:
256,192,71334,1,2,0:0:0:0:
256,192,71422,1,2,0:0:0:0:
256,192,71510,1,2,0:0:0:0:
256,192,71687,1,2,0:0:0:0:
256,192,72039,1,0,0:0:0:0:
256,192,72215,1,0,0:0:0:0:
256,192,72392,1,0,0:0:0:0:
256,192,72568,1,0,0:0:0:0:
256,192,72745,1,2,0:0:0:0:
256,192,72833,1,2,0:0:0:0:
256,192,72921,1,2,0:0:0:0:
256,192,73098,1,0,0:0:0:0:
256,192,73451,1,4,0:0:0:0:
256,192,73804,1,0,0:0:0:0:
256,192,73981,1,0,0:0:0:0:
256,192,74157,1,2,0:0:0:0:
256,192,74863,1,0,0:0:0:0:
256,192,75216,1,2,0:0:0:0:
256,192,75569,1,2,0:0:0:0:
256,192,75922,1,2,0:0:0:0:
256,192,76011,1,2,0:0:0:0:
256,192,76099,1,2,0:0:0:0:
256,192,76275,1,4,0:0:0:0:
256,192,76628,1,0,0:0:0:0:
256,192,76805,1,0,0:0:0:0:
256,192,76981,1,2,0:0:0:0:
256,192,77687,1,0,0:0:0:0:
256,192,78040,1,2,0:0:0:0:
256,192,78393,1,2,0:0:0:0:
256,192,78745,1,2,0:0:0:0:
256,192,78834,1,2,0:0:0:0:
256,192,78922,1,2,0:0:0:0:
256,192,79098,1,4,0:0:0:0:
256,192,79451,1,0,0:0:0:0:
256,192,79628,1,0,0:0:0:0:
256,192,79804,1,2,0:0:0:0:
256,192,80510,1,0,0:0:0:0:
256,192,80863,1,2,0:0:0:0:
256,192,81216,1,2,0:0:0:0:
256,192,81569,1,2,0:0:0:0:
256,192,81658,1,2,0:0:0:0:
256,192,81746,1,2,0:0:0:0:
256,192,81922,1,4,0:0:0:0:
256,192,82275,1,0,0:0:0:0:
256,192,82452,1,0,0:0:0:0:
256,192,82628,1,2,0:0:0:0:
256,192,83334,1,0,0:0:0:0:
256,192,83687,1,2,0:0:0:0:
256,192,84040,1,2,0:0:0:0:
256,192,84216,1,2,0:0:0:0:
256,192,84392,1,6,0:0:0:0:
256,192,84745,1,4,0:0:0:0:
256,192,85098,1,0,0:0:0:0:
256,192,85275,1,0,0:0:0:0:
256,192,85451,1,2,0:0:0:0:
256,192,85804,1,0,0:0:0:0:
256,192,85892,1,0,0:0:0:0:
256,192,85981,1,0,0:0:0:0:
256,192,86157,1,2,0:0:0:0:
256,192,86334,1,2,0:0:0:0:
256,192,86510,1,0,0:0:0:0:
256,192,86863,1,2,0:0:0:0:
256,192,87039,1,2,0:0:0:0:
256,192,87216,1,0,0:0:0:0:
256,192,87569,1,4,0:0:0:0:
256,192,87922,1,0,0:0:0:0:
256,192,88099,1,0,0:0:0:0:
256,192,88275,1,2,0:0:0:0:
256,192,88628,1,0,0:0:0:0:
256,192,88716,1,0,0:0:0:0:
256,192,88805,1,0,0:0:0:0:
256,192,88981,1,2,0:0:0:0:
256,192,89158,1,2,0:0:0:0:
256,192,89334,1,0,0:0:0:0:
256,192,89687,1,2,0:0:0:0:
256,192,89863,1,2,0:0:0:0:
256,192,90040,1,2,0:0:0:0:
256,192,90392,1,4,0:0:0:0:
256,192,90745,1,0,0:0:0:0:
256,192,90922,1,0,0:0:0:0:
256,192,91098,1,2,0:0:0:0:
256,192,91451,1,0,0:0:0:0:
256,192,91539,1,0,0:0:0:0:
256,192,91628,1,0,0:0:0:0:
256,192,91804,1,2,0:0:0:0:
256,192,91981,1,2,0:0:0:0:
256,192,92157,1,0,0:0:0:0:
256,192,92510,1,2,0:0:0:0:
256,192,92598,1,2,0:0:0:0:
256,192,92863,1,2,0:0:0:0:
256,192,92951,1,2,0:0:0:0:
256,192,93216,1,2,0:0:0:0:
256,192,93392,1,2,0:0:0:0:
256,192,93569,1,2,0:0:0:0:
256,192,93745,1,2,0:0:0:0:
256,192,93922,1,4,0:0:0:0:
256,192,94275,1,0,0:0:0:0:
256,192,94628,1,2,0:0:0:0:
256,192,94804,1,2,0:0:0:0:
256,192,94981,1,2,0:0:0:0:
256,192,95157,1,2,0:0:0:0:
256,192,95334,1,4,0:0:0:0:
256,192,95510,1,4,0:0:0:0:
256,192,95687,1,4,0:0:0:0:
256,192,95863,1,4,0:0:0:0:
256,192,96039,1,4,0:0:0:0:
256,192,96392,2,0,L|320:192,2,51.9999670466025
256,192,97098,1,2,0:0:0:0:
256,192,97451,1,0,0:0:0:0:
256,192,97804,1,4,0:0:0:0:
256,192,98157,1,0,0:0:0:0:
256,192,98245,1,0,0:0:0:0:
256,192,98333,1,0,0:0:0:0:
256,192,98510,1,2,0:0:0:0:
256,192,98863,1,0,0:0:0:0:
256,192,98951,1,0,0:0:0:0:
256,192,99039,1,0,0:0:0:0:
256,192,99215,1,2,0:0:0:0:
256,192,99392,1,2,0:0:0:0:
256,192,99568,1,0,0:0:0:0:
256,192,99921,1,2,0:0:0:0:
256,192,100274,1,4,0:0:0:0:
256,192,100627,1,2,0:0:0:0:
256,192,100804,1,2,0:0:0:0:
256,192,100980,1,0,0:0:0:0:
256,192,101157,1,0,0:0:0:0:
256,192,101333,1,0,0:0:0:0:
256,192,101421,1,0,0:0:0:0:
256,192,101510,1,0,0:0:0:0:
256,192,101686,1,4,0:0:0:0:
256,192,102039,2,0,L|320:192,2,51.9999670466025
256,192,102745,1,2,0:0:0:0:
256,192,103098,1,0,0:0:0:0:
256,192,103451,1,4,0:0:0:0:
256,192,103804,1,0,0:0:0:0:
256,192,103892,1,0,0:0:0:0:
256,192,103980,1,0,0:0:0:0:
256,192,104157,1,2,0:0:0:0:
256,192,104510,1,0,0:0:0:0:
256,192,104863,1,2,0:0:0:0:
256,192,105039,1,2,0:0:0:0:
256,192,105216,1,0,0:0:0:0:
256,192,105304,1,0,0:0:0:0:
256,192,105392,1,0,0:0:0:0:
256,192,105569,1,2,0:0:0:0:
256,192,105922,1,0,0:0:0:0:
256,192,106010,1,0,0:0:0:0:
256,192,106098,1,0,0:0:0:0:
256,192,106275,1,2,0:0:0:0:
256,192,106451,1,2,0:0:0:0:
256,192,106628,1,0,0:0:0:0:
256,192,106716,1,0,0:0:0:0:
256,192,106804,1,0,0:0:0:0:
256,192,106981,1,2,0:0:0:0:
256,192,107334,1,4,0:0:0:0:
256,192,107687,1,0,0:0:0:0:
256,192,107864,1,0,0:0:0:0:
256,192,108040,1,2,0:0:0:0:
256,192,108746,1,0,0:0:0:0:
256,192,109099,1,2,0:0:0:0:
256,192,109451,1,0,0:0:0:0:
256,192,109805,1,2,0:0:0:0:
256,192,109892,1,2,0:0:0:0:
256,192,109982,1,2,0:0:0:0:
256,192,110157,1,0,0:0:0:0:
256,192,110510,1,0,0:0:0:0:
256,192,110687,1,0,0:0:0:0:
256,192,110863,1,2,0:0:0:0:
256,192,111216,1,0,0:0:0:0:
256,192,111569,1,0,0:0:0:0:
256,192,111745,1,0,0:0:0:0:
256,192,111922,1,2,0:0:0:0:
256,192,112275,1,0,0:0:0:0:
256,192,112451,1,0,0:0:0:0:
256,192,112628,1,2,0:0:0:0:
256,192,112981,1,4,0:0:0:0:
256,192,113334,1,0,0:0:0:0:
256,192,113422,1,0,0:0:0:0:
256,192,113510,1,0,0:0:0:0:
256,192,113687,1,0,0:0:0:0:
256,192,114039,1,2,0:0:0:0:
256,192,114392,1,0,0:0:0:0:
256,192,114745,1,0,0:0:0:0:
256,192,114922,1,0,0:0:0:0:
256,192,115098,1,2,0:0:0:0:
256,192,115451,1,0,0:0:0:0:
256,192,115804,1,4,0:0:0:0:
256,192,115981,1,4,0:0:0:0:
256,192,116157,1,4,0:0:0:0:
256,192,116334,1,4,0:0:0:0:
256,192,116510,1,2,0:0:0:0:
256,192,116863,1,2,0:0:0:0:
256,192,117216,1,4,0:0:0:0:
256,192,117392,1,4,0:0:0:0:
256,192,117569,1,4,0:0:0:0:
256,192,117745,1,4,0:0:0:0:
256,192,117922,1,6,0:0:0:0:
256,192,118275,1,2,0:0:0:0:
256,192,118451,1,2,0:0:0:0:
256,192,118628,12,6,121451,0:0:0:0:
