osu file format v14

[General]
AudioFilename: audio.mp3
AudioLeadIn: 0
PreviewTime: 52555
Countdown: 0
SampleSet: Normal
StackLeniency: 0.7
Mode: 1
LetterboxInBreaks: 0
WidescreenStoryboard: 1

[Editor]
Bookmarks: 24491,38819,53147,81804,85386
DistanceSpacing: 1
BeatDivisor: 6
GridSize: 8
TimelineZoom: 3.099999

[Metadata]
Title:secret base ~Kimi ga Kureta Mono~ (10 years after Ver.) (TV Size)
TitleUnicode:secret base ~君がくれたもの~ (10 years after Ver.) (TV Size)
Artist:Kayano Ai, Tomatsu Haruka, Hayami Saori
ArtistUnicode:茅野愛衣、戸松遥、早見沙織
Creator:radar
Version:stem
Source:あの日見た花の名前を僕達はまだ知らない。
Tags:あの花 ending ed futsuu muzukashii 本間芽衣子 安城鳴子 鶴見知利子 Honma Meiko Anjou Naruko Tsurumi Chiriko Ano Hi Mita Hana no Namae wo Bokutachi wa Mada Shiranai AnoHana The Flower We Saw That Day The Movie Compilation Music CD anime japanese emotional
BeatmapID:2762559
BeatmapSetID:1333368

[Difficulty]
HPDrainRate:8
CircleSize:5
OverallDifficulty:3
ApproachRate:5
SliderMultiplier:2.8
SliderTickRate:1

[Events]
//Background and Video events
0,0,"shidf.png",0,-85
//Break Periods
//Storyboard Layer 0 (Background)
//Storyboard Layer 1 (Fail)
//Storyboard Layer 2 (Pass)
//Storyboard Layer 3 (Foreground)
//Storyboard Layer 4 (Overlay)
//Storyboard Sound Samples

[TimingPoints]
1213,895.522388059701,4,1,0,50,1,0
1213,-125,4,1,0,50,0,0
24496,895.522388059701,4,1,0,70,1,0
24496,-111.111111111111,4,1,0,60,0,0
38376,-108.695652173913,4,1,0,60,0,0
38675,-104.166666666667,4,1,0,60,0,0
38824,-100,4,1,0,70,0,0
52704,-97.0873786407767,4,1,0,70,0,0
53003,-94.3396226415094,4,1,0,70,0,0
53152,-90.9090909090909,4,1,0,90,0,1
81361,-92.5925925925926,4,1,0,90,0,1
81510,-94.3396226415094,4,1,0,90,0,1
81660,-96.1538461538461,4,1,0,90,0,1
81809,-98.0392156862745,4,1,0,80,0,0
82257,-100,4,1,0,80,0,0
85690,-100,4,1,0,50,0,0
86734,-100,4,1,0,45,0,0
87630,-100,4,1,0,40,0,0
88078,-100,4,1,0,35,0,0
88525,-100,4,1,0,30,0,0

[HitObjects]
98,298,1213,5,8,0:0:0:0:
98,298,1660,1,0,0:0:0:0:
98,298,2108,1,0,0:0:0:0:
99,272,3004,1,8,0:0:0:0:
99,272,3451,1,0,0:0:0:0:
104,272,3899,1,8,0:0:0:0:
97,263,4795,1,8,0:0:0:0:
97,263,5242,1,0,0:0:0:0:
97,263,5690,1,0,0:0:0:0:
97,263,6586,1,8,0:0:0:0:
97,263,7033,1,8,0:0:0:0:
97,263,7481,1,0,0:0:0:0:
110,269,7929,1,0,0:0:0:0:
110,269,8377,1,8,0:0:0:0:
110,269,8824,1,0,0:0:0:0:
110,269,9272,1,8,0:0:0:0:
110,269,10018,1,8,0:0:0:0:
110,269,10615,1,8,0:0:0:0:
110,269,11063,1,8,0:0:0:0:
110,269,11511,1,0,0:0:0:0:
110,269,11959,1,8,0:0:0:0:
110,269,12407,1,8,0:0:0:0:
110,269,12854,1,0,0:0:0:0:
100,260,13750,1,8,0:0:0:0:
102,246,14645,1,8,0:0:0:0:
94,263,15093,1,8,0:0:0:0:
94,263,15541,1,0,0:0:0:0:
94,263,15989,1,0,0:0:0:0:
94,263,16436,1,8,0:0:0:0:
82,272,17332,1,8,0:0:0:0:
82,272,18227,1,8,0:0:0:0:
82,272,18675,1,8,0:0:0:0:
82,272,19123,1,0,0:0:0:0:
82,272,19421,1,8,0:0:0:0:
82,272,20018,1,0,0:0:0:0:
82,272,20466,1,0,0:0:0:0:
82,272,20914,1,8,0:0:0:0:
82,272,21810,1,8,0:0:0:0:
82,272,22705,1,0,0:0:0:0:
109,305,24496,1,8,0:0:0:0:
109,305,24943,1,8,0:0:0:0:
109,305,25391,1,0,0:0:0:0:
109,305,25839,1,0,0:0:0:0:
109,305,26287,1,8,0:0:0:0:
109,305,26734,1,8,0:0:0:0:
109,305,27033,1,0,0:0:0:0:
113,317,28078,1,8,0:0:0:0:
113,317,28525,1,0,0:0:0:0:
113,317,28973,1,0,0:0:0:0:
113,317,29421,1,8,0:0:0:0:
113,317,29869,1,0,0:0:0:0:
129,315,30316,1,0,0:0:0:0:
128,298,30615,1,8,0:0:0:0:
123,310,31660,1,8,0:0:0:0:
123,310,32107,1,8,0:0:0:0:
123,310,32555,1,0,0:0:0:0:
123,310,33003,1,0,0:0:0:0:
123,310,33451,1,8,0:0:0:0:
123,310,33749,1,0,0:0:0:0:
123,310,34197,1,8,0:0:0:0:
123,310,34794,1,0,0:0:0:0:
130,314,35242,1,0,0:0:0:0:
131,307,35690,1,0,0:0:0:0:
131,307,35988,1,8,0:0:0:0:
129,302,38376,1,0,0:0:0:0:
108,321,38824,1,8,0:0:0:0:
108,321,39122,1,0,0:0:0:0:
108,321,39570,1,8,0:0:0:0:
86,329,40167,1,8,0:0:0:0:
86,329,40615,1,8,0:0:0:0:
86,329,40913,1,0,0:0:0:0:
86,329,41361,1,8,0:0:0:0:
86,329,41958,1,0,0:0:0:0:
86,329,42406,1,8,0:0:0:0:
86,329,42854,1,8,0:0:0:0:
86,329,43152,1,0,0:0:0:0:
86,329,43749,1,0,0:0:0:0:
86,329,44197,1,0,0:0:0:0:
95,321,44645,1,8,0:0:0:0:
95,321,44943,1,0,0:0:0:0:
91,310,45540,1,0,0:0:0:0:
91,310,45988,1,8,0:0:0:0:
72,315,46436,1,8,0:0:0:0:
72,315,46734,1,0,0:0:0:0:
72,315,47331,1,0,0:0:0:0:
72,315,47779,1,8,0:0:0:0:
72,315,48078,1,8,0:0:0:0:
72,315,48675,1,8,0:0:0:0:
65,312,49122,1,8,0:0:0:0:
65,312,49570,1,8,0:0:0:0:
71,311,50018,1,0,0:0:0:0:
71,311,50466,1,8,0:0:0:0:
71,311,50913,1,0,0:0:0:0:
71,311,51361,1,8,0:0:0:0:
256,192,51660,12,0,52257,0:0:0:0:
124,0,53152,5,4,0:0:0:0:
137,291,53600,1,0,0:0:0:0:
137,291,54048,1,8,0:0:0:0:
137,291,54346,1,0,0:0:0:0:
137,291,54794,1,0,0:0:0:0:
137,291,55242,1,8,0:0:0:0:
137,291,55391,1,8,0:0:0:0:
137,291,55839,1,8,0:0:0:0:
130,284,56137,1,0,0:0:0:0:
130,284,56585,1,0,0:0:0:0:
125,281,57033,1,8,0:0:0:0:
125,281,57182,1,8,0:0:0:0:
125,281,57630,1,0,0:0:0:0:
125,281,57928,1,8,0:0:0:0:
125,281,58376,1,0,0:0:0:0:
125,281,58824,1,0,0:0:0:0:
125,281,58973,1,0,0:0:0:0:
125,281,59272,1,8,0:0:0:0:
136,284,59869,1,8,0:0:0:0:
126,57,60316,1,4,0:0:0:0:
140,279,60615,1,0,0:0:0:0:
140,279,60764,1,0,0:0:0:0:
140,279,61212,1,8,0:0:0:0:
140,279,61510,1,0,0:0:0:0:
146,261,61660,1,0,0:0:0:0:
140,279,61958,1,8,0:0:0:0:
137,284,62406,1,8,0:0:0:0:
137,284,62555,1,8,0:0:0:0:
137,284,63003,1,8,0:0:0:0:
139,267,63301,1,0,0:0:0:0:
137,284,63451,1,0,0:0:0:0:
137,284,63898,1,0,0:0:0:0:
144,283,64346,1,8,0:0:0:0:
136,269,64645,1,0,0:0:0:0:
141,272,65242,1,0,0:0:0:0:
141,272,65690,1,8,0:0:0:0:
146,263,66585,1,8,0:0:0:0:
146,263,66884,1,0,0:0:0:0:
146,263,67033,1,0,0:0:0:0:
119,57,67481,1,12,0:0:0:0:
146,276,67928,1,0,0:0:0:0:
145,266,68227,1,8,0:0:0:0:
146,276,68376,1,8,0:0:0:0:
146,276,68824,1,0,0:0:0:0:
146,276,69272,1,0,0:0:0:0:
146,276,69570,1,8,0:0:0:0:
146,276,69719,1,8,0:0:0:0:
152,274,70167,1,8,0:0:0:0:
146,276,70615,1,8,0:0:0:0:
101,85,71063,1,4,0:0:0:0:
130,264,71510,1,8,0:0:0:0:
137,256,71809,1,8,0:0:0:0:
130,264,71958,1,8,0:0:0:0:
130,264,72257,1,8,0:0:0:0:
130,264,72854,1,0,0:0:0:0:
130,264,73152,1,8,0:0:0:0:
130,264,73301,1,8,0:0:0:0:
130,264,73600,1,0,0:0:0:0:
122,251,74048,1,0,0:0:0:0:
125,251,74197,1,0,0:0:0:0:
58,40,74645,1,4,0:0:0:0:
125,251,75093,1,8,0:0:0:0:
122,251,75540,1,8,0:0:0:0:
125,251,75988,1,0,0:0:0:0:
126,251,76287,1,8,0:0:0:0:
122,251,76734,1,0,0:0:0:0:
125,251,76884,1,0,0:0:0:0:
126,251,77331,1,8,0:0:0:0:
122,251,77630,1,0,0:0:0:0:
125,251,77779,1,0,0:0:0:0:
125,34,78227,1,12,0:0:0:0:
115,260,78675,1,0,0:0:0:0:
115,260,79122,1,8,0:0:0:0:
115,260,79421,1,0,0:0:0:0:
115,260,79869,1,0,0:0:0:0:
115,260,80018,1,8,0:0:0:0:
115,260,80466,1,8,0:0:0:0:
106,235,80615,1,8,0:0:0:0:
122,236,80764,1,8,0:0:0:0:
112,250,80913,1,8,0:0:0:0:
119,255,81361,1,0,0:0:0:0:
106,37,81809,1,12,0:0:0:0:
116,268,82257,1,0,0:0:0:0:
116,268,82704,1,8,0:0:0:0:
105,273,83152,1,0,0:0:0:0:
104,272,83600,1,8,0:0:0:0:
104,272,84495,1,8,0:0:0:0:
112,266,84943,1,0,0:0:0:0:
77,34,85391,1,12,0:0:0:0:
256,192,85690,12,0,88973,0:0:0:0:
