osu file format v14

[General]
AudioFilename: audio.mp3
AudioLeadIn: 0
PreviewTime: 52417
Countdown: 0
SampleSet: None
StackLeniency: 0.7
Mode: 0
LetterboxInBreaks: 0
EpilepsyWarning: 1
WidescreenStoryboard: 1

[Editor]
DistanceSpacing: 1
BeatDivisor: 3
GridSize: 16
TimelineZoom: 1

[Metadata]
Title:secret base ~Kimi ga Kureta Mono~ (10 years after Ver.) (TV Size)
TitleUnicode:secret base ~君がくれたもの~ (10 years after Ver.) (TV Size)
Artist:Kayano Ai, Tomatsu Haruka, Hayami Saori
ArtistUnicode:茅野愛衣, 戸松遥, 早見沙織
Creator:Uniform
Version:Easy
Source:あの日見た花の名前を僕達はまだ知らない。
Tags:本間芽衣子 安城鳴子 鶴見知利子 Honma Meiko Anjou Naruko Tsurumi Chiriko Ano Hi Mita Hana no Namae wo Bokutachi wa Mada Shiranai AnoHana The Flower We Saw That Day Movie Compilation Music Female Feminine Voc Vocal Japanese Anime
BeatmapID:2862803
BeatmapSetID:1165355

[Difficulty]
HPDrainRate:2
CircleSize:2.5
OverallDifficulty:2
ApproachRate:3
SliderMultiplier:0.9
SliderTickRate:1

[Events]
//Background and Video events
0,0,"647054.png",0,0
//Break Periods
//Storyboard Layer 0 (Background)
//Storyboard Layer 1 (Fail)
//Storyboard Layer 2 (Pass)
//Storyboard Layer 3 (Foreground)
//Storyboard Layer 4 (Overlay)
//Storyboard Sound Samples

[TimingPoints]
1223,447.761194029851,4,2,1,30,1,0
24506,-100,4,2,1,40,0,0
33013,-100,4,2,1,23,0,0
33461,-100,4,2,1,40,0,0
34132,-100,4,2,1,23,0,0
34804,-100,4,2,1,40,0,0
38834,-100,4,2,1,50,0,0
51372,-100,4,2,1,23,0,0
53163,-90.9090909090909,4,2,1,60,0,1
81820,-100,4,2,1,60,0,0
85849,-100,4,2,1,23,0,0
88984,-100,4,2,1,5,0,0

[Colours]
Combo1 : 198,227,249
Combo2 : 4,87,200
Combo3 : 223,223,223
Combo4 : 58,205,231

[HitObjects]
99,235,1223,6,0,P|141:221|186:221,1,90,2|0,0:0|0:0,0:0:0:0:
244,289,2118,2,0,P|286:303|331:303,1,90,2|0,0:0|0:0,0:0:0:0:
414,267,3014,2,0,L|435:88,1,180,2|2,0:0|0:0,0:0:0:0:
367,29,4357,1,0,0:0:0:0:
297,86,4805,6,0,P|255:100|210:100,1,90,2|0,0:0|0:0,0:0:0:0:
136,46,5700,1,2,0:0:0:0:
55,85,6148,1,0,0:0:0:0:
63,174,6596,2,0,P|142:213|227:192,1,180,2|2,0:0|0:0,0:0:0:0:
339,50,8387,6,0,L|428:60,1,90,2|0,0:0|0:0,0:0:0:0:
440,148,9282,2,0,L|254:175,1,180,2|2,0:0|0:0,0:0:0:0:
210,248,10625,2,0,P|209:292|223:335,2,90,0|2|0,0:0|0:0|0:0,0:0:0:0:
262,174,11969,6,0,B|345:156|366:218|437:192,1,180,2|2,0:0|0:0,0:0:0:0:
499,128,13312,1,0,0:0:0:0:
451,51,13760,2,0,P|365:30|286:69,1,180,2|2,0:0|0:0,0:0:0:0:
271,158,15103,1,0,0:0:0:0:
324,230,15551,6,0,L|413:219,1,90,2|0,0:0|0:0,0:0:0:0:
427,307,16446,2,0,L|337:317,1,90,2|0,0:0|0:0,0:0:0:0:
253,285,17342,2,0,B|186:276|186:276|151:304|151:304|83:296,1,180,2|2,0:0|0:0,0:0:0:0:
28,225,18685,1,0,0:0:0:0:
93,162,19133,6,0,P|137:162|180:148,1,90,2|0,0:0|0:0,0:0:0:0:
245,86,20028,2,0,P|289:85|332:99,1,90,2|0,0:0|0:0,0:0:0:0:
256,192,20924,12,10,22715,0:0:0:0:
327,244,24506,6,0,L|416:254,2,90,8|8|8,0:0|0:0|0:0,0:0:0:0:
246,203,25849,1,8,0:0:0:0:
192,275,26297,2,0,P|149:289|104:288,1,90
39,226,27193,1,8,0:0:0:0:
55,137,27640,1,2,0:0:0:0:
135,97,28088,2,0,B|218:79|239:141|310:115,1,180,8|8,0:0|0:0,0:0:0:0:
382,63,29431,1,8,0:0:0:0:
459,109,29879,2,0,L|480:287,1,180,0|8,0:0|0:0,0:0:0:0:
304,251,31670,6,0,P|259:250|216:264,1,90,8|8,0:0|0:0,0:0:0:0:
142,317,32566,2,0,P|97:317|54:303,1,90,8|0,0:0|0:0,0:0:0:0:
34,215,33461,2,0,L|50:81,2,135,0|0|2,0:0|0:0|0:0,0:0:0:0:
54,303,35252,1,8,0:0:0:0:
142,317,35700,1,8,0:0:0:0:
215,264,36148,2,0,P|287:249|353:281,1,150,8|8,0:0|0:0,0:0:0:0:
509,139,37939,2,0,L|419:128,1,90,8|8,0:0|0:0,0:0:0:0:
346,75,38834,6,0,B|262:57|242:119|170:93,1,180,2|10,0:0|0:0,0:0:0:0:
96,43,40178,1,0,0:0:0:0:
27,102,40625,2,0,B|53:158|21:222|21:222|39:246|39:273,1,180,2|10,0:0|0:0,0:0:0:0:
103,338,41969,1,0,0:0:0:0:
163,271,42417,6,0,B|201:220|267:215|267:215|292:237|295:264,1,180,2|10,0:0|0:0,0:0:0:0:
359,327,43760,1,0,0:0:0:0:
436,280,44208,2,0,B|474:221|451:155|451:155|409:128,1,180,2|10,0:0|0:0,0:0:0:0:
328,166,45551,1,0,0:0:0:0:
258,109,45999,6,0,L|79:86,1,180,2|8,0:0|0:0,0:0:0:0:
22,155,47342,2,0,P|22:199|36:242,2,90,0|2|0,0:0|0:0|0:0,0:0:0:0:
79,86,48685,1,10,0:0:0:0:
167,99,49133,1,0,0:0:0:0:
256,192,49581,12,0,51372,0:0:0:0:
152,87,53163,6,0,B|203:93|203:93|248:78,1,99.0000030212403,4|2,0:0|0:0,0:0:0:0:
327,20,54058,2,0,B|378:13|378:13|423:28,1,99.0000030212403,0|2,1:0|0:0,0:0:0:0:
491,100,54954,2,0,B|462:161|497:232|497:232|477:258|477:288,1,198.000006042481,0|0,0:0|1:0,0:0:0:0:
398,348,56297,1,2,0:0:0:0:
320,286,56745,6,0,L|221:298,1,99.0000030212403,0|2,0:0|0:0,0:0:0:0:
141,356,57640,2,0,L|42:343,1,99.0000030212403,0|2,1:0|0:0,0:0:0:0:
14,248,58536,5,0,0:0:0:0:
60,158,58984,1,2,0:0:0:0:
156,126,59431,1,0,1:0:0:0:
246,171,59879,1,2,0:0:0:0:
277,266,60327,6,0,B|368:246|391:314|469:285,1,198.000006042481,4|0,0:0|1:0,0:0:0:0:
506,194,61670,1,2,0:0:0:0:
456,108,62118,2,0,P|455:58|440:11,1,99.0000030212403,0|2,0:0|0:0,0:0:0:0:
365,76,63014,2,0,L|266:88,1,99.0000030212403,0|2,1:0|0:0,0:0:0:0:
193,22,63909,6,0,B|119:12|119:12|80:42|80:42|6:34,1,198.000006042481,0|0,0:0|1:0,0:0:0:0:
16,232,65700,5,0,0:0:0:0:
37,135,66148,1,2,0:0:0:0:
134,156,66596,1,0,1:0:0:0:
113,253,67043,1,2,1:2:0:0:
168,334,67491,6,0,P|263:346|333:281,1,198.000006042481,4|0,0:0|1:0,0:0:0:0:
296,189,68834,1,2,0:0:0:0:
355,109,69282,2,0,L|454:121,1,99.0000030212403,0|2,0:0|0:0,0:0:0:0:
472,218,70178,2,0,B|478:269|478:269|463:314,1,99.0000030212403,0|2,1:0|0:0,0:0:0:0:
367,338,71073,6,0,B|337:291|337:291|264:266|199:308,1,198.000006042481,0|0,0:0|1:0,0:0:0:0:
118,364,72417,1,2,0:0:0:0:
28,322,72864,5,0,0:0:0:0:
110,266,73312,1,2,0:0:0:0:
21,223,73760,1,0,1:0:0:0:
103,168,74208,1,2,0:0:0:0:
191,211,74655,6,0,B|252:239|323:204|323:204|349:224|379:224,1,198.000006042481,4|0,0:0|1:0,0:0:0:0:
463,171,75999,1,2,0:0:0:0:
406,89,76446,2,0,B|354:95|354:95|309:80,1,99.0000030212403,0|2,0:0|0:0,0:0:0:0:
231,19,77342,2,0,B|179:12|179:12|134:27,1,99.0000030212403,0|2,1:0|0:0,0:0:0:0:
55,86,78237,6,0,P|39:132|39:182,2,99.0000030212403,0|2|0,0:0|0:0|1:0,0:0:0:0:
134,27,79581,1,2,0:0:0:0:
231,19,80028,1,0,1:0:0:0:
320,62,80476,2,0,L|418:49,2,99.0000030212403,0|0|0,1:0|1:0|1:0,0:0:0:0:
236,115,81820,6,0,B|185:153|180:219|180:219|202:244|229:247,1,180,4|0,0:0|1:0,0:0:0:0:
313,215,83163,1,0,0:0:0:0:
365,287,83611,2,0,P|407:300|452:299,1,90
503,224,84506,1,0,1:0:0:0:
482,136,84954,1,0,0:0:0:0:
394,115,85402,5,4,0:0:0:0:
256,192,85849,12,0,89431,0:0:0:0:
