osu file format v14

[General]
AudioFilename: May I help you.mp3
AudioLeadIn: 2000
PreviewTime: 56690
Countdown: 0
SampleSet: Soft
StackLeniency: 0.7
Mode: 0
LetterboxInBreaks: 0
WidescreenStoryboard: 1

[Editor]
Bookmarks: 274,3474,16274,29074,41874,57874,70674,83474
DistanceSpacing: 1
BeatDivisor: 4
GridSize: 4
TimelineZoom: 1

[Metadata]
Title:May I Help You?
TitleUnicode:めいあいへるぷゆー?
Artist:Kayano Ai, Nakahara Mai, Toyosaki Aki
ArtistUnicode:茅野愛衣・中原麻衣・豊崎愛生
Creator:thzz
Version:Hard
Source:サーバント×サービス
Tags:SERVANT x SERVICE opening 山神ルーシー(略) 三好紗耶 千早恵 Yamagami Ruushii (ryaku) Miyoshi Saya Chihaya Megumi
BeatmapID:286111
BeatmapSetID:103879

[Difficulty]
HPDrainRate:6
CircleSize:4
OverallDifficulty:5
ApproachRate:7
SliderMultiplier:1.7
SliderTickRate:1

[Events]
//Background and Video events
0,0,"servant4.jpg",0,0
Video,-350,"video.avi"
//Break Periods
//Storyboard Layer 0 (Background)
//Storyboard Layer 1 (Fail)
//Storyboard Layer 2 (Pass)
//Storyboard Layer 3 (Foreground)
//Storyboard Sound Samples

[TimingPoints]
290,400,4,2,1,80,1,0
1890,-200,4,2,1,80,0,0
3490,-100,4,2,1,80,0,0
8390,-100,4,2,1,20,0,0
9888,-100,4,2,1,80,0,0
14790,-100,4,2,1,20,0,0
16290,-100,4,2,1,80,0,0
57890,-100,4,2,1,80,0,1
69090,-200,4,2,1,80,0,1
70690,-100,4,2,1,80,0,0
75490,-111.111111111111,4,2,1,80,0,0
77090,-100,4,2,1,80,0,0
81890,-111.111111111111,4,2,1,80,0,0
83490,-100,4,2,1,80,0,0

[Colours]
Combo1 : 255,200,150
Combo2 : 180,255,180
Combo3 : 180,180,255
Combo4 : 255,180,180

[HitObjects]
77,178,290,5,14,0:0:0:0:
77,178,390,1,10,0:0:0:0:
179,101,890,1,14,0:0:0:0:
179,101,990,1,10,0:0:0:0:
300,142,1490,1,14,0:0:0:0:
300,142,1590,1,10,0:0:0:0:
334,264,1890,6,0,P|252:269|193:212,2,170,14|6|6,0:0|0:0|0:0,0:0:0:0:
360,61,3890,6,0,P|360:103|369:145,1,85,2|8,0:0|0:0,0:0:0:0:
432,201,4290,2,0,P|448:270|440:329,2,127.5,2|2|8,0:0|0:0|0:0,0:0:0:0:
369,145,5090,5,2,0:0:0:0:
291,179,5290,1,8,0:0:0:0:
226,123,5490,2,0,P|190:97|150:93,1,85,2|8,0:0|0:0,0:0:0:0:
211,206,5890,2,0,P|199:267|214:332,2,127.5,2|2|8,0:0|0:0|0:0,0:0:0:0:
306,95,6690,6,0,P|349:80|391:85,1,85,2|8,0:0|0:0,0:0:0:0:
363,165,7090,2,0,P|397:194|414:233,1,85,2|8,0:0|0:0,0:0:0:0:
372,306,7490,2,0,P|322:342|258:338,2,127.5,2|2|8,0:0|0:0|0:0,0:0:0:0:
285,222,8290,5,6,0:0:0:0:
256,192,8390,12,6,9890,0:0:0:0:
289,225,10290,6,0,P|250:227|206:215,1,85,2|8,0:0|0:0,0:0:0:0:
147,153,10690,2,0,P|83:143|33:181,2,127.5,2|2|8,0:0|0:0|0:0,0:0:0:0:
231,139,11490,5,2,0:0:0:0:
268,215,11690,1,8,0:0:0:0:
320,148,11890,2,0,P|369:140|404:139,1,85,2|8,0:0|0:0,0:0:0:0:
457,72,12290,2,0,P|405:41|337:26,2,127.5,2|2|8,0:0|0:0|0:0,0:0:0:0:
511,214,13090,6,0,P|516:256|504:298,1,85,2|8,0:0|0:0,0:0:0:0:
445,358,13490,2,0,P|403:363|361:351,1,85,2|8,0:0|0:0,0:0:0:0:
309,285,13890,2,0,P|250:284|185:304,2,127.5,2|2|8,0:0|0:0|0:0,0:0:0:0:
406,215,14690,5,6,0:0:0:0:
256,192,14790,12,4,16290,0:0:0:0:
415,229,16690,6,0,P|432:176|429:99,2,127.5
356,291,17490,1,2,0:0:0:0:
279,253,17690,1,0,0:0:0:0:
228,321,17890,6,0,P|184:317|136:297,1,85,2|8,0:0|0:0,0:0:0:0:
82,246,18290,2,0,P|86:202|106:154,1,85,2|8,0:0|0:0,0:0:0:0:
42,101,18690,2,0,P|82:82|133:75,1,85,2|8,0:0|0:0,0:0:0:0:
181,136,19090,2,0,P|221:155|260:161,1,85,2|8,0:0|0:0,0:0:0:0:
364,100,19490,5,6,0:0:0:0:
453,244,19890,2,0,P|435:308|440:376,2,127.5
512,183,20690,1,2,0:0:0:0:
441,134,20890,1,0,0:0:0:0:
381,194,21090,5,6,0:0:0:0:
213,221,21490,1,6,0:0:0:0:
186,53,21890,1,6,0:0:0:0:
354,26,22290,1,6,0:0:0:0:
280,179,22690,5,6,0:0:0:0:
107,251,23090,2,0,P|106:317|123:377,2,127.5
147,175,23890,1,2,0:0:0:0:
198,242,24090,1,0,0:0:0:0:
233,164,24290,6,0,P|227:115|233:80,1,85,2|8,0:0|0:0,0:0:0:0:
307,121,24690,2,0,P|346:91|379:79,1,85,2|8,0:0|0:0,0:0:0:0:
381,164,25090,2,0,P|426:183|453:206,1,85,2|8,0:0|0:0,0:0:0:0:
380,250,25490,2,0,P|385:299|376:342,1,85,2|8,0:0|0:0,0:0:0:0:
300,364,25890,6,0,P|220:359|185:284,1,170,2|2,0:0|0:0,0:0:0:0:
101,269,26490,2,0,P|149:201|227:210,1,170,8|8,0:0|0:0,0:0:0:0:
287,270,27090,2,0,P|306:234|310:191,1,85,2|8,0:0|0:0,0:0:0:0:
147,155,27690,5,2,0:0:0:0:
147,70,27890,1,2,0:0:0:0:
227,210,28290,5,2,0:0:0:0:
147,239,28490,1,2,0:0:0:0:
67,210,28690,1,2,0:0:0:0:
147,70,29090,5,6,0:0:0:0:
313,11,29490,6,0,P|376:6|446:29,2,127.5
245,63,30290,1,2,0:0:0:0:
324,94,30490,1,0,0:0:0:0:
259,149,30690,6,0,P|254:201|236:230,1,85,2|8,0:0|0:0,0:0:0:0:
155,250,31090,2,0,P|112:219|96:189,1,85,2|8,0:0|0:0,0:0:0:0:
121,110,31490,2,0,P|168:88|202:89,1,85,2|8,0:0|0:0,0:0:0:0:
259,149,31890,1,2,0:0:0:0:
331,104,32090,1,8,0:0:0:0:
429,170,32290,5,6,0:0:0:0:
378,332,32690,2,0,P|451:335|505:313,2,127.5
276,268,33490,1,2,0:0:0:0:
294,352,33690,1,0,0:0:0:0:
359,248,33890,6,0,P|373:207|374:165,1,85,6|0,0:0|0:0,0:0:0:0:
294,194,34290,2,0,P|275:153|246:124,1,85,6|0,0:0|0:0,0:0:0:0:
211,200,34690,2,0,P|170:184|128:183,1,85,6|0,0:0|0:0,0:0:0:0:
155,265,35090,2,0,P|114:281|85:309,1,85,6|0,0:0|0:0,0:0:0:0:
159,351,35490,5,6,0:0:0:0:
350,279,35890,2,0,P|371:225|358:152,2,127.5
286,335,36690,1,2,0:0:0:0:
241,262,36890,1,0,0:0:0:0:
160,288,37090,6,0,P|118:279|76:284,1,85,2|8,0:0|0:0,0:0:0:0:
10,230,37490,2,0,P|1:188|6:146,1,85,2|8,0:0|0:0,0:0:0:0:
46,72,37890,1,2,0:0:0:0:
89,144,38090,1,8,0:0:0:0:
162,100,38290,1,2,0:0:0:0:
205,172,38490,1,8,0:0:0:0:
161,244,38690,6,0,P|238:263|285:198,1,170,2|2,0:0|0:0,0:0:0:0:
268,115,39290,2,0,P|348:123|369:200,1,170,8|8,0:0|0:0,0:0:0:0:
331,277,39890,1,2,0:0:0:0:
377,347,40090,1,8,0:0:0:0:
490,220,40490,5,2,0:0:0:0:
445,149,40690,1,2,0:0:0:0:
307,77,41090,5,2,0:0:0:0:
384,40,41290,1,2,0:0:0:0:
466,66,41490,1,2,0:0:0:0:
325,317,41890,5,6,0:0:0:0:
455,236,42290,2,0,P|467:176|451:108,1,127.5,8|0,0:0|0:0,0:0:0:0:
418,87,42690,1,2,0:0:0:0:
354,143,42890,1,0,0:0:0:0:
331,60,43090,1,8,0:0:0:0:
276,164,43290,6,0,P|266:211|267:249,1,85,0|2,0:0|0:0,0:0:0:0:
211,312,43690,2,0,P|161:313|127:304,2,85,0|8|0,0:0|0:0|0:0,0:0:0:0:
293,332,44290,2,0,P|355:319|424:332,2,127.5,2|2|2,0:0|0:0|0:0,0:0:0:0:
199,212,45090,6,0,P|164:143|208:70,1,170,2|8,0:0|0:0,0:0:0:0:
284,224,45690,2,0,P|241:288|157:286,1,170,0|0,0:0|0:0,0:0:0:0:
102,220,46290,1,8,0:0:0:0:
252,140,46690,6,0,P|334:110|398:165,1,170,2|8,0:0|0:0,0:0:0:0:
427,234,47290,1,0,0:0:0:0:
375,301,47490,1,2,0:0:0:0:
341,222,47690,1,0,0:0:0:0:
271,270,47890,2,0,L|229:279,3,42.5,8|0|0|0,0:0|0:0|0:0|0:0,0:0:0:0:
192,300,48290,6,0,P|139:239|157:147,1,170,2|8,0:0|0:0,0:0:0:0:
254,80,48990,1,0,0:0:0:0:
254,80,49090,2,0,P|304:88|347:81,2,85,2|0|8,0:0|0:0|0:0,0:0:0:0:
184,30,49690,6,0,P|134:22|100:26,1,85,0|2,0:0|0:0,0:0:0:0:
174,114,50090,2,0,P|142:153|129:184,1,85,0|8,0:0|0:0,0:0:0:0:
211,270,50490,2,0,P|275:215|293:134,1,170
248,62,51090,1,8,0:0:0:0:
91,192,51490,5,14,0:0:0:0:
91,192,51590,1,10,0:0:0:0:
256,324,52090,1,14,0:0:0:0:
256,324,52190,1,10,0:0:0:0:
421,192,52690,1,14,0:0:0:0:
421,192,52790,1,10,0:0:0:0:
256,60,53290,1,14,0:0:0:0:
256,60,53390,1,10,0:0:0:0:
197,219,53790,5,10,0:0:0:0:
197,219,53890,2,0,L|284:204,1,85,14|2,0:0|0:0,0:0:0:0:
326,276,54290,2,0,L|242:290,1,85,6|2,0:0|0:0,0:0:0:0:
125,265,54690,5,14,0:0:0:0:
125,265,54790,2,0,P|84:258|38:263,2,85,10|10|10,0:0|0:0|0:0,0:0:0:0:
197,219,55390,1,10,0:0:0:0:
197,219,55490,2,0,P|205:179|201:132,1,85,10|10,0:0|0:0,0:0:0:0:
126,94,55890,5,10,0:0:0:0:
198,49,56090,1,10,0:0:0:0:
271,91,56290,1,14,0:0:0:0:
256,192,56690,12,6,57890,0:0:0:0:
269,277,58290,6,0,P|230:293|189:290,1,85,2|8,0:0|0:0,0:0:0:0:
273,194,58690,1,2,0:0:0:0:
273,194,58790,2,0,P|312:178|354:182,1,85
394,193,59090,1,2,0:0:0:0:
442,123,59290,1,8,0:0:0:0:
472,238,59490,6,0,P|479:289|471:331,1,85,2|8,0:0|0:0,0:0:0:0:
398,362,59890,1,2,0:0:0:0:
398,362,59990,1,0,0:0:0:0:
323,320,60190,1,0,0:0:0:0:
323,320,60290,2,0,L|228:336,1,85,2|8,0:0|0:0,0:0:0:0:
142,265,60690,2,0,L|226:251,1,85,2|8,0:0|0:0,0:0:0:0:
299,207,61090,5,2,0:0:0:0:
140,144,61490,2,0,P|101:159|59:156,1,85,2|8,0:0|0:0,0:0:0:0:
143,60,61890,1,2,0:0:0:0:
143,60,61990,2,0,P|182:44|224:48,1,85
257,74,62290,2,0,P|298:79|340:70,1,85,2|8,0:0|0:0,0:0:0:0:
416,31,62690,5,2,0:0:0:0:
474,92,62890,1,8,0:0:0:0:
428,163,63090,1,2,0:0:0:0:
482,228,63290,1,8,0:0:0:0:
429,293,63490,2,0,L|334:309,1,85,2|8,0:0|0:0,0:0:0:0:
248,238,63890,2,0,L|332:224,1,85,2|8,0:0|0:0,0:0:0:0:
428,163,64290,5,6,0:0:0:0:
357,9,64690,2,0,P|314:23|277:49,1,85,2|8,0:0|0:0,0:0:0:0:
202,76,65090,1,2,0:0:0:0:
202,76,65190,2,0,P|188:113|187:157,1,85
203,197,65490,1,2,0:0:0:0:
272,245,65690,1,8,0:0:0:0:
197,285,65890,6,0,P|150:297|113:292,1,85,2|8,0:0|0:0,0:0:0:0:
37,254,66290,1,2,0:0:0:0:
37,254,66390,1,0,0:0:0:0:
77,179,66590,1,0,0:0:0:0:
77,179,66690,2,0,P|70:134|81:89,1,85,2|0,0:0|0:0,0:0:0:0:
148,48,67090,2,0,L|163:9,2,42.5,2|0|8,0:0|0:0|0:0,0:0:0:0:
249,110,67490,5,14,0:0:0:0:
249,110,67590,1,10,0:0:0:0:
357,176,68090,1,14,0:0:0:0:
357,176,68190,1,10,0:0:0:0:
341,302,68690,1,14,0:0:0:0:
341,302,68790,1,10,0:0:0:0:
230,238,69090,6,0,P|150:215|91:268,2,170,14|6|6,0:0|0:0|0:0,0:0:0:0:
300,46,71090,6,0,P|297:92|307:130,1,85,2|8,0:0|0:0,0:0:0:0:
375,179,71490,2,0,P|445:166|504:182,2,127.5,2|2|8,0:0|0:0|0:0,0:0:0:0:
353,261,72290,5,2,0:0:0:0:
287,207,72490,1,8,0:0:0:0:
202,196,72690,2,0,P|156:196|110:211,1,85,2|8,0:0|0:0,0:0:0:0:
49,255,73090,2,0,P|61:319|53:382,2,127.5,2|2|8,0:0|0:0|0:0,0:0:0:0:
10,143,73890,6,0,P|1:100|7:60,1,85,2|8,0:0|0:0,0:0:0:0:
83,97,74290,2,0,P|115:67|153:53,1,85,2|8,2:0|0:0,0:0:0:0:
162,137,74690,2,0,P|222:159|284:156,2,127.5,2|2|8,0:0|0:0|0:0,0:0:0:0:
270,53,75490,5,6,0:0:0:0:
343,33,75690,1,0,0:0:0:0:
410,68,75890,1,2,0:0:0:0:
410,68,75990,1,0,0:0:0:0:
284,155,76290,2,0,B|276:204|276:204|288:226|288:226|282:269,2,114.749996498108,2|2|2,0:0|0:0|0:0,0:0:0:0:
329,82,77090,6,0,P|372:66|412:69,1,85,6|8,0:0|0:0,0:0:0:0:
472,127,77490,2,0,P|488:170|485:208,1,85,2|8,0:0|0:0,0:0:0:0:
431,274,77890,2,0,P|355:282|313:313,2,127.5,2|2|8,0:0|0:0|0:0,0:0:0:0:
484,208,78690,5,2,0:0:0:0:
404,178,78890,1,8,0:0:0:0:
324,209,79090,2,0,P|273:199|241:203,1,85,2|8,0:0|0:0,0:0:0:0:
187,269,79490,2,0,P|125:280|64:261,2,127.5,2|2|8,0:0|0:0|0:0,0:0:0:0:
244,121,80290,6,0,P|257:77|253:38,1,85,2|8,0:0|0:0,0:0:0:0:
176,75,80690,2,0,P|163:119|167:158,1,85,2|8,0:0|0:0,0:0:0:0:
240,203,81090,2,0,P|305:216|371:201,2,127.5,2|2|8,0:0|0:0|0:0,0:0:0:0:
176,75,81890,5,6,0:0:0:0:
100,63,82090,1,0,0:0:0:0:
49,120,82290,1,2,0:0:0:0:
49,120,82390,1,0,0:0:0:0:
134,195,82690,2,0,B|125:244|125:244|138:264|138:264|132:305,2,114.749996498108,2|2|2,0:0|0:0|0:0,0:0:0:0:
239,122,83490,5,4,0:0:0:0:
316,213,83890,1,0,0:0:0:0:
366,105,84290,2,0,P|421:87|486:108,2,127.5
316,213,85090,6,0,P|242:244|183:190,1,170,0|6,0:0|0:0,0:0:0:0:
