osu file format v14

[General]
AudioFilename: audio.mp3
AudioLeadIn: 0
PreviewTime: 57050
Countdown: 0
SampleSet: Normal
StackLeniency: 0.7
Mode: 1
LetterboxInBreaks: 0
WidescreenStoryboard: 1

[Editor]
DistanceSpacing: 1.2
BeatDivisor: 4
GridSize: 4
TimelineZoom: 2.4

[Metadata]
Title:May I Help You?
TitleUnicode:May I Help You?
Artist:Kayano Ai, Nakahara Mai & Toyosaki Aki
ArtistUnicode:Kayano Ai, Nakahara Mai & Toyosaki Aki
Creator:World Fraction
Version:Muzukashii
Source:SERVANT x SERVICE
Tags:SERVANT x SERVICE opening 山神ルーシー(略) 三好紗耶 千早恵 Yamagami Ruushii (ryaku) Miyoshi Saya Chihaya Megumi k3v227
BeatmapID:1182278
BeatmapSetID:545177

[Difficulty]
HPDrainRate:4
CircleSize:2
OverallDifficulty:4
ApproachRate:5
SliderMultiplier:1.4
SliderTickRate:1

[Events]
//Background and Video events
0,0,"servant.png",0,0
//Break Periods
2,138450,149850
//Storyboard Layer 0 (Background)
//Storyboard Layer 1 (Fail)
//Storyboard Layer 2 (Pass)
//Storyboard Layer 3 (Foreground)
//Storyboard Sound Samples

[TimingPoints]
650,400,4,1,0,80,1,0
58250,-100,4,1,0,80,0,1
68450,-100,4,1,0,80,0,1
83650,-100,4,1,0,80,0,0
125450,-100,4,1,0,80,0,1
138450,-100,4,1,0,80,0,0
167050,-125,4,1,0,50,0,0
176650,-125,4,1,0,80,0,0
177250,-100,4,1,0,80,0,0
181450,-100,4,1,0,80,0,1
191650,-100,4,1,0,80,0,1
207050,-100,4,1,0,80,0,0

[HitObjects]
252,192,650,5,8,0:0:0:0:
252,192,750,1,8,0:0:0:0:
252,192,1250,1,8,0:0:0:0:
252,192,1350,1,8,0:0:0:0:
252,192,1850,1,8,0:0:0:0:
252,192,1950,1,8,0:0:0:0:
252,192,2250,1,4,0:0:0:0:
252,192,3050,1,4,0:0:0:0:
252,192,3850,1,0,0:0:0:0:
252,192,4250,1,0,0:0:0:0:
252,192,4650,1,0,0:0:0:0:
252,192,4950,1,0,0:0:0:0:
252,192,5250,1,8,0:0:0:0:
252,192,5650,1,8,0:0:0:0:
252,192,5850,1,0,0:0:0:0:
252,192,6250,1,8,0:0:0:0:
252,192,6550,1,0,0:0:0:0:
252,192,6850,1,0,0:0:0:0:
252,192,7050,1,8,0:0:0:0:
252,192,7250,1,8,0:0:0:0:
252,192,7450,1,0,0:0:0:0:
252,192,7550,1,0,0:0:0:0:
252,192,7650,1,0,0:0:0:0:
252,192,7850,1,0,0:0:0:0:
252,192,8150,1,0,0:0:0:0:
252,192,8450,1,8,0:0:0:0:
252,192,8650,1,8,0:0:0:0:
252,192,9050,1,8,0:0:0:0:
252,192,9250,1,0,0:0:0:0:
252,192,9450,1,8,0:0:0:0:
252,192,9650,1,0,0:0:0:0:
252,192,9750,1,0,0:0:0:0:
252,192,9850,1,0,0:0:0:0:
252,192,10250,1,0,0:0:0:0:
252,192,10650,1,0,0:0:0:0:
252,192,11050,1,0,0:0:0:0:
252,192,11350,1,0,0:0:0:0:
252,192,11650,1,8,0:0:0:0:
252,192,12050,1,8,0:0:0:0:
252,192,12250,1,0,0:0:0:0:
252,192,12650,1,8,0:0:0:0:
252,192,12950,1,0,0:0:0:0:
252,192,13250,1,0,0:0:0:0:
252,192,13450,1,0,0:0:0:0:
252,192,13850,1,0,0:0:0:0:
252,192,14250,1,0,0:0:0:0:
252,192,14550,1,0,0:0:0:0:
252,192,14850,1,8,0:0:0:0:
252,192,15050,1,8,0:0:0:0:
252,192,15450,1,8,0:0:0:0:
252,192,15650,1,0,0:0:0:0:
252,192,15850,1,8,0:0:0:0:
252,192,16050,1,0,0:0:0:0:
252,192,16150,1,0,0:0:0:0:
252,192,16250,1,0,0:0:0:0:
252,192,16650,1,0,0:0:0:0:
252,192,16850,1,0,0:0:0:0:
252,192,17050,1,0,0:0:0:0:
252,192,17250,1,8,0:0:0:0:
252,192,17350,1,8,0:0:0:0:
252,192,17550,1,0,0:0:0:0:
252,192,17650,1,0,0:0:0:0:
252,192,18050,1,0,0:0:0:0:
252,192,18250,1,8,0:0:0:0:
252,192,18650,1,0,0:0:0:0:
252,192,18750,1,0,0:0:0:0:
252,192,18850,1,0,0:0:0:0:
252,192,19050,1,0,0:0:0:0:
252,192,19250,1,8,0:0:0:0:
252,192,19450,1,0,0:0:0:0:
252,192,19850,1,0,0:0:0:0:
252,192,20050,1,0,0:0:0:0:
252,192,20250,1,0,0:0:0:0:
252,192,20450,1,0,0:0:0:0:
252,192,20550,1,0,0:0:0:0:
252,192,20750,1,0,0:0:0:0:
252,192,20850,1,0,0:0:0:0:
252,192,21250,1,0,0:0:0:0:
252,192,21450,1,12,0:0:0:0:
252,192,21850,1,4,0:0:0:0:
252,192,22250,1,4,0:0:0:0:
252,192,22650,1,4,0:0:0:0:
252,192,23050,1,8,0:0:0:0:
248,180,23250,1,8,0:0:0:0:
252,192,23450,1,8,0:0:0:0:
252,192,23650,1,0,0:0:0:0:
252,192,23750,1,0,0:0:0:0:
252,192,23950,1,0,0:0:0:0:
252,192,24050,1,0,0:0:0:0:
252,192,24450,1,0,0:0:0:0:
252,192,24650,1,8,0:0:0:0:
252,192,25050,1,0,0:0:0:0:
252,192,25250,1,0,0:0:0:0:
252,192,25450,1,8,0:0:0:0:
252,192,25550,1,8,0:0:0:0:
252,192,25650,1,8,0:0:0:0:
252,192,25850,1,0,0:0:0:0:
252,192,26050,1,8,0:0:0:0:
252,192,26250,1,0,0:0:0:0:
252,192,26650,1,8,0:0:0:0:
252,192,26850,1,0,0:0:0:0:
252,192,26950,1,0,0:0:0:0:
252,192,27050,1,0,0:0:0:0:
252,192,27250,1,0,0:0:0:0:
252,192,27450,1,8,0:0:0:0:
252,192,27650,1,0,0:0:0:0:
252,192,27850,1,8,0:0:0:0:
252,192,28050,1,0,0:0:0:0:
252,192,28250,1,0,0:0:0:0:
252,192,28650,1,8,0:0:0:0:
252,192,28850,1,8,0:0:0:0:
252,192,29050,1,8,0:0:0:0:
252,192,29450,1,0,0:0:0:0:
252,192,29850,1,0,0:0:0:0:
252,192,30050,1,0,0:0:0:0:
252,192,30150,1,0,0:0:0:0:
252,192,30350,1,0,0:0:0:0:
252,192,30450,1,0,0:0:0:0:
252,192,30850,1,0,0:0:0:0:
252,192,31050,1,8,0:0:0:0:
252,192,31450,1,8,0:0:0:0:
252,192,31550,1,8,0:0:0:0:
252,192,31650,1,8,0:0:0:0:
252,192,31850,1,0,0:0:0:0:
252,192,32050,1,8,0:0:0:0:
252,192,32250,1,0,0:0:0:0:
252,192,32350,1,0,0:0:0:0:
252,192,32450,1,0,0:0:0:0:
252,192,32650,1,12,0:0:0:0:
252,192,33050,1,8,0:0:0:0:
252,192,33250,1,0,0:0:0:0:
252,192,33350,1,0,0:0:0:0:
252,192,33550,1,8,0:0:0:0:
252,192,33650,1,8,0:0:0:0:
252,192,34050,1,0,0:0:0:0:
252,192,34250,1,4,0:0:0:0:
252,192,34650,1,4,0:0:0:0:
252,192,35050,1,12,0:0:0:0:
252,192,35450,1,12,0:0:0:0:
252,192,35850,1,12,0:0:0:0:
252,192,36050,1,8,0:0:0:0:
252,192,36250,1,8,0:0:0:0:
252,192,36450,1,0,0:0:0:0:
252,192,36550,1,0,0:0:0:0:
252,192,36750,1,0,0:0:0:0:
252,192,36850,1,0,0:0:0:0:
252,192,37250,1,0,0:0:0:0:
252,192,37450,1,8,0:0:0:0:
252,192,37650,1,8,0:0:0:0:
252,192,37850,1,0,0:0:0:0:
252,192,38050,1,0,0:0:0:0:
252,192,38250,1,0,0:0:0:0:
252,192,38450,1,8,0:0:0:0:
252,192,38650,1,8,0:0:0:0:
252,192,38850,1,8,0:0:0:0:
252,192,39050,1,0,0:0:0:0:
252,192,39150,1,0,0:0:0:0:
252,192,39250,1,0,0:0:0:0:
252,192,39450,1,0,0:0:0:0:
252,192,39650,1,8,0:0:0:0:
252,192,39850,1,8,0:0:0:0:
252,192,39950,1,8,0:0:0:0:
252,192,40050,1,8,0:0:0:0:
252,192,40250,1,8,0:0:0:0:
252,192,40650,1,8,0:0:0:0:
252,192,41050,1,4,0:0:0:0:
252,192,41450,1,12,0:0:0:0:
252,192,41850,1,4,0:0:0:0:
252,192,42250,1,0,0:0:0:0:
252,192,42650,1,8,0:0:0:0:
252,192,43050,1,0,0:0:0:0:
252,192,43250,1,0,0:0:0:0:
252,192,43450,1,8,0:0:0:0:
252,192,43650,1,0,0:0:0:0:
252,192,44050,1,8,0:0:0:0:
252,192,44450,1,0,0:0:0:0:
252,192,44650,1,8,0:0:0:0:
252,192,44850,1,0,0:0:0:0:
252,192,44950,1,0,0:0:0:0:
252,192,45050,1,0,0:0:0:0:
252,192,45250,1,8,0:0:0:0:
252,192,45450,1,0,0:0:0:0:
252,192,45650,1,0,0:0:0:0:
252,192,45850,1,8,0:0:0:0:
252,192,46250,1,0,0:0:0:0:
252,192,46450,1,0,0:0:0:0:
252,192,46650,1,8,0:0:0:0:
252,192,46850,1,0,0:0:0:0:
252,192,47050,1,8,0:0:0:0:
252,192,47450,1,8,0:0:0:0:
252,192,47650,1,8,0:0:0:0:
252,192,47750,1,8,0:0:0:0:
252,192,47850,1,8,0:0:0:0:
252,192,48050,1,0,0:0:0:0:
252,192,48150,1,0,0:0:0:0:
252,192,48250,1,0,0:0:0:0:
252,192,48450,1,0,0:0:0:0:
252,192,48650,1,8,0:0:0:0:
252,192,49050,1,8,0:0:0:0:
252,192,49350,1,0,0:0:0:0:
252,192,49450,1,0,0:0:0:0:
252,192,49650,1,0,0:0:0:0:
252,192,49850,1,8,0:0:0:0:
252,192,50050,1,8,0:0:0:0:
252,192,50450,1,0,0:0:0:0:
252,192,50850,1,8,0:0:0:0:
252,192,51250,1,0,0:0:0:0:
252,192,51450,1,8,0:0:0:0:
252,192,51850,1,8,0:0:0:0:
252,192,52150,1,0,0:0:0:0:
252,192,52450,1,8,0:0:0:0:
252,192,52750,1,0,0:0:0:0:
252,192,53050,1,8,0:0:0:0:
252,192,53350,1,0,0:0:0:0:
252,192,53650,1,8,0:0:0:0:
252,192,53750,1,8,0:0:0:0:
252,192,53950,1,0,0:0:0:0:
252,192,54250,1,8,0:0:0:0:
252,192,54450,1,0,0:0:0:0:
252,192,54650,1,8,0:0:0:0:
252,192,54850,1,8,0:0:0:0:
252,192,55050,1,8,0:0:0:0:
252,192,55150,1,8,0:0:0:0:
252,192,55350,1,8,0:0:0:0:
252,192,55550,1,8,0:0:0:0:
252,192,55850,1,8,0:0:0:0:
252,192,56050,1,0,0:0:0:0:
252,192,56250,1,8,0:0:0:0:
252,192,56450,1,8,0:0:0:0:
252,192,56650,1,8,0:0:0:0:
252,192,57250,1,0,0:0:0:0:
252,192,57450,1,0,0:0:0:0:
252,192,57850,1,8,0:0:0:0:
252,192,58250,1,4,0:0:0:0:
252,192,58650,1,0,0:0:0:0:
252,192,59050,1,0,0:0:0:0:
252,192,59150,1,0,0:0:0:0:
252,192,59350,1,0,0:0:0:0:
252,192,59450,1,0,0:0:0:0:
252,192,59650,1,8,0:0:0:0:
252,192,59850,1,0,0:0:0:0:
252,192,60050,1,8,0:0:0:0:
252,192,60250,1,0,0:0:0:0:
252,192,60350,1,0,0:0:0:0:
252,192,60550,1,8,0:0:0:0:
252,192,60850,1,8,0:0:0:0:
252,192,61050,1,0,0:0:0:0:
252,192,61450,1,0,0:0:0:0:
252,192,61850,1,0,0:0:0:0:
252,192,62250,1,0,0:0:0:0:
252,192,62350,1,0,0:0:0:0:
252,192,62550,1,8,0:0:0:0:
252,192,62650,1,8,0:0:0:0:
252,192,62850,1,8,0:0:0:0:
252,192,63050,1,0,0:0:0:0:
252,192,63250,1,8,0:0:0:0:
252,192,63450,1,8,0:0:0:0:
252,192,63650,1,8,0:0:0:0:
252,192,63850,1,4,0:0:0:0:
252,192,64250,1,4,0:0:0:0:
252,192,64650,1,0,0:0:0:0:
252,192,65050,1,0,0:0:0:0:
252,192,65450,1,0,0:0:0:0:
252,192,65550,1,0,0:0:0:0:
252,192,65750,1,0,0:0:0:0:
252,192,65850,1,0,0:0:0:0:
252,192,66050,1,8,0:0:0:0:
252,192,66250,1,0,0:0:0:0:
252,192,66450,1,8,0:0:0:0:
252,192,66650,1,8,0:0:0:0:
252,192,66750,1,8,0:0:0:0:
252,192,66950,1,8,0:0:0:0:
252,192,67050,1,8,0:0:0:0:
252,192,67850,1,0,0:0:0:0:
252,192,67950,1,0,0:0:0:0:
252,192,68450,1,0,0:0:0:0:
252,192,68550,1,0,0:0:0:0:
252,192,69050,1,0,0:0:0:0:
252,192,69150,1,0,0:0:0:0:
252,192,69450,1,12,0:0:0:0:
252,192,70250,1,12,0:0:0:0:
252,192,71050,1,0,0:0:0:0:
252,192,71450,1,0,0:0:0:0:
252,192,71850,1,0,0:0:0:0:
252,192,72150,1,0,0:0:0:0:
252,192,72450,1,8,0:0:0:0:
252,192,72850,1,8,0:0:0:0:
252,192,73050,1,0,0:0:0:0:
252,192,73450,1,8,0:0:0:0:
252,192,73750,1,0,0:0:0:0:
252,192,74050,1,0,0:0:0:0:
252,192,74250,1,8,0:0:0:0:
252,192,74450,1,8,0:0:0:0:
252,192,74650,1,0,0:0:0:0:
252,192,74750,1,0,0:0:0:0:
252,192,74850,1,0,0:0:0:0:
252,192,75050,1,0,0:0:0:0:
252,192,75350,1,0,0:0:0:0:
252,192,75650,1,8,0:0:0:0:
252,192,75850,1,8,0:0:0:0:
252,192,76250,1,8,0:0:0:0:
252,192,76450,1,0,0:0:0:0:
252,192,76650,1,8,0:0:0:0:
252,192,76850,1,0,0:0:0:0:
252,192,76950,1,0,0:0:0:0:
252,192,77050,1,0,0:0:0:0:
252,192,77450,1,0,0:0:0:0:
252,192,77850,1,0,0:0:0:0:
252,192,78250,1,0,0:0:0:0:
252,192,78550,1,0,0:0:0:0:
252,192,78850,1,8,0:0:0:0:
252,192,79250,1,8,0:0:0:0:
252,192,79450,1,0,0:0:0:0:
252,192,79850,1,8,0:0:0:0:
252,192,80150,1,0,0:0:0:0:
252,192,80450,1,0,0:0:0:0:
252,192,80650,1,0,0:0:0:0:
252,192,81050,1,0,0:0:0:0:
252,192,81450,1,0,0:0:0:0:
252,192,81750,1,0,0:0:0:0:
252,192,82050,1,8,0:0:0:0:
252,192,82250,1,8,0:0:0:0:
252,192,82650,1,8,0:0:0:0:
252,192,82850,1,0,0:0:0:0:
252,192,83050,1,8,0:0:0:0:
252,192,83250,1,0,0:0:0:0:
252,192,83350,1,0,0:0:0:0:
252,192,83450,1,0,0:0:0:0:
252,192,83850,1,8,0:0:0:0:
252,192,84050,1,8,0:0:0:0:
252,192,84250,1,8,0:0:0:0:
252,192,84450,1,0,0:0:0:0:
252,192,84550,1,0,0:0:0:0:
252,192,84750,1,0,0:0:0:0:
252,192,84850,1,0,0:0:0:0:
252,192,85250,1,0,0:0:0:0:
252,192,85450,1,0,0:0:0:0:
252,192,85850,1,0,0:0:0:0:
252,192,86250,1,0,0:0:0:0:
252,192,86650,1,8,0:0:0:0:
252,192,87050,1,8,0:0:0:0:
252,192,87250,1,8,0:0:0:0:
252,192,87350,1,8,0:0:0:0:
252,192,87450,1,8,0:0:0:0:
252,192,87750,1,0,0:0:0:0:
252,192,87950,1,0,0:0:0:0:
252,192,88050,1,0,0:0:0:0:
252,192,88450,1,8,0:0:0:0:
252,192,88650,1,8,0:0:0:0:
252,192,89050,1,8,0:0:0:0:
252,192,89450,1,0,0:0:0:0:
252,192,89850,1,8,0:0:0:0:
252,192,90050,1,8,0:0:0:0:
252,192,90250,1,0,0:0:0:0:
252,192,90450,1,0,0:0:0:0:
252,192,90550,1,0,0:0:0:0:
252,192,90650,1,0,0:0:0:0:
252,192,90850,1,8,0:0:0:0:
252,192,90950,1,8,0:0:0:0:
252,192,91150,1,8,0:0:0:0:
252,192,91250,1,8,0:0:0:0:
252,192,91650,1,0,0:0:0:0:
252,192,91850,1,8,0:0:0:0:
252,192,92050,1,8,0:0:0:0:
252,192,92250,1,0,0:0:0:0:
252,192,92450,1,0,0:0:0:0:
252,192,92650,1,0,0:0:0:0:
252,192,92850,1,8,0:0:0:0:
252,192,93050,1,8,0:0:0:0:
252,192,93150,1,8,0:0:0:0:
252,192,93250,1,8,0:0:0:0:
252,192,93450,1,0,0:0:0:0:
252,192,93650,1,8,0:0:0:0:
252,192,93850,1,0,0:0:0:0:
252,192,94050,1,8,0:0:0:0:
252,192,94250,1,8,0:0:0:0:
252,192,94350,1,8,0:0:0:0:
252,192,94450,1,8,0:0:0:0:
252,192,94650,1,8,0:0:0:0:
252,192,94850,1,0,0:0:0:0:
252,192,95250,1,4,0:0:0:0:
252,192,95450,1,4,0:0:0:0:
252,192,95850,1,12,0:0:0:0:
252,192,96050,1,12,0:0:0:0:
252,192,96250,1,12,0:0:0:0:
252,192,96650,1,8,0:0:0:0:
252,192,96850,1,0,0:0:0:0:
252,192,96950,1,0,0:0:0:0:
252,192,97050,1,0,0:0:0:0:
252,192,97250,1,0,0:0:0:0:
252,192,97350,1,0,0:0:0:0:
252,192,97550,1,0,0:0:0:0:
252,192,97650,1,0,0:0:0:0:
252,192,98050,1,0,0:0:0:0:
252,192,98250,1,8,0:0:0:0:
252,192,98650,1,0,0:0:0:0:
252,192,98750,1,0,0:0:0:0:
252,192,98850,1,8,0:0:0:0:
252,192,99050,1,0,0:0:0:0:
252,192,99250,1,0,0:0:0:0:
252,192,99450,1,8,0:0:0:0:
252,192,99650,1,8,0:0:0:0:
252,192,99850,1,12,0:0:0:0:
252,192,100150,1,0,0:0:0:0:
252,192,100250,1,0,0:0:0:0:
252,192,100450,1,0,0:0:0:0:
252,192,100550,1,0,0:0:0:0:
252,192,100750,1,0,0:0:0:0:
252,192,100850,1,0,0:0:0:0:
252,192,101450,1,0,0:0:0:0:
252,192,101850,1,0,0:0:0:0:
252,192,102250,1,8,0:0:0:0:
252,192,102650,1,8,0:0:0:0:
252,192,103050,1,8,0:0:0:0:
252,192,103250,1,8,0:0:0:0:
252,192,103350,1,8,0:0:0:0:
252,192,103450,1,8,0:0:0:0:
252,192,103650,1,0,0:0:0:0:
252,192,103750,1,0,0:0:0:0:
252,192,103950,1,0,0:0:0:0:
252,192,104050,1,0,0:0:0:0:
252,192,104450,1,0,0:0:0:0:
252,192,104650,1,8,0:0:0:0:
252,192,104850,1,8,0:0:0:0:
252,192,105050,1,0,0:0:0:0:
252,192,105150,1,0,0:0:0:0:
252,192,105250,1,0,0:0:0:0:
252,192,105450,1,0,0:0:0:0:
252,192,105650,1,8,0:0:0:0:
252,192,105850,1,8,0:0:0:0:
252,192,106050,1,8,0:0:0:0:
252,192,106250,1,0,0:0:0:0:
252,192,106450,1,8,0:0:0:0:
252,192,106650,1,0,0:0:0:0:
252,192,106850,1,0,0:0:0:0:
252,192,106950,1,0,0:0:0:0:
252,192,107050,1,0,0:0:0:0:
252,192,107250,1,8,0:0:0:0:
252,192,107450,1,8,0:0:0:0:
252,192,107650,1,0,0:0:0:0:
252,192,108050,1,4,0:0:0:0:
252,192,108250,1,4,0:0:0:0:
252,192,108650,1,12,0:0:0:0:
252,192,108850,1,12,0:0:0:0:
252,192,109050,1,12,0:0:0:0:
252,192,109450,1,8,0:0:0:0:
252,192,109850,1,8,0:0:0:0:
252,192,110150,1,0,0:0:0:0:
252,192,110250,1,0,0:0:0:0:
252,192,110450,1,0,0:0:0:0:
252,192,110650,1,8,0:0:0:0:
252,192,110850,1,8,0:0:0:0:
252,192,111250,1,0,0:0:0:0:
252,192,111650,1,8,0:0:0:0:
252,192,112450,1,0,0:0:0:0:
252,192,112650,1,8,0:0:0:0:
252,192,113250,1,0,0:0:0:0:
252,192,113850,1,8,0:0:0:0:
252,192,114250,1,0,0:0:0:0:
252,192,114450,1,0,0:0:0:0:
252,192,114650,1,8,0:0:0:0:
252,192,114850,1,8,0:0:0:0:
252,192,115050,1,0,0:0:0:0:
252,192,115150,1,0,0:0:0:0:
252,192,115250,1,0,0:0:0:0:
252,192,115450,1,8,0:0:0:0:
252,192,115650,1,8,0:0:0:0:
252,192,115750,1,8,0:0:0:0:
252,192,115850,1,8,0:0:0:0:
252,192,116250,1,0,0:0:0:0:
252,192,116450,1,0,0:0:0:0:
252,192,116650,1,8,0:0:0:0:
252,192,116850,1,0,0:0:0:0:
252,192,117050,1,8,0:0:0:0:
252,192,117250,1,0,0:0:0:0:
252,192,117650,1,0,0:0:0:0:
252,192,118050,1,0,0:0:0:0:
252,192,118250,1,8,0:0:0:0:
252,192,118450,1,0,0:0:0:0:
252,192,118650,1,8,0:0:0:0:
252,192,119050,1,8,0:0:0:0:
252,192,119150,1,8,0:0:0:0:
252,192,119350,1,0,0:0:0:0:
252,192,119650,1,8,0:0:0:0:
252,192,119750,1,8,0:0:0:0:
252,192,119950,1,0,0:0:0:0:
252,192,120250,1,8,0:0:0:0:
252,192,120350,1,8,0:0:0:0:
252,192,120550,1,0,0:0:0:0:
252,192,120850,1,8,0:0:0:0:
252,192,120950,1,8,0:0:0:0:
252,192,121150,1,0,0:0:0:0:
252,192,121350,1,8,0:0:0:0:
252,192,121450,1,8,0:0:0:0:
252,192,121650,1,0,0:0:0:0:
252,192,121850,1,0,0:0:0:0:
252,192,122050,1,0,0:0:0:0:
252,192,122250,1,8,0:0:0:0:
252,192,122350,1,8,0:0:0:0:
252,192,122550,1,8,0:0:0:0:
252,192,122750,1,8,0:0:0:0:
252,192,122950,1,8,0:0:0:0:
252,192,123050,1,8,0:0:0:0:
252,192,123250,1,0,0:0:0:0:
252,192,123450,1,8,0:0:0:0:
252,192,123650,1,8,0:0:0:0:
252,192,123850,1,8,0:0:0:0:
252,192,124450,1,0,0:0:0:0:
252,192,124650,1,0,0:0:0:0:
252,192,125050,1,0,0:0:0:0:
252,192,125450,1,4,0:0:0:0:
252,192,125850,1,0,0:0:0:0:
252,192,126250,1,0,0:0:0:0:
252,192,126350,1,0,0:0:0:0:
252,192,126550,1,0,0:0:0:0:
252,192,126650,1,0,0:0:0:0:
252,192,126850,1,8,0:0:0:0:
252,192,127050,1,0,0:0:0:0:
252,192,127250,1,8,0:0:0:0:
252,192,127450,1,0,0:0:0:0:
252,192,127550,1,0,0:0:0:0:
252,192,127750,1,8,0:0:0:0:
252,192,128050,1,8,0:0:0:0:
252,192,128250,1,8,0:0:0:0:
252,192,128350,1,8,0:0:0:0:
252,192,128450,1,8,0:0:0:0:
252,192,128650,1,0,0:0:0:0:
252,192,129050,1,0,0:0:0:0:
252,192,129450,1,0,0:0:0:0:
252,192,129550,1,0,0:0:0:0:
252,192,129750,1,8,0:0:0:0:
252,192,129850,1,8,0:0:0:0:
252,192,130050,1,8,0:0:0:0:
252,192,130250,1,0,0:0:0:0:
252,192,130450,1,8,0:0:0:0:
252,192,130650,1,8,0:0:0:0:
252,192,130850,1,8,0:0:0:0:
252,192,131050,1,0,0:0:0:0:
252,192,131150,1,0,0:0:0:0:
252,192,131250,1,0,0:0:0:0:
252,192,131450,1,8,0:0:0:0:
252,192,131550,1,8,0:0:0:0:
252,192,131650,1,8,0:0:0:0:
252,192,131850,1,4,0:0:0:0:
252,192,132250,1,0,0:0:0:0:
252,192,132650,1,0,0:0:0:0:
252,192,132750,1,0,0:0:0:0:
252,192,132950,1,0,0:0:0:0:
252,192,133050,1,0,0:0:0:0:
252,192,133250,1,8,0:0:0:0:
252,192,133450,1,0,0:0:0:0:
252,192,133650,1,8,0:0:0:0:
252,192,133850,1,0,0:0:0:0:
252,192,134050,1,8,0:0:0:0:
252,192,134250,1,0,0:0:0:0:
252,192,134650,1,8,0:0:0:0:
252,192,135050,1,8,0:0:0:0:
252,192,135150,1,8,0:0:0:0:
252,192,135650,1,8,0:0:0:0:
252,192,135750,1,8,0:0:0:0:
252,192,136250,1,8,0:0:0:0:
252,192,136350,1,8,0:0:0:0:
256,192,136650,12,0,138250,0:0:0:0:
252,192,151050,5,0,0:0:0:0:
252,192,151650,1,0,0:0:0:0:
252,192,151750,1,0,0:0:0:0:
252,192,151850,1,0,0:0:0:0:
252,192,152150,1,8,0:0:0:0:
252,192,152450,1,0,0:0:0:0:
252,192,152650,1,8,0:0:0:0:
252,192,152950,1,8,0:0:0:0:
252,192,153250,1,8,0:0:0:0:
252,192,153350,1,8,0:0:0:0:
252,192,153450,1,8,0:0:0:0:
252,192,154250,1,0,0:0:0:0:
252,192,154850,1,8,0:0:0:0:
252,192,154950,1,8,0:0:0:0:
252,192,155050,1,8,0:0:0:0:
252,192,155350,1,0,0:0:0:0:
252,192,155650,1,8,0:0:0:0:
252,192,155850,1,0,0:0:0:0:
252,192,156050,1,12,0:0:0:0:
252,192,156250,1,12,0:0:0:0:
252,192,156650,1,0,0:0:0:0:
252,192,156850,1,12,0:0:0:0:
252,192,157050,1,12,0:0:0:0:
252,192,157450,1,0,0:0:0:0:
252,192,158050,1,0,0:0:0:0:
252,192,158250,1,8,0:0:0:0:
252,192,158550,1,8,0:0:0:0:
252,192,158850,1,8,0:0:0:0:
252,192,159050,1,0,0:0:0:0:
252,192,159350,1,0,0:0:0:0:
252,192,159650,1,0,0:0:0:0:
252,192,159750,1,0,0:0:0:0:
252,192,159850,1,0,0:0:0:0:
252,192,160450,1,0,0:0:0:0:
252,192,160550,1,0,0:0:0:0:
252,192,160650,1,0,0:0:0:0:
252,192,160850,2,0,L|200:192,6,35
252,192,161650,1,8,0:0:0:0:
252,192,162050,1,0,0:0:0:0:
252,192,162250,1,0,0:0:0:0:
252,192,162550,1,0,0:0:0:0:
252,192,162850,1,8,0:0:0:0:
252,192,163050,1,8,0:0:0:0:
252,192,163350,1,8,0:0:0:0:
252,192,163650,1,0,0:0:0:0:
252,192,163850,1,8,0:0:0:0:
252,192,164150,1,8,0:0:0:0:
252,192,164350,1,8,0:0:0:0:
252,192,164550,1,8,0:0:0:0:
252,192,164650,1,8,0:0:0:0:
252,192,164850,1,8,0:0:0:0:
252,192,165050,1,8,0:0:0:0:
252,192,165250,1,0,0:0:0:0:
252,192,165450,1,12,0:0:0:0:
256,192,165650,12,0,166850,0:0:0:0:
256,192,167050,5,0,0:0:0:0:
256,192,167450,1,0,0:0:0:0:
256,192,167850,1,0,0:0:0:0:
256,192,167950,1,0,0:0:0:0:
256,192,168150,1,8,0:0:0:0:
256,192,168250,1,8,0:0:0:0:
256,192,168450,1,0,0:0:0:0:
256,192,168650,1,8,0:0:0:0:
256,192,168850,1,8,0:0:0:0:
256,192,169050,1,8,0:0:0:0:
256,192,169150,1,8,0:0:0:0:
256,192,169350,1,0,0:0:0:0:
256,192,170250,1,0,0:0:0:0:
256,192,170650,1,8,0:0:0:0:
256,192,171050,1,0,0:0:0:0:
256,192,171150,1,0,0:0:0:0:
256,192,171350,1,8,0:0:0:0:
256,192,171450,1,8,0:0:0:0:
256,192,171650,1,0,0:0:0:0:
256,192,171850,1,0,0:0:0:0:
256,192,172250,1,0,0:0:0:0:
256,192,172650,1,8,0:0:0:0:
256,192,173050,1,0,0:0:0:0:
256,192,173450,1,8,0:0:0:0:
256,192,173850,1,0,0:0:0:0:
256,192,174250,1,0,0:0:0:0:
256,192,174550,1,8,0:0:0:0:
256,192,174650,1,8,0:0:0:0:
256,192,174850,1,0,0:0:0:0:
256,192,175050,1,0,0:0:0:0:
256,192,175250,1,8,0:0:0:0:
256,192,175450,1,8,0:0:0:0:
256,192,175550,1,8,0:0:0:0:
256,192,175750,1,0,0:0:0:0:
256,192,176650,1,8,0:0:0:0:
256,192,176750,1,8,0:0:0:0:
256,192,177250,1,8,0:0:0:0:
256,192,177350,1,8,0:0:0:0:
256,192,177850,1,8,0:0:0:0:
256,192,177950,1,8,0:0:0:0:
256,192,178250,1,4,0:0:0:0:
256,192,178850,1,0,0:0:0:0:
256,192,178950,1,0,0:0:0:0:
256,192,179050,1,8,0:0:0:0:
256,192,179250,1,0,0:0:0:0:
256,192,179450,1,8,0:0:0:0:
256,192,179583,1,8,0:0:0:0:
256,192,179716,1,8,0:0:0:0:
256,192,179850,1,0,0:0:0:0:
256,192,180450,1,0,0:0:0:0:
256,192,180650,1,8,0:0:0:0:
256,196,181050,1,8,0:0:0:0:
252,192,181450,1,4,0:0:0:0:
252,192,181850,1,0,0:0:0:0:
252,192,182250,1,0,0:0:0:0:
252,192,182350,1,0,0:0:0:0:
252,192,182550,1,0,0:0:0:0:
252,192,182650,1,0,0:0:0:0:
252,192,182850,1,8,0:0:0:0:
252,192,183050,1,0,0:0:0:0:
252,192,183250,1,8,0:0:0:0:
252,192,183450,1,0,0:0:0:0:
252,192,183550,1,0,0:0:0:0:
252,192,183750,1,8,0:0:0:0:
252,192,184050,1,8,0:0:0:0:
252,192,184250,1,8,0:0:0:0:
252,192,184350,1,8,0:0:0:0:
252,192,184450,1,8,0:0:0:0:
252,192,184650,1,0,0:0:0:0:
252,192,185050,1,0,0:0:0:0:
252,192,185450,1,0,0:0:0:0:
252,192,185550,1,0,0:0:0:0:
252,192,185750,1,8,0:0:0:0:
252,192,185850,1,8,0:0:0:0:
252,192,186050,1,8,0:0:0:0:
252,192,186250,1,0,0:0:0:0:
252,192,186450,1,8,0:0:0:0:
252,192,186650,1,8,0:0:0:0:
252,192,186850,1,8,0:0:0:0:
252,192,187050,1,0,0:0:0:0:
252,192,187150,1,0,0:0:0:0:
252,192,187250,1,0,0:0:0:0:
252,192,187450,1,8,0:0:0:0:
252,192,187550,1,8,0:0:0:0:
252,192,187650,1,8,0:0:0:0:
252,192,187850,1,4,0:0:0:0:
252,192,188250,1,0,0:0:0:0:
252,192,188650,1,0,0:0:0:0:
252,192,188750,1,0,0:0:0:0:
252,192,188950,1,0,0:0:0:0:
252,192,189050,1,0,0:0:0:0:
252,192,189250,1,8,0:0:0:0:
252,192,189450,1,0,0:0:0:0:
252,192,189650,1,8,0:0:0:0:
252,192,189850,1,0,0:0:0:0:
252,192,190050,1,8,0:0:0:0:
252,192,190250,1,0,0:0:0:0:
252,192,191050,1,0,0:0:0:0:
252,192,191150,1,0,0:0:0:0:
252,192,191650,1,0,0:0:0:0:
252,192,191750,1,0,0:0:0:0:
252,192,192250,1,0,0:0:0:0:
252,192,192350,1,0,0:0:0:0:
252,192,192650,1,12,0:0:0:0:
252,192,193450,1,12,0:0:0:0:
252,192,194250,1,0,0:0:0:0:
252,192,194650,1,0,0:0:0:0:
252,192,195050,1,0,0:0:0:0:
252,192,195350,1,8,0:0:0:0:
252,192,195650,1,8,0:0:0:0:
252,192,196050,1,8,0:0:0:0:
252,192,196250,1,0,0:0:0:0:
252,192,196650,1,8,0:0:0:0:
252,192,196950,1,0,0:0:0:0:
252,192,197250,1,0,0:0:0:0:
252,192,197450,1,8,0:0:0:0:
252,192,197650,1,8,0:0:0:0:
252,192,197850,1,0,0:0:0:0:
252,192,197950,1,0,0:0:0:0:
252,192,198050,1,0,0:0:0:0:
252,192,198250,1,0,0:0:0:0:
252,192,198550,1,0,0:0:0:0:
252,192,198850,1,8,0:0:0:0:
252,192,199050,1,8,0:0:0:0:
252,192,199450,1,8,0:0:0:0:
252,192,199650,1,0,0:0:0:0:
252,192,199850,1,8,0:0:0:0:
252,192,200050,1,0,0:0:0:0:
252,192,200150,1,0,0:0:0:0:
252,192,200250,1,0,0:0:0:0:
252,192,200650,1,0,0:0:0:0:
252,192,201050,1,0,0:0:0:0:
252,192,201450,1,0,0:0:0:0:
252,192,201750,1,8,0:0:0:0:
252,192,202050,1,8,0:0:0:0:
252,192,202450,1,8,0:0:0:0:
252,192,202650,1,0,0:0:0:0:
252,192,203050,1,8,0:0:0:0:
252,192,203350,1,0,0:0:0:0:
252,192,203650,1,8,0:0:0:0:
252,192,203850,1,0,0:0:0:0:
252,192,204250,1,0,0:0:0:0:
252,192,204650,1,0,0:0:0:0:
252,192,204950,1,0,0:0:0:0:
252,192,205250,1,8,0:0:0:0:
252,192,205450,1,8,0:0:0:0:
252,192,205850,1,8,0:0:0:0:
252,192,206050,1,0,0:0:0:0:
252,192,206250,1,8,0:0:0:0:
252,192,206450,1,0,0:0:0:0:
252,192,206550,1,0,0:0:0:0:
252,192,206650,1,0,0:0:0:0:
252,192,207050,1,4,0:0:0:0:
252,192,207450,1,4,0:0:0:0:
252,192,207850,1,4,0:0:0:0:
252,192,208150,1,4,0:0:0:0:
252,192,208450,1,4,0:0:0:0:
252,192,209050,1,12,0:0:0:0:
