osu file format v14

[General]
AudioFilename: audio.mp3
AudioLeadIn: 0
PreviewTime: 60639
Countdown: 0
SampleSet: Soft
StackLeniency: 0.5
Mode: 0
LetterboxInBreaks: 0
WidescreenStoryboard: 1

[Editor]
Bookmarks: 34110,39188,67167
DistanceSpacing: 1
BeatDivisor: 12
GridSize: 4
TimelineZoom: 2.3

[Metadata]
Title:Fantastic Rabbit House
TitleUnicode:Fantastic Rabbit House
Artist:Kayano Ai, Hayami Saori, Hayami Shou
ArtistUnicode:茅野愛衣・早見沙織・速水奨
Creator:UjiMatcha
Version:_lai's Hard
Source:ご注文はうさぎですか??
Tags:_lai BaAR_Vendel ごちうさ gochiusa gochuumon wa usagi desu ka? is the order a rabbit? デュエットソングアルバム 青山 蓝山 保登 摩卡 香风 隆宏 モカ 青山ブルーマウンテン タカヒロ Aoyama Blue Mountain Mocha Takahiro
BeatmapID:1863985
BeatmapSetID:888363

[Difficulty]
HPDrainRate:5
CircleSize:4
OverallDifficulty:6
ApproachRate:7.5
SliderMultiplier:2.4
SliderTickRate:0.5

[Events]
//Background and Video events
0,0,"06.jpg",0,0
//Break Periods
//Storyboard Layer 0 (Background)
//Storyboard Layer 1 (Fail)
//Storyboard Layer 2 (Pass)
//Storyboard Layer 3 (Foreground)
//Storyboard Sound Samples

[TimingPoints]
960,621.761658031088,4,2,1,50,1,0
5934,-100,4,2,1,60,0,0
15882,-100,4,2,2,50,0,0
20234,-100,4,2,2,50,0,0
22203,-100,4,2,2,5,0,0
22307,-100,4,2,2,50,0,0
24483,-100,4,2,2,60,0,0
25830,-100,4,2,2,50,0,0
27177,-100,4,2,2,5,0,0
27281,-100,4,2,2,50,0,0
32151,-100,4,2,2,5,0,0
32255,-100,4,2,2,60,0,0
35778,-100,4,2,1,50,0,0
40752,-100,4,2,2,60,0,0
41478,-100,4,2,2,5,0,0
41581,-100,4,2,2,60,0,0
41685,-100,4,2,2,5,0,0
41892,-100,4,2,2,60,0,0
42825,-100,4,2,2,5,0,0
42928,-100,4,2,2,40,0,0
43239,-100,4,2,2,60,0,0
43965,-100,4,2,2,5,0,0
44068,-100,4,2,2,60,0,0
44172,-100,4,2,2,5,0,0
44379,-100,4,2,2,60,0,0
45312,-100,4,2,2,20,0,0
45415,-100,4,2,2,40,0,0
45726,-100,4,2,2,60,0,0
46452,-100,4,2,2,5,0,0
46555,-100,4,2,2,60,0,0
46659,-100,4,2,2,5,0,0
46866,-100,4,2,2,60,0,0
47851,-100,4,2,2,20,0,0
47903,-100,4,2,2,60,0,0
48006,-100,4,2,2,35,0,0
48110,-100,4,2,2,50,0,0
48213,-100,4,2,1,60,0,0
49768,-100,4,2,2,60,0,0
50700,-100,4,2,2,60,0,0
51426,-100,4,2,2,5,0,0
51529,-100,4,2,2,60,0,0
51633,-100,4,2,2,5,0,0
51840,-100,4,2,2,60,0,0
52773,-100,4,2,2,5,0,0
52876,-100,4,2,2,40,0,0
53187,-100,4,2,2,60,0,0
53913,-100,4,2,2,5,0,0
54016,-100,4,2,2,60,0,0
54120,-100,4,2,2,5,0,0
54327,-100,4,2,2,60,0,0
54535,-100,4,2,2,5,0,0
54638,-100,4,2,2,60,0,0
54846,-100,4,2,2,5,0,0
54949,-100,4,2,2,60,0,0
55156,-100,4,2,2,5,0,0
55260,-100,4,2,2,60,0,0
55467,-100,4,2,2,5,0,0
55675,-100,4,2,2,60,0,0
57747,-100,4,2,1,60,0,0
60649,-100,4,2,2,75,0,1
61063,-100,4,2,2,5,0,1
61167,-100,4,2,2,75,0,1
61478,-100,4,2,2,5,0,1
61581,-100,4,2,2,75,0,1
61892,-100,4,2,2,5,0,1
62099,-100,4,2,2,75,0,1
62721,-100,4,2,2,40,0,1
63136,-100,4,2,2,75,0,1
65312,-100,4,2,2,60,0,1
65830,-100,4,2,2,5,0,1
65934,-100,4,2,2,60,0,1
66141,-100,4,2,2,5,0,1
66244,-100,4,2,2,60,0,1
66452,-100,4,2,2,5,0,1
66555,-100,4,2,2,60,0,1
66763,-100,4,2,2,5,0,1
66866,-100,4,2,2,60,0,1
67073,-100,4,2,2,5,0,1
67177,-100,4,2,2,60,0,1
67384,-100,4,2,2,5,0,1
67488,-100,4,2,2,60,0,1
67695,-100,4,2,2,5,0,1
67799,-100,4,2,2,60,0,1
68110,-100,4,2,2,75,0,1
71011,-100,4,2,2,5,0,1
71115,-100,4,2,2,75,0,1
71426,-100,4,2,2,5,0,1
71529,-100,4,2,2,75,0,1
71840,-100,4,2,2,5,0,1
72048,-100,4,2,2,75,0,1
72669,-100,4,2,2,40,0,1
73084,-100,4,2,2,75,0,1
73498,-100,4,2,2,5,0,1
73602,-100,4,2,2,75,0,1
75467,-100,4,2,2,5,0,1
75571,-100,4,2,2,75,0,1
75778,-100,4,2,2,5,0,1
75882,-100,4,2,2,75,0,1
76089,-100,4,2,2,5,0,1
76193,-100,4,2,2,75,0,1
76400,-100,4,2,2,5,0,1
76504,-100,4,2,2,75,0,1
76711,-100,4,2,2,5,0,1
76814,-100,4,2,2,75,0,1
77333,-100,4,2,2,5,0,1
77436,-100,4,2,2,75,0,1
77643,-100,4,2,2,5,0,1
77747,-100,4,2,2,75,0,1
78783,-100,4,2,2,5,0,1
78887,-100,4,2,2,75,0,1
81270,-100,4,2,2,5,0,1
81374,-100,4,2,2,75,0,1
83550,-100,4,2,2,75,0,1
85519,-100,4,2,1,60,0,0
94120,-100,4,2,2,60,0,0

[Colours]
Combo1 : 0,193,193
Combo2 : 255,49,49
Combo3 : 0,128,192
Combo4 : 234,117,0

[HitObjects]
56,64,960,5,4,0:0:0:0:
104,136,1270,1,4,0:0:0:0:
188,152,1581,1,4,0:0:0:0:
268,124,1892,1,4,0:0:0:0:
340,84,2203,6,0,P|392:76|432:88,1,80,2|0,0:0|0:0,0:0:0:0:
456,100,2514,1,4,0:0:0:0:
420,224,2721,1,4,0:0:0:0:
420,224,3032,2,0,P|412:300|420:352,1,120,4|0,1:0|0:0,0:0:0:0:
444,372,3447,5,2,0:0:0:0:
396,300,3757,1,6,0:0:0:0:
312,284,4068,1,6,0:0:0:0:
232,312,4379,1,4,0:0:0:0:
160,352,4690,6,0,P|108:360|68:348,1,80,6|2,0:0|0:0,0:0:0:0:
44,336,5001,1,4,0:0:0:0:
80,212,5208,1,2,0:0:0:0:
80,212,5519,2,0,P|88:136|80:84,1,120,4|2,0:1|0:0,0:0:0:0:
56,64,5934,5,2,0:0:0:0:
188,20,6244,1,4,0:0:0:0:
268,180,6555,2,0,P|276:104|268:52,1,120,12|0,0:0|0:0,0:0:0:0:
352,24,7073,2,0,P|381:22|407:27,1,40,2|0,0:0|0:0,0:0:0:0:
454,116,7384,2,0,P|455:96|453:76,1,40,2|4,0:0|0:0,0:0:0:0:
392,207,7799,2,0,P|384:283|392:335,1,120,12|4,0:0|0:0,0:0:0:0:
220,272,8421,5,2,0:0:0:0:
292,336,8732,1,4,0:0:0:0:
390,326,9042,1,12,0:0:0:0:
332,256,9250,1,0,0:0:0:0:
332,256,9353,1,0,0:0:0:0:
292,336,9561,6,0,P|220:344|160:336,1,120,8|8,0:0|0:3,0:0:0:0:
136,328,9975,1,2,0:0:0:0:
104,252,10182,2,0,L|156:236,1,40,8|4,0:3|0:0,0:0:0:0:
96,172,10493,2,0,L|124:124,1,40,8|6,0:3|0:0,0:0:0:0:
56,68,10804,1,2,0:0:0:0:
56,68,10908,6,0,P|120:64|192:76,1,120,2|4,0:0|0:0,0:0:0:0:
256,160,11529,2,0,P|263:100|259:40,1,120,12|0,0:0|0:0,0:0:0:0:
352,24,12048,2,0,P|381:22|407:27,1,40,2|0,0:0|0:0,0:0:0:0:
456,104,12358,2,0,L|484:68,1,40,2|4,0:0|0:0,0:0:0:0:
380,156,12773,2,0,P|376:215|383:275,1,120,12|4,0:0|0:0,0:0:0:0:
476,352,13395,5,2,0:0:0:0:
412,300,13706,1,4,0:0:0:0:
332,280,14016,1,12,0:0:0:0:
260,316,14224,2,0,L|232:352,1,40,0|0,0:0|0:0,0:0:0:0:
152,356,14535,6,0,P|116:320|48:296,1,120,8|8,0:0|0:3,0:0:0:0:
16,316,14949,2,0,P|44:264|48:232,1,80,2|8,0:0|0:3,0:0:0:0:
44,204,15260,1,4,0:0:0:0:
104,132,15467,2,0,L|124:168,1,40,8|6,0:3|0:0,0:0:0:0:
192,272,15778,1,2,0:0:0:0:
192,272,15882,6,0,P|252:264|316:276,1,120,2|2,0:0|0:0,0:0:0:0:
428,272,16504,2,0,P|368:264|304:276,1,120,8|2,0:0|0:0,0:0:0:0:
312,356,17022,1,12,0:0:0:0:
432,356,17333,1,4,0:0:0:0:
444,235,17643,2,0,L|424:279,1,40,2|12,0:0|0:0,0:0:0:0:
368,216,17954,2,0,L|368:164,1,40,4|2,0:0|0:0,0:0:0:0:
293,237,18265,2,0,L|313:281,1,40,4|2,0:0|0:0,0:0:0:0:
372,376,18680,5,2,0:0:0:0:
427,271,18991,1,12,0:0:0:0:
309,273,19198,1,0,0:0:0:0:
309,273,19301,1,4,0:0:0:0:
208,336,19509,2,0,P|212:292|204:208,1,120,2|4,0:0|0:0,0:0:0:0:
192,180,19923,1,0,0:0:0:0:
80,223,20130,5,2,0:0:0:0:
80,223,20234,2,0,P|73:165|88:124,1,80,12|0,0:0|0:0,0:0:0:0:
89,128,20545,1,2,0:0:0:0:
68,48,20752,1,4,0:0:0:0:
68,48,20856,2,0,P|120:52|200:44,1,120,2|2,0:0|0:0,0:0:0:0:
308,48,21478,2,0,P|256:52|176:44,1,120,6|0,0:0|0:0,0:0:0:0:
188,128,21996,1,2,0:0:0:0:
308,88,22307,6,0,L|308:32,1,40,2|4,0:0|0:3,0:0:0:0:
384,140,22618,2,0,L|384:84,1,40,4|6,0:3|0:0,0:0:0:0:
464,192,22928,2,0,L|464:136,1,40,4|0,0:3|0:0,0:0:0:0:
464,72,23239,1,6,0:3:0:0:
468,352,23965,6,0,P|408:352|336:344,1,120,6|0,0:0|0:0,0:0:0:0:
268,360,24483,6,0,P|268:300|276:228,1,120,8|6,0:0|0:0,0:0:0:0:
292,204,24897,1,2,0:0:0:0:
200,124,25208,1,8,0:3:0:0:
100,188,25519,1,4,0:3:0:0:
80,308,25830,6,0,P|140:308|212:300,1,120,2|2,0:0|0:0,0:0:0:0:
304,240,26452,1,8,0:0:0:0:
400,312,26763,1,2,0:0:0:0:
476,336,26970,2,0,P|484:284|468:204,1,120,12|4,0:0|0:0,0:0:0:0:
456,180,27384,1,0,0:0:0:0:
420,65,27592,6,0,L|380:65,1,40,2|12,0:0|0:0,0:0:0:0:
304,136,27903,2,0,L|344:136,1,40,4|2,0:0|0:0,0:0:0:0:
456,180,28213,2,0,L|416:180,1,40,4|2,0:0|0:0,0:0:0:0:
344,276,28628,1,2,0:0:0:0:
256,360,28939,1,12,0:0:0:0:
168,276,29146,2,0,L|215:275,1,40,0|4,0:0|0:0,0:0:0:0:
240,200,29457,6,0,L|116:200,1,120,2|4,0:0|0:0,0:0:0:0:
80,200,29871,1,0,0:0:0:0:
92,120,30079,2,0,L|148:120,1,40,2|12,0:0|0:0,0:0:0:0:
168,48,30390,2,0,L|224:48,1,40,0|2,0:0|0:0,0:0:0:0:
260,108,30700,1,4,0:0:0:0:
260,108,30804,5,2,0:0:0:0:
380,92,31115,1,2,0:0:0:0:
452,188,31426,1,6,0:0:0:0:
408,300,31737,1,0,0:0:0:0:
332,328,31944,2,0,P|324:280|336:208,1,120,2|2,0:0|0:0,0:0:0:0:
348,172,32358,1,4,0:3:0:0:
210,102,32566,1,2,0:0:0:0:
236,132,32669,2,0,P|244:180|232:252,1,120,4|4,0:3|0:0,0:0:0:0:
112,260,33187,1,4,0:0:0:0:
112,260,33291,6,0,P|104:212|112:168,1,80,2|4,0:0|0:0,0:0:0:0:
256,76,33809,2,0,L|256:20,1,40,2|0,0:0|0:0,0:0:0:0:
364,92,34120,1,4,0:0:0:0:
364,92,34224,1,0,0:0:0:0:
482,148,34431,6,0,P|490:88|478:16,1,120,2|8,0:0|0:0,0:0:0:0:
447,8,34846,2,0,P|398:44|356:104,1,120,2|8,0:0|0:0,2:2:0:0:
408,158,35364,1,8,0:0:0:0:
408,158,35467,1,2,0:0:0:0:
420,328,35778,5,4,0:0:0:0:
396,248,36089,1,4,0:0:0:0:
322,208,36400,1,4,0:0:0:0:
241,232,36711,1,4,0:0:0:0:
200,306,37022,6,0,P|140:312|108:304,1,80,2|0,0:0|0:0,0:0:0:0:
84,300,37333,1,4,0:0:0:0:
92,180,37540,1,4,0:0:0:0:
92,180,37851,2,0,P|96:160|88:52,1,120,4|0,1:0|0:0,0:0:0:0:
68,28,38265,5,2,0:0:0:0:
92,108,38576,1,6,0:0:0:0:
166,148,38887,1,6,0:0:0:0:
247,124,39198,1,4,0:0:0:0:
288,50,39509,6,0,P|348:44|380:52,1,80,6|2,0:0|0:0,0:0:0:0:
404,56,39820,1,4,0:0:0:0:
396,176,40027,1,2,0:0:0:0:
396,176,40338,2,0,P|392:196|400:304,1,120,8|2,0:0|0:0,0:0:0:0:
412,332,40752,6,0,P|393:322|287:302,2,120,2|4|8,0:0|0:3|0:0,0:0:0:0:
480,248,41581,1,2,0:0:0:0:
480,248,41892,6,0,P|470:229|450:123,1,120,6|4,0:0|0:3,0:0:0:0:
468,96,42307,2,0,P|408:120|384:120,1,80,2|4,0:0|0:3,0:0:0:0:
352,120,42618,1,12,0:0:0:0:
256,48,42928,1,8,0:1:0:0:
160,120,43239,6,0,P|156:168|168:252,2,120,2|4|8,0:0|0:3|0:0,0:0:0:0:
184,44,44068,1,2,0:0:0:0:
184,44,44379,6,0,P|124:35|64:39,1,120,6|4,0:0|0:3,0:0:0:0:
28,60,44794,1,2,0:0:0:0:
60,176,45105,2,0,P|119:184|179:180,1,120,12|8,0:0|0:1,0:0:0:0:
300,176,45726,6,0,P|300:220|312:296,2,120,2|4|8,0:0|0:3|0:0,0:0:0:0:
316,96,46555,1,2,0:0:0:0:
316,96,46866,6,0,P|375:87|435:91,1,120,6|4,0:0|0:3,0:0:0:0:
472,108,47281,1,2,0:0:0:0:
448,224,47592,2,0,P|388:232|336:227,1,100,12|0,0:0|0:0,0:0:0:0:
328,231,47903,2,0,L|316:283,2,40,12|0|8,0:2|0:0|0:0,0:0:0:0:
336,192,48213,5,12,0:0:0:0:
56,48,49353,5,8,0:0:0:0:
44,208,49768,2,0,P|83:204|123:198,1,80,4|2,0:0|0:0,0:0:0:0:
160,184,50079,1,14,0:0:0:0:
256,112,50390,1,4,0:0:0:0:
352,184,50700,6,0,P|391:190|431:193,1,80,2|0,0:0|0:0,0:0:0:0:
472,184,51011,1,4,0:3:0:0:
448,68,51219,2,0,L|448:116,1,40,0|8,0:0|0:0,0:0:0:0:
328,96,51529,1,2,0:0:0:0:
208,76,51840,6,0,P|200:136|208:196,1,120,6|4,0:0|0:3,0:0:0:0:
228,232,52255,1,2,0:0:0:0:
401,173,52566,2,0,P|341:165|281:173,1,120,12|8,0:0|0:1,0:0:0:0:
132,308,53187,6,0,P|136:264|132:224,1,80,2|0,0:0|0:0,0:0:0:0:
124,188,53498,1,4,0:3:0:0:
12,232,53706,2,0,L|56:232,1,40,0|8,0:0|0:0,0:0:0:0:
43,111,54016,1,2,0:0:0:0:
162,112,54327,6,0,P|102:104|42:112,1,120,6|0,0:0|0:0,0:0:0:0:
10,132,54742,1,2,0:0:0:0:
124,188,54949,2,0,L|164:188,1,40,12|8,0:0|0:0,0:0:0:0:
204,260,55260,2,0,L|244:260,1,40,0|2,0:1|0:0,0:0:0:0:
352,312,55675,6,0,P|412:324|472:312,1,120,2|4,0:0|0:0,0:0:0:0:
472,192,56296,2,0,P|412:180|352:192,1,120,8|0,0:0|0:0,0:0:0:0:
236,188,56918,6,0,P|225:129|237:70,1,120,8|0,0:0|0:0,0:0:0:0:
357,73,57540,2,0,P|367:131|355:190,1,120,8|4,0:0|0:0,0:0:0:0:
351,311,58162,6,0,P|292:321|233:309,1,120,4|2,0:0|0:0,0:0:0:0:
234,310,58783,2,0,P|175:320|116:308,1,120,4|2,0:1|0:0,0:0:0:0:
48,268,59301,1,4,0:1:0:0:
100,160,59612,1,8,0:3:0:0:
100,160,59716,2,0,P|108:112|100:76,1,80,2|8,0:0|0:0,0:0:0:0:
96,40,60027,2,0,L|48:48,2,40,2|4|8,0:0|0:0|0:3,0:0:0:0:
136,32,60338,1,8,0:0:0:0:
250,67,60649,6,0,P|254:129|249:194,1,120,8|0,0:0|0:0,0:0:0:0:
366,216,61167,2,0,L|366:176,1,40,4|0,0:3|0:0,0:0:0:0:
336,328,61581,2,0,P|252:320|212:328,1,120,8|0,0:0|0:0,0:0:0:0:
140,352,62099,1,2,0:3:0:0:
140,352,62203,2,0,P|136:296|144:268,1,80,2|8,0:0|0:0,0:0:0:0:
156,236,62514,1,2,0:0:0:0:
83,140,62721,1,8,0:3:0:0:
83,140,62825,2,0,L|83:180,2,40,8|2|8,0:0|0:0|0:0,0:0:0:0:
107,108,63136,6,0,P|187:95|254:105,1,120,8|8,0:0|0:0,0:0:0:0:
294,139,63654,1,4,0:3:0:0:
427,109,63965,1,8,0:0:0:0:
427,109,64068,2,0,P|447:165|444:241,1,120,8|2,0:0|0:0,0:0:0:0:
372,296,64586,1,2,0:3:0:0:
372,296,64690,2,0,P|320:300|280:292,1,80,2|8,0:0|0:0,0:0:0:0:
256,280,65001,1,2,0:0:0:0:
136,268,65208,1,8,0:3:0:0:
136,268,65312,2,0,L|132:316,2,40,2|0|8,0:0|0:0|0:0,0:0:0:0:
140,228,65623,6,0,P|88:220|8:228,1,120,6|2,0:0|0:0,0:0:0:0:
20,104,66244,2,0,P|72:112|152:104,1,120,8|2,0:0|0:0,0:0:0:0:
256,72,66866,1,2,0:0:0:0:
372,108,67177,1,6,0:0:0:0:
476,48,67488,2,0,P|484:100|476:180,1,120,8|4,0:0|0:0,0:0:0:0:
440,236,68006,5,0,0:0:0:0:
440,236,68110,2,0,P|436:288|440:328,1,80,6|2,0:0|0:0,0:0:0:0:
468,344,68421,2,0,P|416:340|376:344,1,80,8|2,0:0|0:3,0:0:0:0:
348,352,68732,1,2,0:0:0:0:
256,276,68939,2,0,L|256:236,1,40,4|2,0:3|0:3,0:0:0:0:
164,352,69250,1,0,0:0:0:0:
123,342,69353,2,0,P|83:340|44:344,1,80,2|8,0:0|0:3,0:0:0:0:
12,368,69664,2,0,P|8:316|16:280,1,80,4|8,0:0|0:0,0:0:0:0:
128,152,70182,1,8,0:3:0:0:
128,152,70286,2,0,P|133:191|129:231,1,80,8|8,0:0|0:0,0:0:0:0:
112,268,70597,5,8,0:0:0:0:
256,128,71115,2,0,L|256:80,1,40,4|0,0:3|0:0,0:0:0:0:
280,204,71529,2,0,L|280:76,1,120,8|0,0:0|0:0,0:0:0:0:
304,4,72048,1,2,0:3:0:0:
304,4,72151,2,0,P|380:20|400:20,1,80,2|8,0:0|0:0,0:0:0:0:
424,20,72462,1,2,0:0:0:0:
468,132,72773,2,0,P|472:176|468:220,1,80,8|8,0:0|0:0,0:0:0:0:
456,248,73084,5,8,0:0:0:0:
280,340,73602,2,0,L|228:340,1,40,4|0,0:3|0:0,0:0:0:0:
184,284,73913,1,8,0:0:0:0:
184,284,74016,2,0,P|168:300|69:315,1,120,8|2,0:0|0:0,0:0:0:0:
112,208,74535,1,2,0:3:0:0:
112,208,74638,2,0,P|133:213|183:259,1,80,2|8,0:0|0:0,0:0:0:0:
184,284,74949,1,2,0:0:0:0:
292,336,75260,2,0,P|314:336|374:304,1,80,2|8,0:0|0:0,0:0:0:0:
392,284,75571,5,6,0:0:0:0:
488,356,75882,1,2,0:0:0:0:
500,236,76193,2,0,P|500:213|468:153,1,80,8|0,0:0|0:0,0:0:0:0:
440,140,76504,1,2,0:0:0:0:
324,104,76814,2,0,P|236:114|188:104,2,120,6|2|8,0:0|0:0|0:0,0:0:0:0:
416,24,77747,1,6,0:0:0:0:
344,68,77954,1,0,0:0:0:0:
324,104,78058,6,0,P|318:163|324:188,1,80,4|2,0:3|0:0,0:0:0:0:
336,220,78369,1,4,0:2:0:0:
260,316,78576,2,0,L|260:264,1,40,4|0,0:3|0:0,0:0:0:0:
168,352,78887,2,0,L|168:300,1,40,2|8,0:0|0:0,0:0:0:0:
76,384,79198,2,0,L|76:248,1,120,6|2,0:0|0:0,0:0:0:0:
76,224,79612,1,8,0:0:0:0:
148,128,79820,1,2,0:0:0:0:
148,128,79923,2,0,P|188:136|276:124,1,120,12|12,0:0|0:0,0:0:0:0:
376,80,80545,6,0,P|372:120|376:160,1,80,4|2,0:3|0:0,0:0:0:0:
388,196,80856,1,4,0:0:0:0:
464,288,81063,2,0,P|408:284|344:292,1,120,4|2,0:3|0:0,0:0:0:0:
308,308,81478,1,8,0:0:0:0:
232,336,81685,2,0,P|228:280|236:216,1,120,6|2,0:0|0:0,0:0:0:0:
244,176,82099,1,8,0:0:0:0:
328,88,82307,1,2,0:0:0:0:
328,88,82410,1,12,0:0:0:0:
420,164,82721,1,12,0:0:0:0:
500,72,83032,6,0,P|432:56|412:56,1,80,4|0,0:3|0:0,0:0:0:0:
422,55,83550,2,0,P|372:48|292:52,1,120,4|2,0:3|0:0,0:0:0:0:
264,68,83965,1,8,0:3:0:0:
188,40,84172,2,0,P|184:72|188:172,1,120,2|4,0:0|0:0,0:0:0:0:
200,196,84586,1,2,0:0:0:0:
300,264,84794,1,8,0:0:0:0:
300,264,84897,2,0,P|352:272|424:264,2,120,12|12|2,0:0|0:0|0:0,0:0:0:0:
196,324,85830,5,4,0:0:0:0:
76,312,86141,2,0,P|69:252|77:193,1,120,12|0,0:0|0:0,0:0:0:0:
132,136,86659,2,0,P|191:129|250:137,1,120,2|2,0:0|0:0,0:0:0:0:
288,156,87073,1,4,0:0:0:0:
320,272,87384,1,12,0:0:0:0:
404,184,87695,1,4,0:0:0:0:
485,280,88006,6,0,P|493:220|486:161,2,120,2|4|12,0:0|0:0|0:0,0:0:0:0:
456,356,88835,1,0,0:0:0:0:
456,356,88939,1,0,0:0:0:0:
376,348,89146,6,0,P|336:340|256:340,1,120,8|8,0:0|0:3,0:0:0:0:
216,340,89561,2,0,P|168:328|128:332,1,80,2|8,0:0|0:3,0:0:0:0:
100,344,89871,1,4,0:0:0:0:
12,264,90079,1,8,0:3:0:0:
36,232,90182,2,0,P|47:193|46:153,1,80,6|2,0:0|0:0,0:0:0:0:
36,116,90493,5,2,0:0:0:0:
144,64,90804,1,4,0:0:0:0:
232,144,91115,2,0,P|270:155|360:148,1,120,12|0,0:0|0:0,0:0:0:0:
404,212,91633,2,0,P|392:250|400:340,1,120,2|2,0:0|0:0,0:0:0:0:
412,368,92048,1,4,0:0:0:0:
304,316,92358,1,12,0:0:0:0:
200,372,92669,1,4,0:0:0:0:
88,328,92980,6,0,P|84:264|96:204,1,120,2|4,0:0|0:0,0:0:0:0:
148,100,93602,2,0,P|96:92|60:96,1,80,12|0,0:0|0:0,0:0:0:0:
32,108,93913,1,0,0:0:0:0:
72,20,94120,2,0,P|133:22|200:40,1,120,8|8,0:0|0:0,0:0:0:0:
229,43,94535,2,0,P|277:41|314:50,1,80,2|8,0:0|0:3,0:0:0:0:
328,82,94846,2,0,P|305:124|279:152,1,80,12|8,0:0|0:0,0:0:0:0:
244,153,95156,2,0,P|218:112|207:75,1,80,14|8,0:0|0:0,0:0:0:0:
229,43,95467,1,4,0:3:0:0:
256,192,95778,5,4,0:0:0:0:
256,192,95985,1,0,0:0:0:0:
