osu file format v14

[General]
AudioFilename: audio.mp3
AudioLeadIn: 0
PreviewTime: 60639
Countdown: 0
SampleSet: Soft
StackLeniency: 0.7
Mode: 0
LetterboxInBreaks: 0
WidescreenStoryboard: 0

[Editor]
Bookmarks: 12763
DistanceSpacing: 1
BeatDivisor: 6
GridSize: 16
TimelineZoom: 1

[Metadata]
Title:Fantastic Rabbit House
TitleUnicode:Fantastic Rabbit House
Artist:Kayano Ai, Hayami Saori, Hayami Shou
ArtistUnicode:茅野愛衣・早見沙織・速水奨
Creator:UjiMatcha
Version:BaAR's Normal
Source:ご注文はうさぎですか??
Tags:_lai BaAR_Vendel ごちうさ gochiusa gochuumon wa usagi desu ka? is the order a rabbit? デュエットソングアルバム 青山 蓝山 保登 摩卡 香风 隆宏 モカ 青山ブルーマウンテン タカヒロ Aoyama Blue Mountain Mocha Takahiro
BeatmapID:1864720
BeatmapSetID:888363

[Difficulty]
HPDrainRate:4
CircleSize:3.3
OverallDifficulty:4
ApproachRate:5
SliderMultiplier:2.2
SliderTickRate:1

[Events]
//Background and Video events
0,0,"06.jpg",0,0
//Break Periods
//Storyboard Layer 0 (Background)
//Storyboard Layer 1 (Fail)
//Storyboard Layer 2 (Pass)
//Storyboard Layer 3 (Foreground)
//Storyboard Sound Samples

[TimingPoints]
960,621.761658031088,4,2,1,50,1,0
5934,-100,4,2,1,60,0,0
15882,-100,4,2,2,50,0,0
17229,-100,4,2,2,5,0,0
17333,-100,4,2,2,30,0,0
17436,-100,4,2,2,50,0,0
18369,-100,4,2,2,40,0,0
20234,-100,4,2,2,50,0,0
22203,-100,4,2,2,5,0,0
22307,-100,4,2,2,50,0,0
24483,-100,4,2,2,60,0,0
25830,-100,4,2,2,50,0,0
27177,-100,4,2,2,5,0,0
27281,-100,4,2,2,50,0,0
32151,-100,4,2,2,5,0,0
32255,-100,4,2,2,60,0,0
35778,-100,4,2,1,50,0,0
40752,-100,4,2,2,60,0,0
41478,-100,4,2,2,5,0,0
41581,-100,4,2,2,60,0,0
41685,-100,4,2,2,5,0,0
41892,-100,4,2,2,60,0,0
42825,-100,4,2,2,5,0,0
42928,-100,4,2,2,40,0,0
43239,-100,4,2,2,60,0,0
43965,-100,4,2,2,5,0,0
44068,-100,4,2,2,60,0,0
44172,-100,4,2,2,5,0,0
44379,-100,4,2,2,60,0,0
45312,-100,4,2,2,20,0,0
45415,-100,4,2,2,40,0,0
45726,-100,4,2,2,60,0,0
46452,-100,4,2,2,5,0,0
46555,-100,4,2,2,60,0,0
46659,-100,4,2,2,5,0,0
46866,-100,4,2,2,60,0,0
47799,-100,4,2,2,20,0,0
47903,-100,4,2,2,50,0,0
48006,-100,4,2,2,25,0,0
48110,-100,4,2,2,50,0,0
48213,-100,4,2,1,60,0,0
49768,-100,4,2,2,60,0,0
50286,-100,4,2,1,60,0,0
50700,-100,4,2,2,60,0,0
51426,-100,4,2,2,5,0,0
51529,-100,4,2,2,60,0,0
51633,-100,4,2,2,5,0,0
51840,-100,4,2,2,60,0,0
52773,-100,4,2,2,5,0,0
52876,-100,4,2,2,40,0,0
53187,-100,4,2,2,60,0,0
53913,-100,4,2,2,5,0,0
54016,-100,4,2,2,60,0,0
54120,-100,4,2,2,5,0,0
54327,-100,4,2,2,60,0,0
54535,-100,4,2,2,5,0,0
54638,-100,4,2,2,60,0,0
54846,-100,4,2,2,5,0,0
54949,-100,4,2,2,60,0,0
55156,-100,4,2,2,5,0,0
55260,-100,4,2,2,60,0,0
55467,-100,4,2,2,5,0,0
55675,-100,4,2,2,60,0,0
57724,-100,4,2,1,60,0,0
60649,-100,4,2,2,75,0,1
61063,-100,4,2,2,5,0,1
61167,-100,4,2,2,75,0,1
61478,-100,4,2,2,5,0,1
61581,-100,4,2,2,75,0,1
61892,-100,4,2,2,5,0,1
62099,-100,4,2,2,75,0,1
62721,-100,4,2,2,40,0,1
63136,-100,4,2,2,75,0,1
65312,-100,4,2,2,60,0,1
65830,-100,4,2,2,5,0,1
65934,-100,4,2,2,60,0,1
66141,-100,4,2,2,5,0,1
66244,-100,4,2,2,60,0,1
66452,-100,4,2,2,5,0,1
66555,-100,4,2,2,60,0,1
66763,-100,4,2,2,5,0,1
66866,-100,4,2,2,60,0,1
67073,-100,4,2,2,5,0,1
67177,-100,4,2,2,60,0,1
67384,-100,4,2,2,5,0,1
67488,-100,4,2,2,60,0,1
67695,-100,4,2,2,5,0,1
67799,-100,4,2,2,60,0,1
68110,-100,4,2,2,75,0,1
71011,-100,4,2,2,5,0,1
71115,-100,4,2,2,75,0,1
71426,-100,4,2,2,5,0,1
71529,-100,4,2,2,75,0,1
71840,-100,4,2,2,5,0,1
72048,-100,4,2,2,75,0,1
72669,-100,4,2,2,40,0,1
73084,-100,4,2,2,75,0,1
73498,-100,4,2,2,5,0,1
73602,-100,4,2,2,75,0,1
75467,-100,4,2,2,5,0,1
75571,-100,4,2,2,75,0,1
75778,-100,4,2,2,5,0,1
75882,-100,4,2,2,75,0,1
76089,-100,4,2,2,5,0,1
76193,-100,4,2,2,75,0,1
76400,-100,4,2,2,5,0,1
76504,-100,4,2,2,75,0,1
76711,-100,4,2,2,5,0,1
76814,-100,4,2,2,75,0,1
77333,-100,4,2,2,5,0,1
77436,-100,4,2,2,75,0,1
77643,-100,4,2,2,5,0,1
77747,-100,4,2,2,75,0,1
78783,-100,4,2,2,5,0,1
78887,-100,4,2,2,75,0,1
81270,-100,4,2,2,5,0,1
81374,-100,4,2,2,75,0,1
83550,-100,4,2,2,75,0,1
85519,-100,4,2,1,60,0,0
94120,-100,4,2,2,60,0,0

[Colours]
Combo1 : 0,193,193
Combo2 : 255,49,49
Combo3 : 0,128,192
Combo4 : 234,117,0

[HitObjects]
144,44,960,6,0,P|156:99|138:168,1,110,4|4,0:0|0:0,0:0:0:0:
68,229,1581,2,0,P|56:284|74:345,1,110,4|4,0:0|0:0,0:0:0:0:
168,384,2203,2,0,L|247:377,1,73.3333333333334,2|0,0:0|0:0,0:0:0:0:
269,354,2514,2,0,L|348:360,1,73.3333333333334,4|4,0:0|0:0,0:0:0:0:
447,329,3032,1,4,1:0:0:0:
344,223,3447,6,0,P|332:168|357:98,1,110,2|6,0:0|0:0,0:0:0:0:
441,64,4068,2,0,P|453:119|432:189,1,110,6|4,0:0|0:0,0:0:0:0:
344,223,4690,2,0,L|203:209,1,110,6|4,0:0|0:0,0:0:0:0:
161,204,5208,1,2,0:0:0:0:
189,312,5519,1,4,0:1:0:0:
57,376,5934,6,0,B|42:328|42:328|63:262,1,110,2|4,0:0|0:0,0:0:0:0:
130,186,6555,2,0,B|145:138|145:138|124:72,1,110,12|0,0:0|0:0,0:0:0:0:
92,15,7073,1,2,0:0:0:0:
238,5,7488,2,0,P|292:20|310:38,1,73.3333333333333,4|2,0:0|0:0,0:0:0:0:
333,53,7799,1,12,0:0:0:0:
437,17,8110,1,4,0:0:0:0:
413,124,8421,6,0,L|422:235,1,110,2|4,0:0|0:0,0:0:0:0:
373,332,9042,2,0,P|318:344|259:326,1,110,12|0,0:0|0:0,0:0:0:0:
207,287,9561,2,0,P|152:275|93:293,1,110,8|8,0:0|0:3,0:0:0:0:
69,308,9975,1,2,0:0:0:0:
13,224,10286,2,0,L|22:112,1,110,4|6,0:0|0:0,0:0:0:0:
108,44,10908,6,0,P|163:32|222:50,1,110,2|4,0:0|0:0,0:0:0:0:
295,120,11529,2,0,P|350:132|409:114,1,110,12|0,0:0|0:0,0:0:0:0:
460,74,12048,1,2,0:0:0:0:
500,214,12462,2,0,L|493:293,1,73.3333333333333,4|2,0:0|0:0,0:0:0:0:
486,323,12773,1,12,0:0:0:0:
388,374,13084,1,4,0:0:0:0:
381,264,13395,6,0,L|269:254,1,110,2|4,0:0|0:0,0:0:0:0:
193,332,14016,2,0,L|81:342,1,110,12|0,0:0|0:0,0:0:0:0:
35,286,14535,2,0,B|20:238|20:238|41:172,1,110,8|8,0:0|0:3,0:0:0:0:
53,147,14949,1,2,0:0:0:0:
154,105,15260,2,0,P|166:50|148:-9,1,110,4|6,0:0|0:0,0:0:0:0:
257,32,15882,6,0,L|368:22,1,110,2|2,0:0|0:0,0:0:0:0:
439,105,16504,2,0,L|329:114,1,110,8|2,0:0|0:0,0:0:0:0:
256,125,17022,1,12,0:0:0:0:
170,194,17333,1,4,0:0:0:0:
270,239,17643,2,0,L|273:293,1,36.6666666666667,2|12,0:0|0:0,0:0:0:0:
247,383,18058,1,2,0:0:0:0:
169,306,18369,6,0,B|110:293|110:293|55:312,1,110,2|2,0:0|0:0,0:0:0:0:
2,217,18991,2,0,L|14:73,1,110,12|4,0:0|0:0,0:0:0:0:
66,58,19509,2,0,P|121:46|180:64,1,110,2|4,0:0|0:0,0:0:0:0:
249,184,20234,2,0,L|344:175,1,73.3333333333333,12|0,0:0|0:0,0:0:0:0:
351,155,20545,2,0,L|446:163,1,73.3333333333333,2|4,0:0|0:0,0:0:0:0:
460,166,20856,5,2,0:0:0:0:
504,266,21167,1,2,0:0:0:0:
414,330,21478,2,0,P|359:342|300:324,1,110,6|0,0:0|0:0,0:0:0:0:
248,285,21996,2,0,P|193:273|134:291,1,110,2|2,0:0|0:0,0:0:0:0:
111,307,22410,1,4,0:3:0:0:
49,215,22721,2,0,B|34:167|34:167|55:101,1,110,6|0,0:0|0:0,0:0:0:0:
83,43,23239,5,6,0:3:0:0:
369,171,24483,6,0,P|381:226|363:285,1,110,8|6,0:0|0:0,0:0:0:0:
346,306,24897,1,2,0:0:0:0:
275,221,25208,2,0,P|263:171|274:126,1,73.3333333333333,8|8,0:3|0:0,0:0:0:0:
277,114,25519,1,4,0:3:0:0:
201,33,25830,6,0,L|57:45,1,110,2|2,0:0|0:0,0:0:0:0:
0,104,26452,2,0,P|-12:159|6:218,1,110,8|2,0:0|0:0,0:0:0:0:
74,222,26970,2,0,P|86:277|68:336,1,110,12|4,0:0|0:0,0:0:0:0:
50,357,27384,1,0,0:0:0:0:
159,352,27695,2,0,L|302:364,1,110,12|2,0:0|0:0,0:0:0:0:
370,318,28317,6,0,B|355:270|355:270|376:204,1,110,2|2,0:0|0:0,0:0:0:0:
476,173,28939,2,0,B|491:125|491:125|470:59,1,110,12|4,0:0|0:0,0:0:0:0:
410,30,29457,2,0,P|355:42|296:24,1,110,2|4,0:0|0:0,0:0:0:0:
268,20,29871,1,4,0:0:0:0:
190,97,30182,2,0,B|175:145|175:145|196:211,1,110,12|2,0:0|0:0,0:0:0:0:
247,297,30804,6,0,P|194:310|141:298,1,110,2|2,0:0|0:0,0:0:0:0:
86,202,31426,2,0,P|139:189|192:201,1,110,6|0,0:0|0:0,0:0:0:0:
252,158,31944,2,0,L|264:15,1,110,2|2,0:0|0:0,0:0:0:0:
364,10,32566,2,0,L|376:153,1,110,2|4,0:0|0:3,0:0:0:0:
378,156,32980,1,4,0:0:0:0:
477,203,33291,6,0,P|485:253|477:299,1,73.3333333333333,2|4,0:0|0:0,0:0:0:0:
375,253,33809,2,0,L|232:241,2,110,2|4|2,0:0|0:0|0:0,0:0:0:0:
388,362,34742,2,0,L|231:377,1,146.666666666667,8|8,0:0|0:0,0:0:0:0:
168,380,35364,1,8,0:0:0:0:
23,357,35778,6,0,P|11:302|29:243,1,110,4|4,0:0|0:0,0:0:0:0:
99,170,36400,2,0,P|111:115|93:56,1,110,4|4,0:0|0:0,0:0:0:0:
192,7,37022,2,0,L|271:14,1,73.3333333333333,2|0,0:0|0:0,0:0:0:0:
293,36,37333,2,0,L|372:30,1,73.3333333333333,4|4,0:0|0:0,0:0:0:0:
471,62,37851,1,4,1:0:0:0:
360,157,38265,6,0,B|345:205|345:205|366:271,1,110,2|6,0:0|0:0,0:0:0:0:
460,313,38887,2,0,B|475:265|475:265|454:199,1,110,6|4,0:0|0:0,0:0:0:0:
360,157,39509,2,0,P|305:169|246:151,1,110,6|4,0:0|0:0,0:0:0:0:
202,103,40027,1,2,0:0:0:0:
97,137,40338,1,8,0:0:0:0:
168,265,40752,6,0,P|180:320|162:379,1,110,2|4,0:0|0:3,0:0:0:0:
70,317,41374,1,8,0:0:0:0:
97,137,41892,2,0,L|208:127,1,110,6|4,0:0|0:3,0:0:0:0:
234,102,42307,2,0,L|345:111,1,110,2|12,0:0|0:0,0:0:0:0:
453,123,42928,1,8,0:1:0:0:
385,210,43239,6,0,B|370:258|370:258|391:324,1,110,2|4,0:0|0:3,0:0:0:0:
478,251,43861,1,8,0:0:0:0:
443,71,44379,2,0,P|388:59|329:77,1,110,6|4,0:0|0:3,0:0:0:0:
312,100,44794,2,0,P|257:112|198:94,1,110,2|12,0:0|0:0,0:0:0:0:
121,27,45415,1,8,0:1:0:0:
103,137,45726,6,0,L|112:248,1,110,2|4,0:0|0:3,0:0:0:0:
125,356,46348,1,8,0:0:0:0:
259,231,46866,2,0,P|314:219|373:237,1,110,6|4,0:0|0:3,0:0:0:0:
394,254,47281,1,2,0:0:0:0:
495,211,47592,2,0,L|504:99,1,110,12|12,0:0|0:2,0:0:0:0:
460,0,48213,5,12,0:0:0:0:
127,42,49353,2,0,P|115:97|133:156,1,110,8|4,0:0|0:3,0:0:0:0:
151,177,49768,2,0,P|163:232|145:291,2,110,4|14|4,0:0|0:0|0:0,0:0:0:0:
225,95,50700,6,0,L|336:104,1,110,2|4,0:0|0:3,0:0:0:0:
440,135,51322,1,8,0:0:0:0:
386,309,51840,2,0,P|331:321|272:303,1,110,6|4,0:0|0:3,0:0:0:0:
255,280,52255,2,0,P|200:268|141:286,1,110,2|12,0:0|0:0,0:0:0:0:
63,351,52877,1,8,0:1:0:0:
0,261,53187,6,0,B|-15:213|-15:213|6:147,1,110,2|4,0:0|0:3,0:0:0:0:
87,84,53809,1,8,0:0:0:0:
235,192,54327,2,0,L|410:177,1,146.666666666667,6|2,0:0|0:0,0:0:0:0:
343,75,55053,2,0,L|233:65,1,110,8|2,0:0|0:0,0:0:0:0:
136,117,55675,6,0,P|124:62|142:3,2,110,2|4|0,0:0|0:0|0:0,0:0:0:0:
205,198,56607,1,8,0:0:0:0:
274,279,56918,2,0,P|286:334|268:393,2,110,8|0|8,0:0|0:0|0:0,0:0:0:0:
205,198,57850,1,4,0:0:0:0:
169,298,58162,5,4,0:0:0:0:
5,151,58783,2,0,P|17:72|118:61,1,183.333333333333,4|4,0:1|0:1,0:0:0:0:
213,82,59612,2,0,L|356:69,1,110,8|8,0:3|0:0,0:0:0:0:
351,95,60027,2,0,L|494:107,1,110,2|8,0:0|0:0,0:0:0:0:
504,205,60649,6,0,B|512:277|512:277|482:319|482:319|489:380,1,183.333333333333,8|4,0:0|0:3,0:0:0:0:
368,295,61581,1,8,0:0:0:0:
200,369,62099,2,0,P|145:381|86:363,1,110,2|8,0:3|0:0,0:0:0:0:
61,348,62514,1,2,0:0:0:0:
39,240,62825,1,8,0:0:0:0:
146,270,63136,6,0,P|194:208|123:124,1,183.333333333333,8|4,0:0|0:3,0:0:0:0:
0,115,64068,1,8,0:0:0:0:
151,11,64586,2,0,L|294:23,1,110,2|8,0:3|0:0,0:0:0:0:
297,22,65001,1,2,0:0:0:0:
394,73,65312,1,2,0:0:0:0:
297,124,65623,6,0,P|285:179|303:238,1,110,6|2,0:0|0:0,0:0:0:0:
395,281,66244,1,8,0:0:0:0:
343,378,66555,1,2,0:0:0:0:
246,326,66866,2,0,L|103:314,1,110,2|6,0:0|0:0,0:0:0:0:
42,259,67488,1,8,0:0:0:0:
98,164,67799,1,4,0:0:0:0:
48,65,68110,6,0,P|103:53|162:71,2,110,6|8|2,0:0|0:0|0:0,0:0:0:0:
98,164,69042,1,2,0:3:0:0:
148,263,69353,2,0,L|291:251,1,110,2|4,0:0|0:0,0:0:0:0:
300,313,69871,2,0,L|443:325,1,110,8|8,0:0|0:3,0:0:0:0:
446,325,70286,1,8,0:0:0:0:
487,222,70597,6,0,B|514:162|514:162|480:47,1,183.333333333333,8|4,0:0|0:3,0:0:0:0:
383,156,71529,1,8,0:0:0:0:
267,13,72048,2,0,P|212:1|153:19,1,110,2|8,0:3|0:0,0:0:0:0:
129,34,72462,1,2,0:0:0:0:
67,125,72773,1,8,0:0:0:0:
170,168,73084,6,0,P|202:243|139:315,1,183.333333333333,8|4,0:0|0:3,0:0:0:0:
6,259,74016,1,8,0:0:0:0:
67,85,74535,2,0,L|210:73,1,110,2|8,0:3|0:0,0:0:0:0:
213,71,74949,1,2,0:0:0:0:
315,30,75260,1,2,0:0:0:0:
294,138,75571,6,0,B|309:186|309:186|288:252,1,110,6|2,0:0|0:0,0:0:0:0:
250,345,76193,1,8,0:0:0:0:
353,384,76504,1,2,0:0:0:0:
393,282,76814,2,0,L|405:139,1,110,6|2,0:0|0:0,0:0:0:0:
442,70,77436,1,8,0:0:0:0:
339,30,77747,1,6,0:0:0:0:
299,133,78058,6,0,P|244:145|185:127,1,110,4|0,0:3|0:0,0:0:0:0:
134,86,78576,2,0,P|79:74|20:92,1,110,4|2,0:3|0:0,0:0:0:0:
82,183,79198,2,0,B|97:231|97:231|76:297,1,110,6|2,0:0|0:0,0:0:0:0:
67,322,79612,1,8,0:0:0:0:
158,384,79923,2,0,L|301:372,1,110,12|12,0:0|0:0,0:0:0:0:
372,339,80545,6,0,P|360:284|378:225,1,110,4|0,0:3|0:0,0:0:0:0:
419,174,81063,2,0,P|431:119|413:60,1,110,4|2,0:3|0:0,0:0:0:0:
322,122,81685,2,0,L|179:110,1,110,6|2,0:0|0:0,0:0:0:0:
175,112,82099,1,8,0:0:0:0:
108,199,82410,2,0,L|-35:211,1,110,12|12,0:0|0:0,0:0:0:0:
34,312,83032,6,0,P|32:358|43:394,1,73.3333333333333,4|0,0:3|0:0,0:0:0:0:
135,332,83550,2,0,P|147:277|129:218,1,110,4|2,0:3|0:0,0:0:0:0:
54,148,84172,2,0,P|42:93|60:34,1,110,2|4,0:0|0:0,0:0:0:0:
88,25,84586,2,0,L|167:31,1,73.3333333333333,2|8,0:0|0:0,0:0:0:0:
197,38,84897,1,12,0:0:0:0:
280,110,85208,1,12,0:0:0:0:
176,145,85519,6,0,B|161:193|161:193|182:259,1,110,2|4,0:0|0:0,0:0:0:0:
267,316,86141,2,0,P|322:304|381:322,1,110,12|0,0:0|0:0,0:0:0:0:
435,356,86658,1,2,0:0:0:0:
493,221,87073,2,0,L|485:134,1,73.3333333333333,4|2,0:0|0:0,0:0:0:0:
482,111,87384,1,12,0:0:0:0:
401,35,87695,1,4,0:0:0:0:
361,137,88006,6,0,P|306:149|247:131,1,110,2|4,0:0|0:0,0:0:0:0:
157,84,88628,2,0,P|145:139|163:198,1,110,12|0,0:0|0:0,0:0:0:0:
208,244,89146,2,0,P|220:299|202:358,1,110,8|8,0:0|0:3,0:0:0:0:
182,378,89561,1,2,0:0:0:0:
111,293,89871,2,0,L|-1:284,1,110,4|6,0:0|0:0,0:0:0:0:
48,181,90493,6,0,L|160:190,1,110,2|4,0:0|0:0,0:0:0:0:
254,133,91115,2,0,L|366:124,1,110,12|0,0:0|0:0,0:0:0:0:
436,115,91633,1,2,0:0:0:0:
507,243,92048,2,0,P|516:285|507:329,1,73.3333333333333,4|2,0:0|0:0,0:0:0:0:
507,351,92359,1,12,0:0:0:0:
423,283,92669,1,4,0:0:0:0:
340,355,92980,6,0,P|285:367|226:349,1,110,2|4,0:0|0:0,0:0:0:0:
256,245,93602,2,0,B|271:197|271:197|250:131,1,110,12|0,0:0|0:0,0:0:0:0:
188,103,94120,2,0,L|76:112,1,110,8|8,0:0|0:0,0:0:0:0:
42,119,94535,1,2,0:0:0:0:
0,222,94846,2,0,P|-2:269|8:305,1,73.3333333333333,12|8,0:0|0:0,0:0:0:0:
19,327,95156,1,14,0:0:0:0:
101,254,95467,5,4,0:3:0:0:
194,311,95778,2,0,L|273:317,1,73.3333333333333,4|0,0:0|0:0,0:0:0:0:
