osu file format v14

[General]
AudioFilename: Kayano Ai - secret base ~Kimi ga Kureta Mono~ (10 years after Ver.).mp3
AudioLeadIn: 1500
PreviewTime: 52476
Countdown: 0
SampleSet: Soft
StackLeniency: 0.7
Mode: 0
LetterboxInBreaks: 0
WidescreenStoryboard: 0

[Editor]
Bookmarks: 53147
DistanceSpacing: 2.2
BeatDivisor: 6
GridSize: 8
TimelineZoom: 1

[Metadata]
Title:secret base ~Kimi ga Kureta Mono~ (10 years after Ver.)
TitleUnicode:secret base ~君がくれたもの~ (10 years after Ver.)
Artist:Kayano Ai / Tomatsu Haruka / Hayami Saori
ArtistUnicode:茅野愛衣/戸松遥/早見沙織
Creator:Rizen
Version:Easy
Source:あの日見た花の名前を僕達はまだ知らない。
Tags:本間芽衣子 安城鳴子 鶴見知利子 Honma Meiko Anjou Naruko Tsurumi Chiriko Ano Hi Mita Hana no Namae wo Bokutachi wa Mada Shiranai AnoHana The Flower We Saw That Day The Movie Compilation Music CD Doyak
BeatmapID:873831
BeatmapSetID:348801

[Difficulty]
HPDrainRate:2
CircleSize:3
OverallDifficulty:2
ApproachRate:3
SliderMultiplier:1.4
SliderTickRate:1

[Events]
//Background and Video events
0,0,"wallpapera.jpg",0,0
Video,-103,"video.avi"
//Break Periods
//Storyboard Layer 0 (Background)
//Storyboard Layer 1 (Fail)
//Storyboard Layer 2 (Pass)
//Storyboard Layer 3 (Foreground)
//Storyboard Sound Samples

[TimingPoints]
1208,895.522388059701,4,2,1,30,1,0
24491,895.522388059701,4,2,1,40,1,0
38819,-100,4,2,1,50,0,0
51356,-100,4,2,1,50,0,0
52252,-100,4,2,1,5,0,0
53147,-100,4,2,1,60,0,1
81804,-100,4,2,1,60,0,0
88968,-100,4,2,1,5,0,0

[Colours]
Combo1 : 233,255,72
Combo2 : 155,255,155
Combo3 : 138,191,255
Combo4 : 250,167,180

[HitObjects]
109,259,1208,6,0,P|144:266|178:259,1,70,2|0,0:0|0:0,0:0:0:0:
244,207,2103,2,0,P|278:200|312:206,1,70,2|0,0:0|0:0,0:0:0:0:
377,259,2999,2,0,P|395:194|359:136,1,140,2|2,0:0|0:0,0:0:0:0:
290,88,4342,1,0,0:0:0:0:
206,75,4790,6,0,L|137:87,1,70,2|0,0:0|0:0,0:0:0:0:
55,66,5685,1,2,0:0:0:0:
1,130,6133,1,0,0:0:0:0:
38,203,6581,2,0,P|95:241|101:308,1,140,2|2,0:0|0:0,0:0:0:0:
176,343,7924,1,0,0:0:0:0:
251,306,8372,6,0,P|257:238|313:201,1,140,2|2,0:0|0:0,0:0:0:0:
389,237,9715,1,0,0:0:0:0:
458,190,10163,2,0,P|467:156|459:122,2,70,2|0|2,0:0|0:0|0:0,0:0:0:0:
382,153,11506,1,0,0:0:0:0:
313,201,11954,6,0,B|246:220|246:220|178:201,1,140,2|2,0:0|0:0,0:0:0:0:
108,154,13297,1,0,0:0:0:0:
29,185,13745,2,0,L|17:254,1,70,0|0,0:0|0:0,0:0:0:0:
74,316,14640,1,2,0:0:0:0:
150,280,15088,1,0,0:0:0:0:
199,347,15536,6,0,P|234:288|214:223,1,140,2|2,0:0|0:0,0:0:0:0:
134,196,16879,1,0,0:0:0:0:
50,205,17327,2,0,P|83:264|149:279,1,140,2|2,0:0|0:0,0:0:0:0:
214,223,18670,1,0,0:0:0:0:
250,147,19118,6,0,P|181:146|135:196,1,140,2|2,0:0|0:0,0:0:0:0:
238,328,20909,1,2,0:0:0:0:
341,195,21805,1,2,0:0:0:0:
238,62,22700,6,0,P|135:103|237:147,1,280,2|8,0:0|0:0,0:0:0:0:
309,105,24938,5,8,0:0:0:0:
378,152,25386,2,0,L|371:221,1,70,8|8,0:0|0:0,0:0:0:0:
431,281,26282,2,0,P|451:252|454:217,2,70,0|0|8,0:0|0:0|0:0,0:0:0:0:
349,302,27625,1,2,0:0:0:0:
294,365,28073,6,0,P|259:370|224:365,1,70,8|8,0:0|0:0,0:0:0:0:
170,301,28968,2,0,P|135:296|100:300,1,70,8|8,0:0|0:0,0:0:0:0:
47,365,29864,2,0,P|16:304|43:241,1,140,0|8,0:0|0:0,0:0:0:0:
87,171,31207,1,2,0:0:0:0:
54,93,31655,6,0,P|95:88|132:100,1,70,8|8,0:0|0:0,0:0:0:0:
171,163,32550,1,8,0:0:0:0:
254,157,32998,1,0,0:0:0:0:
290,81,33446,2,0,L|298:11,2,70,0|0|8,0:0|0:0|0:0,0:0:0:0:
337,150,34789,1,2,0:0:0:0:
382,219,35237,6,0,P|349:233|315:231,1,70,8|8,0:0|0:0,0:0:0:0:
255,171,36132,2,0,B|189:152|189:152|121:173,1,140,8|0,0:0|0:0,0:0:0:0:
61,232,37476,1,0,0:0:0:0:
0,289,37923,2,0,P|27:311|61:318,1,70,8|8,0:0|0:0,0:0:0:0:
131,273,38819,6,0,P|193:243|254:272,1,140,2|10,0:0|0:0,0:0:0:0:
333,301,40162,1,0,0:0:0:0:
318,218,40610,2,0,P|288:156|317:95,1,140,2|10,0:0|0:0,0:0:0:0:
374,156,41953,1,0,0:0:0:0:
433,215,42401,6,0,P|463:277|434:338,1,140,2|10,0:0|0:0,0:0:0:0:
357,370,43744,1,0,0:0:0:0:
278,338,44192,2,0,P|243:345|209:339,2,70,2|0|10,0:0|0:0|0:0,0:0:0:0:
343,285,45535,1,0,0:0:0:0:
406,230,45983,6,0,P|345:200|282:225,1,140,2|10,0:0|0:0,0:0:0:0:
203,255,47326,1,0,0:0:0:0:
123,227,47774,2,0,P|69:185|64:117,1,140,2|10,0:0|0:0,0:0:0:0:
143,145,49117,1,0,0:0:0:0:
256,192,49565,12,0,51356,0:0:0:0:
388,155,53147,5,4,0:0:0:0:
466,125,53595,1,2,0:0:0:0:
505,197,54043,2,0,P|510:232|502:266,1,70,0|2,1:0|0:0,0:0:0:0:
430,310,54938,2,0,B|363:289|363:289|295:308,1,140,0|0,0:0|1:0,0:0:0:0:
221,267,56282,1,2,0:0:0:0:
147,307,56729,6,0,P|136:273|140:239,1,70,0|2,0:0|0:0,0:0:0:0:
185,168,57625,1,0,1:0:0:0:
129,104,58073,1,2,0:0:0:0:
179,37,58520,2,0,L|248:43,1,70,0|2,0:0|0:0,0:0:0:0:
281,120,59416,2,0,L|350:126,1,70,0|2,1:0|0:0,0:0:0:0:
395,55,60311,6,0,L|464:61,1,70,4|2,0:0|0:0,0:0:0:0:
500,135,61207,2,0,P|509:204|480:267,1,140,0|0,1:0|0:0,0:0:0:0:
419,324,62550,1,2,0:0:0:0:
340,293,62998,2,0,P|305:297|274:313,1,70,0|2,1:0|0:0,0:0:0:0:
191,329,63893,6,0,P|156:324|125:308,1,70,0|2,0:0|0:0,0:0:0:0:
114,224,64789,2,0,P|112:189|98:157,1,70,0|2,1:0|0:0,0:0:0:0:
156,96,65685,2,0,P|189:109|224:110,1,70,0|2,0:0|0:0,0:0:0:0:
291,57,66580,1,0,1:0:0:0:
371,80,67028,1,2,1:2:0:0:
404,157,67476,6,0,P|410:191|400:224,1,70,4|2,0:0|0:0,0:0:0:0:
352,293,68371,1,0,1:0:0:0:
279,250,68819,1,2,0:0:0:0:
230,318,69267,2,0,B|163:339|163:339|95:320,1,140,0|0,0:0|1:0,0:0:0:0:
49,250,70611,1,2,0:0:0:0:
96,180,71058,6,0,L|94:110,1,70,0|2,0:0|0:0,0:0:0:0:
142,40,71954,1,0,1:0:0:0:
213,84,72402,1,2,0:0:0:0:
269,21,72849,2,0,P|303:19|337:27,1,70,0|2,0:0|0:0,0:0:0:0:
382,98,73744,2,0,P|373:131|376:166,1,70,0|2,1:0|0:0,0:0:0:0:
415,240,74640,6,0,P|418:274|409:308,1,70,4|2,0:0|0:0,0:0:0:0:
339,355,75535,2,0,L|203:321,1,140,0|0,1:0|0:0,0:0:0:0:
162,247,76879,1,2,0:0:0:0:
127,170,77327,2,0,L|131:100,1,70,0|2,1:0|0:0,0:0:0:0:
215,107,78222,6,0,L|210:176,1,70,0|2,0:0|0:0,0:0:0:0:
162,247,79118,2,0,P|128:254|94:247,1,70,0|2,1:0|0:0,0:0:0:0:
44,178,80013,1,0,1:0:0:0:
11,100,80461,2,0,P|45:93|79:100,2,70,0|0|0,1:0|1:0|1:0,0:0:0:0:
44,178,81804,6,0,P|113:179|159:130,1,140,4|0,0:0|1:0,0:0:0:0:
235,94,83147,1,0,0:0:0:0:
312,61,83595,2,0,P|347:57|380:68,1,70,0|0,0:0|0:0,0:0:0:0:
437,128,84490,2,0,P|441:163|430:196,1,70,0|0,1:0|0:0,0:0:0:0:
256,192,85386,12,0,88968,0:0:0:0:
