osu file format v14

[General]
AudioFilename: audio.mp3
AudioLeadIn: 0
PreviewTime: -1
Countdown: 1
SampleSet: Normal
StackLeniency: 0.7
Mode: 0
LetterboxInBreaks: 0
SkinPreference:heh
WidescreenStoryboard: 0

[Editor]
DistanceSpacing: 1.3
BeatDivisor: 4
GridSize: 16
TimelineZoom: 1

[Metadata]
Title:Aurora Borealis
TitleUnicode:Aurora Borealis
Artist:KayaKata
ArtistUnicode:KayaKata
Creator:DerangedDude
Version:Hard
Source:
Tags:
BeatmapID:1748846
BeatmapSetID:834931

[Difficulty]
HPDrainRate:7
CircleSize:6
OverallDifficulty:4
ApproachRate:10
SliderMultiplier:1.70000000596046
SliderTickRate:2

[Events]
//Background and Video events
0,0,"676658.png",0,0
//Break Periods
//Storyboard Layer 0 (Background)
//Storyboard Layer 1 (Fail)
//Storyboard Layer 2 (Pass)
//Storyboard Layer 3 (Foreground)
//Storyboard Sound Samples

[TimingPoints]
163159,500,4,1,0,39,1,0

[Colours]
Combo1 : 66,255,232
Combo2 : 108,23,26
Combo3 : 100,122,225
Combo4 : 114,68,164

[HitObjects]
21,82,3284,5,0,0:0:0:0:
21,82,4034,1,0,0:0:0:0:
215,122,4534,1,0,0:0:0:0:
101,102,5034,1,0,0:0:0:0:
343,168,5659,1,0,0:0:0:0:
39,80,6409,1,0,0:0:0:0:
267,146,6909,1,0,0:0:0:0:
152,113,7534,1,0,0:0:0:0:
152,113,8159,1,0,0:0:0:0:
152,113,8784,1,0,0:0:0:0:
459,152,9534,1,0,0:0:0:0:
193,218,10159,1,0,0:0:0:0:
308,10,10659,1,0,0:0:0:0:
251,275,11284,1,0,0:0:0:0:
65,91,11909,1,0,0:0:0:0:
394,216,12659,1,0,0:0:0:0:
89,171,13409,1,0,0:0:0:0:
329,151,13909,1,0,0:0:0:0:
47,171,14534,1,0,0:0:0:0:
270,144,15034,1,0,0:0:0:0:
80,167,15534,1,0,0:0:0:0:
250,146,15909,1,0,0:0:0:0:
24,176,16409,1,0,0:0:0:0:
303,139,17034,1,0,0:0:0:0:
166,382,17659,1,0,0:0:0:0:
276,131,18284,1,0,0:0:0:0:
401,175,18909,1,0,0:0:0:0:
102,166,19534,1,0,0:0:0:0:
378,123,20159,1,0,0:0:0:0:
133,201,20784,1,0,0:0:0:0:
371,90,21409,1,0,0:0:0:0:
144,234,22034,1,0,0:0:0:0:
97,117,22659,1,0,0:0:0:0:
382,163,23284,1,0,0:0:0:0:
31,160,24034,1,0,0:0:0:0:
269,162,24534,1,0,0:0:0:0:
91,162,24909,1,0,0:0:0:0:
292,162,25409,1,0,0:0:0:0:
346,149,26034,1,0,0:0:0:0:
120,236,26534,1,0,0:0:0:0:
399,136,27159,1,0,0:0:0:0:
176,223,27659,1,0,0:0:0:0:
353,155,28034,1,0,0:0:0:0:
146,234,28534,1,0,0:0:0:0:
379,153,29159,1,0,0:0:0:0:
168,186,29659,1,0,0:0:0:0:
417,149,30284,1,0,0:0:0:0:
172,177,30909,1,0,0:0:0:0:
334,165,31284,1,0,0:0:0:0:
175,178,31659,1,0,0:0:0:0:
448,135,32284,1,0,0:0:0:0:
157,146,32909,1,0,0:0:0:0:
415,208,33534,1,0,0:0:0:0:
188,135,34034,1,0,0:0:0:0:
376,163,34534,1,0,0:0:0:0:
229,161,34909,1,0,0:0:0:0:
202,156,35409,1,0,0:0:0:0:
202,156,36034,1,0,0:0:0:0:
202,156,36534,1,0,0:0:0:0:
202,156,37284,1,0,0:0:0:0:
202,156,37659,1,0,0:0:0:0:
373,159,38034,1,0,0:0:0:0:
102,143,38659,1,0,0:0:0:0:
342,146,39159,1,0,0:0:0:0:
56,119,39784,1,0,0:0:0:0:
324,134,40409,1,0,0:0:0:0:
487,145,40784,1,0,0:0:0:0:
307,133,41159,1,0,0:0:0:0:
367,137,41784,1,0,0:0:0:0:
367,137,42409,1,0,0:0:0:0:
367,137,43034,1,0,0:0:0:0:
153,169,43534,1,0,0:0:0:0:
326,160,43909,1,0,0:0:0:0:
153,202,44284,1,0,0:0:0:0:
433,172,44909,1,0,0:0:0:0:
166,162,45534,1,0,0:0:0:0:
412,131,46159,1,0,0:0:0:0:
156,161,46784,1,0,0:0:0:0:
302,161,47159,1,0,0:0:0:0:
139,175,47534,1,0,0:0:0:0:
391,155,48159,1,0,0:0:0:0:
180,158,48659,1,0,0:0:0:0:
439,140,49284,1,0,0:0:0:0:
193,152,49784,1,0,0:0:0:0:
385,144,50284,1,0,0:0:0:0:
231,147,50659,1,0,0:0:0:0:
385,144,51284,1,0,0:0:0:0:
166,145,51784,1,0,0:0:0:0:
431,138,52409,1,0,0:0:0:0:
171,155,53034,1,0,0:0:0:0:
345,161,53409,1,0,0:0:0:0:
164,162,53784,1,0,0:0:0:0:
345,161,54409,1,0,0:0:0:0:
101,161,54909,1,0,0:0:0:0:
395,155,55534,1,0,0:0:0:0:
165,284,56159,1,0,0:0:0:0:
154,118,56534,1,0,0:0:0:0:
311,221,56909,1,0,0:0:0:0:
65,83,57534,1,0,0:0:0:0:
309,194,58159,1,0,0:0:0:0:
137,242,58534,1,0,0:0:0:0:
316,212,58909,1,0,0:0:0:0:
124,177,59409,1,0,0:0:0:0:
279,176,59784,1,0,0:0:0:0:
143,260,60159,1,0,0:0:0:0:
379,231,60659,1,0,0:0:0:0:
110,111,61284,1,0,0:0:0:0:
369,223,61909,1,0,0:0:0:0:
149,123,62409,1,0,0:0:0:0:
184,309,62784,1,0,0:0:0:0:
322,158,63284,1,0,0:0:0:0:
84,196,63784,1,0,0:0:0:0:
377,225,64409,1,0,0:0:0:0:
209,120,64909,1,0,0:0:0:0:
165,257,65284,1,0,0:0:0:0:
312,208,65659,1,0,0:0:0:0:
162,130,66034,1,0,0:0:0:0:
334,163,66409,1,0,0:0:0:0:
88,274,67034,1,0,0:0:0:0:
334,183,67659,1,0,0:0:0:0:
102,249,68159,1,0,0:0:0:0:
277,88,68659,1,0,0:0:0:0:
335,286,69159,1,0,0:0:0:0:
166,198,69534,1,0,0:0:0:0:
435,98,70159,1,0,0:0:0:0:
193,229,70784,1,0,0:0:0:0:
51,35,71284,1,0,0:0:0:0:
310,166,71909,1,0,0:0:0:0:
125,234,72409,1,0,0:0:0:0:
308,203,72784,1,0,0:0:0:0:
63,79,73409,1,0,0:0:0:0:
299,189,74034,1,0,0:0:0:0:
248,284,74534,1,0,0:0:0:0:
495,224,75159,1,0,0:0:0:0:
335,201,75534,1,0,0:0:0:0:
154,146,75909,1,0,0:0:0:0:
164,217,76534,1,0,0:0:0:0:
96,158,77159,1,0,0:0:0:0:
327,170,77659,1,0,0:0:0:0:
72,91,78284,1,0,0:0:0:0:
193,203,78659,1,0,0:0:0:0:
357,120,79034,1,0,0:0:0:0:
85,155,79659,1,0,0:0:0:0:
335,245,80284,1,0,0:0:0:0:
247,27,80784,1,0,0:0:0:0:
160,290,81409,1,0,0:0:0:0:
98,119,81784,1,0,0:0:0:0:
279,194,82284,1,0,0:0:0:0:
54,248,82784,1,0,0:0:0:0:
314,162,83409,1,0,0:0:0:0:
70,152,83909,1,0,0:0:0:0:
360,165,84534,1,0,0:0:0:0:
181,240,85034,1,0,0:0:0:0:
208,64,85409,1,0,0:0:0:0:
353,284,86034,1,0,0:0:0:0:
124,165,86659,1,0,0:0:0:0:
361,148,87159,1,0,0:0:0:0:
115,226,87784,1,0,0:0:0:0:
175,79,88159,1,0,0:0:0:0:
291,201,88534,1,0,0:0:0:0:
105,243,89034,1,0,0:0:0:0:
192,120,89409,1,0,0:0:0:0:
317,201,89784,1,0,0:0:0:0:
143,195,90159,1,0,0:0:0:0:
266,67,90534,1,0,0:0:0:0:
163,194,90909,1,0,0:0:0:0:
289,48,91409,1,0,0:0:0:0:
201,149,91659,1,0,0:0:0:0:
83,290,92034,1,0,0:0:0:0:
200,150,92409,1,0,0:0:0:0:
69,308,92909,1,0,0:0:0:0:
172,183,93284,1,0,0:0:0:0:
172,183,94034,1,0,0:0:0:0:
172,183,94409,1,0,0:0:0:0:
172,183,94784,1,0,0:0:0:0:
172,183,95659,1,0,0:0:0:0:
172,183,96034,1,0,0:0:0:0:
338,213,96409,1,0,0:0:0:0:
172,183,96784,1,0,0:0:0:0:
352,212,97159,1,0,0:0:0:0:
172,183,97659,1,0,0:0:0:0:
307,119,98034,1,0,0:0:0:0:
145,185,98409,1,0,0:0:0:0:
318,125,98784,1,0,0:0:0:0:
138,201,99284,1,0,0:0:0:0:
283,151,99659,1,0,0:0:0:0:
146,208,100034,1,0,0:0:0:0:
296,169,100409,1,0,0:0:0:0:
146,208,100784,1,0,0:0:0:0:
234,65,101159,1,0,0:0:0:0:
88,255,101659,1,0,0:0:0:0:
352,141,102284,1,0,0:0:0:0:
190,226,102659,1,0,0:0:0:0:
38,105,103159,1,0,0:0:0:0:
177,174,103534,1,0,0:0:0:0:
87,321,103909,1,0,0:0:0:0:
243,215,104284,1,0,0:0:0:0:
154,191,104909,1,0,0:0:0:0:
428,191,105534,1,0,0:0:0:0:
173,182,106159,1,0,0:0:0:0:
385,100,106659,1,0,0:0:0:0:
244,208,107034,1,0,0:0:0:0:
66,135,107534,1,0,0:0:0:0:
267,273,108034,1,0,0:0:0:0:
24,152,108659,1,0,0:0:0:0:
292,158,109284,1,0,0:0:0:0:
57,96,109784,1,0,0:0:0:0:
186,229,110159,1,0,0:0:0:0:
349,108,110659,1,0,0:0:0:0:
124,231,111284,1,0,0:0:0:0:
376,205,111909,1,0,0:0:0:0:
181,136,112409,1,0,0:0:0:0:
164,379,112909,1,0,0:0:0:0:
130,185,113409,1,0,0:0:0:0:
285,146,113784,1,0,0:0:0:0:
12,210,114409,1,0,0:0:0:0:
292,177,115034,1,0,0:0:0:0:
41,155,115659,1,0,0:0:0:0:
272,170,116159,1,0,0:0:0:0:
109,244,116534,1,0,0:0:0:0:
314,175,117034,1,0,0:0:0:0:
55,138,117659,1,0,0:0:0:0:
287,192,118159,1,0,0:0:0:0:
58,315,118784,1,0,0:0:0:0:
267,196,119284,1,0,0:0:0:0:
98,83,119784,1,0,0:0:0:0:
254,154,120159,1,0,0:0:0:0:
238,212,120784,1,0,0:0:0:0:
19,124,121284,1,0,0:0:0:0:
275,185,121909,1,0,0:0:0:0:
42,237,122409,1,0,0:0:0:0:
238,193,122909,1,0,0:0:0:0:
238,193,123284,1,0,0:0:0:0:
472,71,123909,1,0,0:0:0:0:
257,174,124409,1,0,0:0:0:0:
45,12,125034,1,0,0:0:0:0:
228,173,125534,1,0,0:0:0:0:
438,145,126034,1,0,0:0:0:0:
284,191,126409,1,0,0:0:0:0:
9,140,127034,1,0,0:0:0:0:
268,202,127659,1,0,0:0:0:0:
58,308,128159,1,0,0:0:0:0:
293,138,128784,1,0,0:0:0:0:
218,313,129284,1,0,0:0:0:0:
210,161,129659,1,0,0:0:0:0:
432,221,130159,1,0,0:0:0:0:
168,229,130784,1,0,0:0:0:0:
268,100,131159,1,0,0:0:0:0:
289,256,131534,1,0,0:0:0:0:
133,166,131909,1,0,0:0:0:0:
321,172,132284,1,0,0:0:0:0:
150,254,132659,1,0,0:0:0:0:
268,16,133284,1,0,0:0:0:0:
286,280,133909,1,0,0:0:0:0:
80,128,134534,1,0,0:0:0:0:
333,209,135159,1,0,0:0:0:0:
177,238,135534,1,0,0:0:0:0:
315,131,135909,1,0,0:0:0:0:
264,362,136409,1,0,0:0:0:0:
142,103,137034,1,0,0:0:0:0:
387,242,137659,1,0,0:0:0:0:
113,221,138284,1,0,0:0:0:0:
257,133,138659,1,0,0:0:0:0:
330,285,139034,1,0,0:0:0:0:
164,193,139409,1,0,0:0:0:0:
358,172,139909,1,0,0:0:0:0:
231,241,140284,1,0,0:0:0:0:
128,124,140659,1,0,0:0:0:0:
276,196,141034,1,0,0:0:0:0:
124,299,141409,1,0,0:0:0:0:
207,130,141784,1,0,0:0:0:0:
371,250,142284,1,0,0:0:0:0:
136,208,142784,1,0,0:0:0:0:
397,158,143409,1,0,0:0:0:0:
167,209,143909,1,0,0:0:0:0:
433,159,144534,1,0,0:0:0:0:
214,172,145034,1,0,0:0:0:0:
372,221,145409,1,0,0:0:0:0:
117,181,146034,1,0,0:0:0:0:
365,194,146659,1,0,0:0:0:0:
226,199,147034,1,0,0:0:0:0:
447,187,147534,1,0,0:0:0:0:
181,177,148159,1,0,0:0:0:0:
176,22,148534,1,0,0:0:0:0:
35,209,149034,1,0,0:0:0:0:
316,166,149659,1,0,0:0:0:0:
110,130,150159,1,0,0:0:0:0:
194,262,150534,1,0,0:0:0:0:
314,147,150909,1,0,0:0:0:0:
279,309,151284,1,0,0:0:0:0:
131,205,151659,1,0,0:0:0:0:
392,157,152284,1,0,0:0:0:0:
175,268,152784,1,0,0:0:0:0:
64,92,153284,1,0,0:0:0:0:
213,174,153659,1,0,0:0:0:0:
79,311,154159,1,0,0:0:0:0:
138,191,154409,1,0,0:0:0:0:
335,218,154909,1,0,0:0:0:0:
83,130,155534,1,0,0:0:0:0:
319,160,156034,1,0,0:0:0:0:
62,230,156659,1,0,0:0:0:0:
316,150,157284,1,0,0:0:0:0:
193,231,157659,1,0,0:0:0:0:
147,85,158034,1,0,0:0:0:0:
334,253,158659,1,0,0:0:0:0:
104,180,159159,1,0,0:0:0:0:
384,126,159784,1,0,0:0:0:0:
194,273,160284,1,0,0:0:0:0:
111,99,160784,1,0,0:0:0:0:
257,183,161159,1,0,0:0:0:0:
20,305,161784,1,0,0:0:0:0:
216,140,162409,1,0,0:0:0:0:
399,277,162909,1,0,0:0:0:0:
158,177,163534,1,0,0:0:0:0:
329,156,163909,1,0,0:0:0:0:
163,265,164409,1,0,0:0:0:0:
196,24,164909,1,0,0:0:0:0:
325,234,165534,1,0,0:0:0:0:
79,223,166034,1,0,0:0:0:0:
350,163,166659,1,0,0:0:0:0:
167,172,167034,1,0,0:0:0:0:
354,167,167409,1,0,0:0:0:0:
