osu file format v14

[General]
AudioFilename: audio.mp3
AudioLeadIn: 1000
PreviewTime: 42923
Countdown: 0
SampleSet: Soft
StackLeniency: 0.7
Mode: 0
LetterboxInBreaks: 0
WidescreenStoryboard: 0

[Editor]
Bookmarks: 17942,48927
DistanceSpacing: 0.7
BeatDivisor: 4
GridSize: 16
TimelineZoom: 1.5

[Metadata]
Title:STAND UP TO THE VICTORY (TV Size)
TitleUnicode:STAND UP TO THE VICTORY (TV Size)
Artist:Kawazoe Tomohisa
ArtistUnicode:川添智久
Creator:smallboat
Version:Victory Gundam
Source:機動戦士Vガンダム
Tags:opening japanese anime sunrise victory gundam robot fight mobile suit light wing dash hexa buster assault lindberg bass composer vocalist producer
BeatmapID:2730205
BeatmapSetID:1317757

[Difficulty]
HPDrainRate:6.5
CircleSize:4.2
OverallDifficulty:9
ApproachRate:9.3
SliderMultiplier:1.9
SliderTickRate:1

[Events]
//Background and Video events
0,0,"BG5.jpg",0,0
Video,1150,"video.flv"
//Break Periods
//Storyboard Layer 0 (Background)
//Storyboard Layer 1 (Fail)
//Storyboard Layer 2 (Pass)
//Storyboard Layer 3 (Foreground)
//Storyboard Layer 4 (Overlay)
//Storyboard Sound Samples

[TimingPoints]
1310,347.423277359583,4,2,1,40,1,0
1657,-100,4,2,2,50,0,0
2004,-100,4,2,1,40,0,0
2525,-100,4,2,2,55,0,0
3394,-100,4,2,1,40,0,0
3568,-100,4,2,2,55,0,0
3741,-100,4,2,1,40,0,0
4957,-100,4,2,2,55,0,0
5131,-100,4,2,1,40,0,0
5305,-100,4,2,2,40,0,0
5479,-100,4,2,1,40,0,0
6173,-100,4,2,2,55,0,0
6521,-200,4,2,2,55,0,0
6781,-100,4,2,1,5,0,0
6888,348.027842227378,4,2,1,40,1,0
6888,-100,4,2,1,40,0,0
7236,-100,4,2,2,70,0,0
8106,-100,4,2,2,60,0,0
8280,-100,4,2,1,50,0,0
8802,-100,4,2,2,60,0,0
8976,-100,4,2,1,60,0,0
9150,-100,4,2,2,70,0,0
9324,-100,4,2,1,60,0,0
9498,-100,4,2,2,70,0,0
9672,-100,4,2,2,65,0,0
11064,-100,4,2,2,65,0,0
12456,-100,4,2,2,35,0,0
12630,-100,4,2,2,55,0,0
13674,-100,4,2,2,65,0,0
14892,-200,4,2,2,60,0,0
15936,-100,4,2,1,65,0,0
16110,-100,4,2,2,70,0,0
16284,-100,4,2,1,60,0,0
16458,-100,4,2,2,70,0,0
17502,-100,4,2,2,65,0,0
17850,-100,4,2,2,60,0,0
18025,347.021399652979,4,2,2,55,1,0
18025,-100,4,2,2,55,0,0
19413,-100,4,2,2,60,0,0
19586,-100,4,2,1,60,0,0
20107,-100,4,2,1,60,0,0
20627,-100,4,2,2,70,0,0
20801,-100,4,2,2,60,0,0
22883,-100,4,2,2,70,0,0
23577,-100,4,2,2,65,0,0
24965,-100,4,2,2,60,0,0
25659,-100,4,2,1,50,0,0
26006,-100,4,2,2,45,0,0
26353,-100,4,2,2,65,0,0
27741,-100,4,2,1,50,0,0
28435,-100,4,2,3,55,0,0
29129,-100,4,1,1,25,0,0
29303,-100,4,2,2,60,0,0
31905,-76.9230769230769,4,1,1,25,0,0
32252,-100,4,1,1,50,0,0
32426,-100,4,2,2,60,0,0
34672,347.423277359583,4,1,1,25,1,0
34672,-76.9230769230769,4,1,1,25,0,0
35019,-100,4,2,2,60,0,0
36409,-100,4,2,1,35,0,0
36582,-100,4,2,2,60,0,0
37451,-100,4,2,2,40,0,0
37798,-100,4,2,2,55,0,0
39883,-100,4,2,1,40,0,0
40057,-100,4,2,2,60,0,0
40230,-100,4,2,2,70,0,0
41620,-100,4,2,1,55,0,0
43010,-90.9090909090909,4,2,2,40,0,1
43357,-90.9090909090909,4,2,2,70,0,1
45442,-90.9090909090909,4,2,1,60,0,1
45789,-90.9090909090909,4,2,2,70,0,1
49958,-90.9090909090909,4,2,2,60,0,1
51348,-90.9090909090909,4,2,2,30,0,1
51522,-90.9090909090909,4,2,2,60,0,1
52043,-90.9090909090909,4,3,1,50,0,1
52216,-90.9090909090909,4,2,1,65,0,1
53259,-90.9090909090909,4,2,2,60,0,1
54127,-90.9090909090909,4,2,2,65,0,1
55517,-90.9090909090909,4,2,1,60,0,1
56038,-90.9090909090909,4,2,2,60,0,1
56559,-90.9090909090909,4,2,1,60,0,1
56907,-90.9090909090909,4,2,2,70,0,1
59165,-100,4,2,1,5,0,0
59252,-100,4,2,1,60,0,0
59686,-100,4,2,2,65,0,0
62465,-100,4,2,2,60,0,0
64202,-100,4,2,1,60,0,0
64376,-100,4,2,2,60,0,0
65245,-200,4,2,2,60,0,0
65592,-83.3333333333333,4,2,1,30,0,0
65940,-100,4,2,2,60,0,0
66287,-100,4,2,1,60,0,0
66374,-100,4,2,1,20,0,0
66461,-100,4,2,1,60,0,0
66548,-100,4,2,1,20,0,0
66634,-100,4,2,2,60,0,0
69066,-100,4,2,1,60,0,0
69153,-100,4,2,1,20,0,0
69240,-100,4,2,2,60,0,0
69327,-100,4,2,1,20,0,0
69414,-100,4,2,1,60,0,0
69935,-100,4,2,2,65,0,0
70804,-100,4,2,2,60,0,0
72888,-100,4,2,1,60,0,0
74278,-100,4,2,2,60,0,0
74973,-100,4,2,1,60,0,0
75146,-100,4,2,2,60,0,0
76362,-100,4,2,2,75,0,0
77405,-100,4,2,1,20,0,0
77578,-100,4,2,1,30,0,0
77926,-100,4,2,2,65,0,0
78794,-100,4,2,2,30,0,0
78968,-100,4,2,1,30,0,0
79315,-100,4,2,1,20,0,0
79837,-100,4,2,1,5,0,0

[Colours]
Combo1 : 159,80,0
Combo2 : 0,118,174
Combo3 : 187,0,0
Combo4 : 26,181,255
Combo5 : 255,192,0

[HitObjects]
167,43,1310,6,0,L|191:143,1,95
323,135,1657,2,0,L|346:43,1,95,8|0,0:0|0:0,0:0:0:0:
256,189,2004,2,0,L|256:284,1,95,10|0,0:0|0:0,0:0:0:0:
168,340,2352,1,8,0:0:0:0:
51,226,2525,1,2,0:0:0:0:
78,75,2699,6,0,L|182:39,1,95
434,309,3047,2,0,L|344:340,1,95,8|0,0:0|0:0,0:0:0:0:
129,153,3394,2,0,L|233:117,1,95,10|2,0:0|0:0,0:0:0:0:
383,231,3741,2,0,L|293:262,1,95,10|0,0:0|0:0,0:0:0:0:
129,231,4089,6,0,L|222:263,1,95
434,116,4436,2,0,L|341:148,1,95,8|0,0:0|0:0,0:0:0:0:
198,30,4784,1,2,0:0:0:0:
314,30,4957,1,2,0:0:0:0:
167,146,5131,2,0,L|78:116,1,95,8|2,0:0|0:0,0:0:0:0:
344,238,5479,6,0,L|434:266,1,95
263,340,5826,2,0,P|225:313|210:269,1,95,8|0,0:0|0:0,0:0:0:0:
213,230,6087,1,8,0:0:0:0:
230,196,6173,1,8,0:0:0:0:
332,18,6347,1,8,0:0:0:0:
132,80,6521,6,0,L|125:164,1,71.25,8|0,0:0|0:0,0:0:0:0:
53,180,6888,6,0,L|37:87,1,95,4|0,0:0|0:0,0:0:0:0:
198,7,7236,2,0,L|217:101,1,95,8|0,0:0|0:0,0:0:0:0:
313,376,7584,2,0,L|295:283,1,95,8|0,0:0|0:0,0:0:0:0:
475,87,7932,2,0,L|459:180,1,95,8|2,0:0|0:0,0:0:0:0:
388,315,8280,5,2,0:0:0:0:
310,144,8454,2,0,P|272:115|225:115,1,95,0|8,0:0|0:0,0:0:0:0:
80,162,8802,1,2,0:0:0:0:
38,296,8976,5,2,0:0:0:0:
226,114,9150,1,2,0:0:0:0:
169,374,9324,1,2,0:0:0:0:
343,374,9498,1,2,0:0:0:0:
201,186,9672,6,0,B|155:199|155:199|121:232,1,95,8|0,0:0|0:0,0:0:0:0:
311,186,10020,2,0,B|356:199|356:199|390:232,1,95,8|0,0:0|0:0,0:0:0:0:
255,357,10368,2,0,L|255:262,1,95,8|0,0:0|0:0,0:0:0:0:
49,93,10716,2,0,L|68:187,1,95,8|2,0:0|0:0,0:0:0:0:
326,193,11064,5,8,0:0:0:0:
366,48,11238,1,2,0:0:0:0:
186,193,11412,1,8,0:0:0:0:
146,48,11586,1,0,0:0:0:0:
347,202,11760,5,8,0:0:0:0:
376,38,11934,1,2,0:0:0:0:
176,203,12108,1,8,0:0:0:0:
136,38,12282,1,0,0:0:0:0:
444,187,12456,6,0,L|462:93,1,95,4|0,0:0|0:0,0:0:0:0:
256,110,12804,1,8,0:0:0:0:
256,274,12978,1,0,0:0:0:0:
162,120,13152,1,8,0:0:0:0:
343,262,13326,2,0,L|436:279,1,95,0|8,0:0|0:0,0:0:0:0:
169,262,13674,1,2,0:0:0:0:
266,101,13848,6,0,L|249:7,1,95,2|0,0:0|0:0,0:0:0:0:
77,100,14196,2,0,L|93:193,1,95,8|0,0:0|0:0,0:0:0:0:
164,332,14544,1,8,0:0:0:0:
348,332,14718,1,2,0:0:0:0:
195,151,14892,6,0,L|181:70,1,71.25,8|2,0:0|0:0,0:0:0:0:
134,22,15240,5,8,0:0:0:0:
199,228,15414,1,0,0:0:0:0:
320,28,15588,1,8,0:0:0:0:
94,193,15762,1,0,0:0:0:0:
378,99,15936,5,2,0:0:0:0:
51,91,16110,1,2,0:0:0:0:
282,193,16284,2,0,B|329:202|329:202|376:183,1,95,2|2,0:0|0:0,0:0:0:0:
509,4,16632,5,8,0:0:0:0:
257,113,16806,1,0,0:0:0:0:
471,234,16980,1,8,0:0:0:0:
406,38,17154,1,0,0:0:0:0:
306,215,17328,2,0,B|297:262|297:262|316:309,1,95,8|2,0:0|0:0,0:0:0:0:
464,375,17676,1,8,0:0:0:0:
379,256,17850,1,2,0:0:0:0:
197,305,18025,6,0,B|215:262|215:262|206:215,1,95,12|0,0:0|0:0,0:0:0:0:
4,268,18372,2,0,L|98:257,1,95,8|0,0:0|0:0,0:0:0:0:
32,33,18719,2,0,B|14:76|14:76|23:123,1,95,8|0,0:0|0:0,0:0:0:0:
225,70,19066,2,0,L|130:80,1,95,8|0,0:0|0:0,0:0:0:0:
16,195,19413,5,2,0:0:0:0:
121,332,19586,1,0,0:0:0:0:
273,196,19760,1,2,0:0:0:0:
98,256,19933,1,0,0:0:0:0:
4,214,20107,5,2,0:0:0:0:
109,351,20280,1,0,0:0:0:0:
261,215,20454,1,2,0:0:0:0:
11,317,20627,1,2,0:0:0:0:
203,379,20801,6,0,L|212:284,1,95,2|0,0:0|0:0,0:0:0:0:
309,5,21148,2,0,L|299:99,1,95,8|0,0:0|0:0,0:0:0:0:
301,290,21495,1,8,0:0:0:0:
360,136,21668,1,0,0:0:0:0:
474,223,21842,1,8,0:0:0:0:
511,73,22015,1,0,0:0:0:0:
287,34,22189,6,0,L|277:128,1,95,2|0,0:0|0:0,0:0:0:0:
370,302,22536,1,8,0:0:0:0:
415,184,22709,1,0,0:0:0:0:
468,373,22883,5,8,0:0:0:0:
460,126,23056,1,2,0:0:0:0:
285,213,23230,1,8,0:0:0:0:
498,299,23403,1,2,0:0:0:0:
226,146,23577,6,0,B|208:151|208:151|153:127|153:127|137:131,1,95,2|0,0:0|0:0,0:0:0:0:
48,146,23924,2,0,B|66:151|66:151|121:127|121:127|137:131,1,95,8|0,0:0|0:0,0:0:0:0:
133,51,24271,1,8,0:0:0:0:
149,302,24444,2,0,L|142:207,1,95,0|8,0:0|0:0,0:0:0:0:
15,75,24791,1,2,0:0:0:0:
248,56,24965,6,0,B|247:105|247:105|225:145,1,95,2|0,0:0|0:0,0:0:0:0:
26,340,25312,2,0,B|27:291|27:291|49:251,1,95,8|0,0:0|0:0,0:0:0:0:
235,240,25659,2,0,B|257:280|257:280|258:329,1,95,2|0,0:0|0:0,0:0:0:0:
13,330,26006,2,0,B|14:281|14:281|36:241,1,95,8|2,0:0|0:0,0:0:0:0:
314,181,26353,6,0,P|361:186|406:169,1,95,2|0,0:0|0:0,0:0:0:0:
500,18,26700,1,8,0:0:0:0:
350,102,26874,1,0,0:0:0:0:
447,238,27047,1,8,0:0:0:0:
437,76,27221,1,2,0:0:0:0:
228,151,27394,1,8,0:0:0:0:
383,307,27568,1,2,0:0:0:0:
486,158,27741,5,8,0:0:0:0:
350,20,27915,1,2,0:0:0:0:
350,20,28001,1,2,0:0:0:0:
350,20,28088,1,2,0:0:0:0:
206,162,28262,1,2,0:0:0:0:
303,327,28435,5,2,0:0:0:0:
341,94,28609,1,2,0:0:0:0:
209,327,28782,1,2,0:0:0:0:
171,94,28956,1,0,0:0:0:0:
406,169,29129,6,0,L|416:74,1,95,14|0,0:0|0:0,0:0:0:0:
95,74,29476,2,0,L|106:169,1,95,8|2,0:0|0:0,0:0:0:0:
255,381,29823,1,0,0:0:0:0:
47,295,29997,1,0,0:0:0:0:
326,231,30170,1,8,0:0:0:0:
186,231,30344,1,0,0:0:0:0:
465,295,30517,6,0,P|482:251|476:204,1,95,2|0,0:0|0:0,0:0:0:0:
415,74,30864,1,8,0:0:0:0:
256,142,31038,2,0,L|256:344,1,190,2|0,0:0|0:0,0:0:0:0:
47,295,31558,2,0,L|47:200,1,95,8|0,0:0|0:0,0:0:0:0:
170,18,31905,6,0,L|293:18,1,123.499994346619,14|0,0:0|0:0,0:0:0:0:
398,151,32252,1,8,0:0:0:0:
208,269,32426,1,2,0:0:0:0:
278,131,32599,5,0,0:0:0:0:
323,344,32773,1,0,0:0:0:0:
398,151,32946,2,0,B|429:116|429:116|476:106,1,95,8|0,0:0|0:0,0:0:0:0:
496,296,33293,5,2,0:0:0:0:
324,210,33467,2,0,B|289:179|289:179|279:132,1,95,0|8,0:0|0:0,0:0:0:0:
490,193,33814,2,0,P|411:241|324:210,1,190,2|2,0:0|0:0,0:0:0:0:
404,56,34335,2,0,L|397:150,1,95,8|2,0:0|0:0,0:0:0:0:
332,333,34672,6,0,L|324:200,1,123.499994346619,14|0,0:0|0:0,0:0:0:0:
114,233,35019,6,0,L|108:328,1,95,8|2,0:0|0:0,0:0:0:0:
39,195,35366,1,0,0:0:0:0:
230,356,35540,1,0,0:0:0:0:
8,349,35714,1,8,0:0:0:0:
188,189,35887,1,0,0:0:0:0:
343,354,36061,6,0,P|371:316|374:269,1,95,2|0,0:0|0:0,0:0:0:0:
207,274,36409,1,8,0:0:0:0:
443,381,36582,2,0,P|471:292|449:201,1,190,2|0,0:0|0:0,0:0:0:0:
259,158,37103,2,0,L|352:171,1,95,8|0,0:0|0:0,0:0:0:0:
489,113,37451,6,0,P|503:67|500:20,1,95,4|0,0:0|0:0,0:0:0:0:
359,7,37798,1,8,0:0:0:0:
286,134,37972,2,0,L|379:147,1,95,2|0,0:0|0:0,0:0:0:0:
471,293,38319,1,2,0:0:0:0:
307,361,38493,1,8,0:0:0:0:
213,201,38667,1,2,0:0:0:0:
20,281,38841,6,0,B|13:233|13:233|40:193,1,95,2|0,0:0|0:0,0:0:0:0:
132,261,39188,1,8,0:0:0:0:
28,122,39362,2,0,L|37:27,1,95,2|0,0:0|0:0,0:0:0:0:
229,4,39709,1,2,0:0:0:0:
135,147,39883,1,8,0:0:0:0:
319,237,40057,1,2,0:0:0:0:
175,348,40230,6,0,P|128:353|86:331,1,95
193,237,40578,1,8,0:0:0:0:
256,119,40751,1,0,0:0:0:0:
336,35,40925,2,0,P|383:30|425:52,1,95,8|2,0:0|0:0,0:0:0:0:
503,151,41273,1,8,0:0:0:0:
319,237,41446,1,0,0:0:0:0:
474,344,41620,6,0,L|495:203,1,142.5,2|2,0:0|0:0,0:0:0:0:
503,151,41967,1,2,0:0:0:0:
255,107,42141,1,2,0:0:0:0:
391,302,42315,1,2,0:0:0:0:
391,82,42489,1,2,0:0:0:0:
121,82,42662,1,2,0:0:0:0:
103,110,42749,1,2,0:0:0:0:
85,138,42836,1,2,0:0:0:0:
69,167,42923,1,0,0:0:0:0:
50,203,43010,6,0,L|153:185,1,104.500003189087,4|0,0:0|0:0,0:0:0:0:
462,203,43357,2,0,L|358:185,1,104.500003189087,8|0,0:0|0:0,0:0:0:0:
199,113,43705,1,2,0:0:0:0:
313,271,43878,1,2,0:0:0:0:
417,118,44052,2,0,L|399:14,1,104.500003189087,8|0,0:0|0:0,0:0:0:0:
95,266,44399,6,0,L|112:369,1,104.500003189087,2|0,0:0|0:0,0:0:0:0:
9,161,44747,1,8,0:0:0:0:
180,329,44920,2,0,B|275:369|275:369|313:271,1,209.000006378174,2|2,0:0|0:0,0:0:0:0:
156,84,45442,1,8,0:0:0:0:
342,196,45615,1,8,0:0:0:0:
95,266,45789,6,0,L|113:163,1,104.500003189087,2|2,0:0|0:0,0:0:0:0:
19,37,46136,1,8,0:0:0:0:
198,164,46310,1,2,0:0:0:0:
121,355,46484,2,0,L|19:328,1,104.500003189087,2|0,0:0|0:0,0:0:0:0:
391,355,46831,2,0,L|492:328,1,104.500003189087,8|0,0:0|0:0,0:0:0:0:
420,29,47179,6,0,L|434:132,1,104.500003189087,2|0,0:0|0:0,0:0:0:0:
78,132,47526,2,0,L|92:29,1,104.500003189087,8|2,0:0|0:0,0:0:0:0:
256,29,47874,1,2,0:0:0:0:
364,183,48047,1,2,0:0:0:0:
157,286,48221,2,0,L|143:183,1,104.500003189087,8|0,0:0|0:0,0:0:0:0:
436,252,48568,6,0,P|392:280|341:281,1,104.500003189087,2|0,0:0|0:0,0:0:0:0:
78,132,48916,2,0,P|121:103|172:102,1,104.500003189087,8|0,0:0|0:0,0:0:0:0:
359,164,49263,1,2,0:0:0:0:
423,372,49437,5,2,0:0:0:0:
496,127,49611,1,8,0:0:0:0:
245,203,49784,1,0,0:0:0:0:
479,315,49958,6,0,P|507:273|505:221,1,104.500003189087,2|0,0:0|0:0,0:0:0:0:
361,276,50306,1,8,0:0:0:0:
496,127,50479,6,0,P|453:98|401:100,1,104.500003189087,2|0,0:0|0:0,0:0:0:0:
190,151,50827,1,2,0:0:0:0:
361,276,51000,2,0,P|404:248|424:200,1,104.500003189087,8|0,0:0|0:0,0:0:0:0:
87,201,51348,6,0,P|107:248|151:276,1,104.500003189087,4|0,0:0|0:0,0:0:0:0:
321,130,51695,2,0,L|335:8,1,104.500003189087,8|0,0:0|0:0,0:0:0:0:
507,14,52043,1,8,0:0:0:0:
235,67,52216,1,0,0:0:0:0:
235,67,52303,1,2,0:0:0:0:
235,67,52390,1,2,0:0:0:0:
500,202,52564,1,2,0:0:0:0:
312,357,52738,6,0,L|302:254,1,104.500003189087,0|2,0:0|0:0,0:0:0:0:
442,106,53085,1,2,0:0:0:0:
148,31,53259,2,0,L|158:135,1,104.500003189087,2|0,0:0|0:0,0:0:0:0:
376,180,53606,1,2,0:0:0:0:
200,357,53780,2,0,L|210:252,1,104.500003189087,8|0,0:0|0:0,0:0:0:0:
477,194,54127,6,0,B|486:233|486:233|455:289,1,104.500003189087,2|0,0:0|0:0,0:0:0:0:
56,289,54475,2,0,B|25:233|25:233|35:194,1,104.500003189087,8|0,0:0|0:0,0:0:0:0:
147,19,54822,1,2,0:0:0:0:
373,56,54996,1,2,0:0:0:0:
218,198,55169,2,0,B|162:229|162:229|123:219,1,104.500003189087,8|2,0:0|0:0,0:0:0:0:
258,16,55517,6,0,P|296:49|301:100,1,104.500003189087
159,332,55864,1,2,0:0:0:0:
450,287,56038,2,0,B|526:216|526:216|451:142,1,209.000006378174,2|2,0:0|0:0,0:0:0:0:
302,101,56559,1,8,0:0:0:0:
210,283,56733,1,8,0:0:0:0:
425,214,56907,5,2,0:0:0:0:
256,38,57080,1,2,0:0:0:0:
94,215,57254,1,8,0:0:0:0:
256,346,57428,1,2,0:0:0:0:
351,175,57601,2,0,L|405:63,1,104.500003189087,2|0,0:0|0:0,0:0:0:0:
161,175,57949,2,0,L|107:63,1,104.500003189087,8|0,0:0|0:0,0:0:0:0:
385,300,58296,6,0,L|431:207,1,104.500003189087,2|0,0:0|0:0,0:0:0:0:
127,300,58644,2,0,L|79:204,1,104.500003189087,8|2,0:0|0:0,0:0:0:0:
256,19,58991,2,0,L|256:128,1,104.500003189087
256,123,59252,1,0,0:0:0:0:
256,123,59339,2,0,L|256:218,1,95,8|0,0:0|0:0,0:0:0:0:
78,351,59686,6,0,L|36:265,1,95,2|0,0:0|0:0,0:0:0:0:
434,351,60033,2,0,L|476:265,1,95,8|0,0:0|0:0,0:0:0:0:
256,218,60381,1,2,0:0:0:0:
468,144,60555,5,2,0:0:0:0:
297,318,60728,1,8,0:0:0:0:
154,161,60902,1,2,0:0:0:0:
326,53,61076,6,0,P|372:55|413:79,1,95,2|0,0:0|0:0,0:0:0:0:
360,202,61423,1,8,0:0:0:0:
190,315,61597,6,0,L|201:220,1,95,2|0,0:0|0:0,0:0:0:0:
319,131,61944,1,2,0:0:0:0:
468,144,62118,2,0,B|494:102|494:102|491:57,1,95,8|0,0:0|0:0,0:0:0:0:
398,268,62465,6,0,B|372:310|372:310|375:355,1,95
376,356,62813,2,0,L|190:315,1,190,8|2,0:0|0:0,0:0:0:0:
16,140,63334,5,2,0:0:0:0:
191,316,63508,1,8,0:0:0:0:
14,374,63681,1,0,0:0:0:0:
98,167,63855,6,0,L|83:61,1,95,2|0,0:0|0:0,0:0:0:0:
261,280,64202,1,2,0:0:0:0:
176,134,64376,6,0,L|162:39,1,95,2|0,0:0|0:0,0:0:0:0:
331,242,64724,1,2,0:0:0:0:
255,110,64897,6,0,L|240:4,1,95,8|0,0:0|0:0,0:0:0:0:
243,180,65245,6,0,L|254:109,1,71.25,2|0,0:0|0:0,0:0:0:0:
386,29,65592,6,0,L|365:146,1,113.999996520996,14|0,0:0|0:0,0:0:0:0:
352,353,65940,1,2,0:0:0:0:
501,173,66113,1,2,0:0:0:0:
331,241,66287,6,0,L|318:286,1,47.5,2|0,0:0|0:0,0:0:0:0:
423,378,66461,2,0,L|435:332,1,47.5
267,363,66634,6,0,B|221:373|221:373|177:352,1,95
11,369,66982,1,8,0:0:0:0:
142,264,67156,2,0,L|330:240,1,190,2|2,0:0|0:0,0:0:0:0:
493,305,67677,1,8,0:0:0:0:
268,133,67850,1,0,0:0:0:0:
488,30,68024,6,0,L|475:124,1,95,2|0,0:0|0:0,0:0:0:0:
342,333,68372,2,0,L|329:239,1,95,8|0,0:0|0:0,0:0:0:0:
358,48,68719,1,2,0:0:0:0:
483,215,68893,1,2,0:0:0:0:
455,381,69066,6,0,L|409:372,1,47.5,2|0,0:0|0:0,0:0:0:0:
342,333,69240,2,0,L|296:324,1,47.5,2|0,0:0|0:0,0:0:0:0:
218,370,69414,6,0,P|200:326|214:281,1,95
395,180,69761,1,2,0:0:0:0:
187,201,69935,2,0,P|141:191|110:156,1,95,2|0,0:0|0:0,0:0:0:0:
258,77,70282,6,0,L|251:133,1,47.5,2|0,0:0|0:0,0:0:0:0:
111,157,70456,2,0,P|65:147|34:112,1,95,8|0,0:0|0:0,0:0:0:0:
287,12,70804,6,0,L|381:24,1,95,2|0,0:0|0:0,0:0:0:0:
489,192,71151,2,0,L|394:179,1,95,8|0,0:0|0:0,0:0:0:0:
171,296,71498,1,2,0:0:0:0:
341,296,71672,1,2,0:0:0:0:
113,241,71846,6,0,P|89:281|96:327,1,95,8|0,0:0|0:0,0:0:0:0:
256,370,72193,6,0,L|256:265,1,95,2|0,0:0|0:0,0:0:0:0:
256,14,72541,1,8,0:0:0:0:
403,131,72714,1,8,0:0:0:0:
403,131,72801,1,8,0:0:0:0:
403,131,72888,1,2,0:0:0:0:
109,131,73062,1,2,0:0:0:0:
318,240,73235,6,0,L|363:254,1,47.5,2|2,0:0|0:0,0:0:0:0:
194,240,73409,2,0,L|148:254,1,47.5,2|2,0:0|0:0,0:0:0:0:
37,232,73583,5,0,0:0:0:0:
109,61,73757,1,0,0:0:0:0:
256,175,73930,1,2,0:0:0:0:
403,61,74104,1,0,0:0:0:0:
475,232,74278,5,8,0:0:0:0:
188,329,74451,1,0,0:0:0:0:
256,62,74625,1,8,0:0:0:0:
329,330,74799,1,2,0:0:0:0:
170,78,74973,5,2,0:0:0:0:
369,229,75146,1,2,0:0:0:0:
118,291,75320,1,8,0:0:0:0:
342,78,75494,1,0,0:0:0:0:
256,322,75667,5,8,0:0:0:0:
188,165,75841,1,0,0:0:0:0:
342,78,76015,2,0,B|351:105|351:105|324:166,1,95,8|0,0:0|0:0,0:0:0:0:
79,39,76362,5,8,0:0:0:0:
369,223,76536,1,8,0:0:0:0:
143,223,76710,1,8,0:0:0:0:
433,39,76883,1,8,0:0:0:0:
256,355,77057,1,8,0:0:0:0:
256,124,77231,2,0,L|256:29,1,95,8|0,0:0|0:0,0:0:0:0:
256,278,77578,1,4,0:0:0:0:
256,278,77926,5,8,0:0:0:0:
374,80,78099,1,8,0:0:0:0:
138,304,78273,1,8,0:0:0:0:
138,80,78447,1,8,0:0:0:0:
374,304,78621,1,8,0:0:0:0:
397,8,78794,5,4,0:0:0:0:
169,150,78968,2,0,B|255:370|255:370|348:149,1,475,4|0,0:0|0:0,0:0:0:0:
