osu file format v14

[General]
AudioFilename: audio.mp3
AudioLeadIn: 1000
PreviewTime: 42923
Countdown: 0
SampleSet: Soft
StackLeniency: 0.7
Mode: 0
LetterboxInBreaks: 0
WidescreenStoryboard: 0

[Editor]
Bookmarks: 17942
DistanceSpacing: 0.5
BeatDivisor: 4
GridSize: 32
TimelineZoom: 1.4

[Metadata]
Title:STAND UP TO THE VICTORY (TV Size)
TitleUnicode:STAND UP TO THE VICTORY (TV Size)
Artist:Kawazoe Tomohisa
ArtistUnicode:川添智久
Creator:smallboat
Version:Insane
Source:機動戦士Vガンダム
Tags:opening japanese anime sunrise victory gundam robot fight mobile suit light wing dash hexa buster assault lindberg bass composer vocalist producer
BeatmapID:2730873
BeatmapSetID:1317757

[Difficulty]
HPDrainRate:6
CircleSize:4.2
OverallDifficulty:8
ApproachRate:9
SliderMultiplier:1.7
SliderTickRate:1

[Events]
//Background and Video events
0,0,"BG4.jpg",0,0
Video,1150,"video.flv"
//Break Periods
//Storyboard Layer 0 (Background)
//Storyboard Layer 1 (Fail)
//Storyboard Layer 2 (Pass)
//Storyboard Layer 3 (Foreground)
//Storyboard Layer 4 (Overlay)
//Storyboard Sound Samples

[TimingPoints]
1310,347.423277359583,4,2,1,40,1,0
1657,-100,4,2,2,50,0,0
2004,-100,4,2,1,40,0,0
2525,-100,4,2,2,55,0,0
3394,-100,4,2,1,40,0,0
3568,-100,4,2,2,55,0,0
3741,-100,4,2,1,40,0,0
4957,-100,4,2,2,55,0,0
5131,-100,4,2,1,40,0,0
5305,-100,4,2,2,40,0,0
5479,-100,4,2,1,40,0,0
6173,-100,4,2,2,55,0,0
6521,-100,4,2,2,55,0,0
6781,-100,4,2,1,5,0,0
6888,348.027842227378,4,2,1,40,1,0
6888,-100,4,2,1,40,0,0
7236,-100,4,2,2,70,0,0
8106,-100,4,2,2,60,0,0
8280,-100,4,2,1,50,0,0
8802,-100,4,2,2,60,0,0
8976,-100,4,2,1,60,0,0
9150,-100,4,2,2,70,0,0
9324,-100,4,2,1,60,0,0
9498,-100,4,2,2,70,0,0
9672,-100,4,2,2,65,0,0
11064,-100,4,2,2,65,0,0
12456,-100,4,2,2,35,0,0
12630,-100,4,2,2,55,0,0
13674,-100,4,2,2,65,0,0
14892,-100,4,2,2,60,0,0
15936,-100,4,2,1,65,0,0
16110,-100,4,2,2,70,0,0
16284,-100,4,2,1,60,0,0
16458,-100,4,2,2,70,0,0
17502,-100,4,2,2,65,0,0
17850,-100,4,2,2,60,0,0
18025,347.021399652979,4,2,2,55,1,0
18025,-100,4,2,2,55,0,0
19413,-100,4,2,2,60,0,0
19586,-100,4,2,1,60,0,0
20107,-100,4,2,1,60,0,0
20627,-100,4,2,2,70,0,0
20801,-100,4,2,2,60,0,0
22883,-100,4,2,2,70,0,0
23577,-100,4,2,2,65,0,0
24965,-100,4,2,2,60,0,0
25659,-100,4,2,1,50,0,0
26006,-100,4,2,2,45,0,0
26353,-100,4,2,2,65,0,0
27741,-100,4,2,1,50,0,0
28435,-100,4,2,3,55,0,0
29129,-100,4,1,1,25,0,0
29303,-100,4,2,2,60,0,0
31905,-100,4,1,1,25,0,0
32252,-100,4,1,1,50,0,0
32426,-100,4,2,2,60,0,0
34672,347.423277359583,4,1,1,25,1,0
34672,-100,4,1,1,25,0,0
35019,-100,4,2,2,60,0,0
36409,-100,4,2,1,35,0,0
36582,-100,4,2,2,60,0,0
37451,-100,4,2,2,40,0,0
37798,-100,4,2,2,55,0,0
39883,-100,4,2,1,40,0,0
40057,-100,4,2,2,60,0,0
40230,-100,4,2,2,70,0,0
41620,-100,4,2,1,55,0,0
43010,-90.9090909090909,4,2,2,40,0,1
43357,-90.9090909090909,4,2,2,70,0,1
45442,-90.9090909090909,4,2,1,60,0,1
45789,-90.9090909090909,4,2,2,70,0,1
49958,-90.9090909090909,4,2,2,60,0,1
51348,-90.9090909090909,4,2,2,30,0,1
51522,-90.9090909090909,4,2,2,60,0,1
52043,-90.9090909090909,4,3,1,50,0,1
52216,-90.9090909090909,4,2,1,65,0,1
53259,-90.9090909090909,4,2,2,60,0,1
54127,-90.9090909090909,4,2,2,65,0,1
55517,-90.9090909090909,4,2,1,60,0,1
56038,-90.9090909090909,4,2,2,60,0,1
56559,-90.9090909090909,4,2,1,60,0,1
56907,-90.9090909090909,4,2,2,70,0,1
59165,-100,4,2,1,5,0,0
59252,-100,4,2,1,60,0,0
59686,-100,4,2,2,65,0,0
62465,-100,4,2,2,60,0,0
64202,-100,4,2,1,60,0,0
64376,-100,4,2,2,60,0,0
65245,-100,4,2,2,60,0,0
65592,-100,4,2,1,30,0,0
65940,-100,4,2,2,60,0,0
66287,-100,4,2,1,60,0,0
66374,-100,4,2,1,20,0,0
66461,-100,4,2,1,60,0,0
66548,-100,4,2,1,20,0,0
66634,-100,4,2,2,60,0,0
69066,-100,4,2,1,60,0,0
69153,-100,4,2,1,20,0,0
69240,-100,4,2,2,60,0,0
69327,-100,4,2,1,20,0,0
69414,-100,4,2,1,60,0,0
69935,-100,4,2,2,65,0,0
70804,-100,4,2,2,60,0,0
72888,-100,4,2,1,60,0,0
74278,-100,4,2,2,60,0,0
74973,-100,4,2,1,60,0,0
75146,-100,4,2,2,60,0,0
76362,-100,4,2,2,75,0,0
77405,-100,4,2,1,20,0,0
77578,-100,4,2,1,30,0,0
77926,-100,4,2,2,65,0,0
78794,-100,4,2,2,30,0,0
78968,-100,4,2,1,30,0,0
79315,-100,4,2,1,20,0,0
79837,-100,4,2,1,5,0,0

[Colours]
Combo1 : 159,80,0
Combo2 : 0,118,174
Combo3 : 187,0,0
Combo4 : 26,181,255
Combo5 : 255,192,0

[HitObjects]
440,299,1310,6,0,L|356:282,1,85
356,101,1657,2,0,L|440:85,1,85,8|0,0:0|0:0,0:0:0:0:
487,193,2004,1,10,0:0:0:0:
487,193,2352,1,8,0:0:0:0:
355,193,2525,1,2,0:0:0:0:
156,101,2699,6,0,L|67:84,1,85
72,298,3047,2,0,L|156:283,1,85,8|0,0:0|0:0,0:0:0:0:
157,193,3394,1,10,0:0:0:0:
25,193,3568,1,2,0:0:0:0:
172,366,3741,1,10,0:0:0:0:
172,366,4089,6,0,L|156:283,1,85
356,283,4436,2,0,L|339:366,1,85,8|0,0:0|0:0,0:0:0:0:
256,199,4784,1,2,0:0:0:0:
215,58,4957,1,2,0:0:0:0:
339,17,5131,2,0,L|356:101,1,85,8|2,0:0|0:0,0:0:0:0:
126,173,5479,6,0,L|43:152,1,85
49,19,5826,2,0,L|132:40,1,85,8|0,0:0|0:0,0:0:0:0:
146,90,6087,5,8,0:0:0:0:
146,90,6173,2,0,L|125:173,1,85,8|8,0:0|0:0,0:0:0:0:
16,364,6521,1,8,0:0:0:0:
16,364,6888,6,0,L|2:280,1,85,4|0,0:0|0:0,0:0:0:0:
192,250,7236,2,0,L|205:333,1,85,8|0,0:0|0:0,0:0:0:0:
106,320,7584,2,0,L|92:235,1,85,8|0,0:0|0:0,0:0:0:0:
282,206,7932,2,0,L|295:289,1,85,8|2,0:0|0:0,0:0:0:0:
390,244,8280,5,2,0:0:0:0:
482,274,8454,2,0,P|499:311|493:353,1,85,0|8,0:0|0:0,0:0:0:0:
359,156,8802,2,0,P|341:118|348:76,1,85,2|2,0:0|0:0,0:0:0:0:
445,0,9150,1,2,0:0:0:0:
379,226,9324,1,2,0:0:0:0:
267,91,9498,1,2,0:0:0:0:
460,22,9672,6,0,L|472:106,1,85,8|0,0:0|0:0,0:0:0:0:
392,311,10020,2,0,L|380:227,1,85,8|0,0:0|0:0,0:0:0:0:
437,43,10368,2,0,L|449:127,1,85,8|0,0:0|0:0,0:0:0:0:
369,332,10716,2,0,L|357:248,1,85,8|2,0:0|0:0,0:0:0:0:
235,152,11064,5,8,0:0:0:0:
191,32,11238,1,2,0:0:0:0:
157,204,11412,1,8,0:0:0:0:
302,192,11586,2,0,P|312:152|302:110,1,85,0|8,0:0|0:0,0:0:0:0:
181,41,11934,1,2,0:0:0:0:
82,164,12108,1,8,0:0:0:0:
234,227,12282,1,0,0:0:0:0:
91,79,12456,6,0,L|81:164,1,85,4|0,0:0|0:0,0:0:0:0:
100,306,12804,1,8,0:0:0:0:
19,224,12978,1,0,0:0:0:0:
157,197,13152,1,8,0:0:0:0:
215,302,13326,2,0,P|257:300|292:276,1,85,0|8,0:0|0:0,0:0:0:0:
276,373,13674,1,2,0:0:0:0:
368,326,13848,6,0,P|385:287|379:245,1,85,2|0,0:0|0:0,0:0:0:0:
493,284,14196,2,0,P|491:326|476:365,1,85,8|0,0:0|0:0,0:0:0:0:
285,362,14544,1,8,0:0:0:0:
380,246,14718,1,2,0:0:0:0:
443,70,14892,2,0,P|401:69|365:91,1,85,8|2,0:0|0:0,0:0:0:0:
444,214,15240,5,8,0:0:0:0:
335,304,15414,1,0,0:0:0:0:
211,155,15588,2,0,L|225:71,1,85,8|0,0:0|0:0,0:0:0:0:
211,229,15936,2,0,L|225:312,1,85,2|2,0:0|0:0,0:0:0:0:
113,382,16284,1,2,0:0:0:0:
3,317,16458,1,2,0:0:0:0:
14,139,16632,5,8,0:0:0:0:
14,139,16806,1,0,0:0:0:0:
124,73,16980,2,0,L|139:157,1,85,8|0,0:0|0:0,0:0:0:0:
195,312,17328,2,0,L|210:229,1,85,8|2,0:0|0:0,0:0:0:0:
63,245,17676,1,8,0:0:0:0:
134,376,17850,1,2,0:0:0:0:
298,334,18025,6,0,L|317:251,1,85,12|0,0:0|0:0,0:0:0:0:
401,242,18372,2,0,L|381:324,1,85,8|0,0:0|0:0,0:0:0:0:
317,132,18719,2,0,L|298:50,1,85,8|0,0:0|0:0,0:0:0:0:
381,59,19066,2,0,L|401:142,1,85,8|0,0:0|0:0,0:0:0:0:
497,217,19413,5,2,0:0:0:0:
507,8,19586,1,0,0:0:0:0:
317,132,19760,1,2,0:0:0:0:
484,145,19933,2,0,L|462:53,1,85,0|2,0:0|0:0,0:0:0:0:
350,208,20280,1,0,0:0:0:0:
508,289,20454,1,2,0:0:0:0:
400,141,20627,1,2,0:0:0:0:
425,310,20801,6,0,L|507:288,1,85,2|0,0:0|0:0,0:0:0:0:
289,353,21148,2,0,L|206:331,1,85,8|0,0:0|0:0,0:0:0:0:
40,348,21495,1,8,0:0:0:0:
109,188,21668,1,0,0:0:0:0:
139,371,21842,1,8,0:0:0:0:
12,248,22015,1,0,0:0:0:0:
206,258,22189,6,0,L|288:279,1,85,2|0,0:0|0:0,0:0:0:0:
433,198,22536,1,8,0:0:0:0:
267,164,22709,2,0,L|185:185,1,85,0|8,0:0|0:0,0:0:0:0:
49,214,23056,1,2,0:0:0:0:
100,311,23230,1,8,0:0:0:0:
205,332,23403,1,2,0:0:0:0:
371,246,23577,5,2,0:0:0:0:
371,246,23924,2,0,L|353:162,1,85,8|0,0:0|0:0,0:0:0:0:
272,137,24271,1,8,0:0:0:0:
438,188,24444,2,0,P|476:166|497:115,1,85,0|8,0:0|0:0,0:0:0:0:
508,26,24791,1,2,0:0:0:0:
370,79,24965,6,0,L|353:163,1,85,2|0,0:0|0:0,0:0:0:0:
159,163,25312,2,0,L|142:79,1,85,8|0,0:0|0:0,0:0:0:0:
17,131,25659,1,2,0:0:0:0:
16,130,26006,2,0,P|21:89|47:56,1,85,8|2,0:0|0:0,0:0:0:0:
159,163,26353,6,0,P|126:189|84:193,1,85,2|0,0:0|0:0,0:0:0:0:
47,56,26700,1,8,0:0:0:0:
217,93,26874,1,0,0:0:0:0:
114,267,27047,2,0,P|71:271|34:252,1,85,8|2,0:0|0:0,0:0:0:0:
142,49,27394,1,8,0:0:0:0:
241,183,27568,1,2,0:0:0:0:
144,341,27741,6,0,P|117:308|113:266,1,85,8|2,0:0|0:0,0:0:0:0:
113,266,28001,1,2,0:0:0:0:
113,266,28088,1,2,0:0:0:0:
10,348,28262,1,2,0:0:0:0:
213,364,28435,5,2,0:0:0:0:
125,195,28609,1,2,0:0:0:0:
10,348,28782,2,0,B|34:378|34:378|80:372,1,85,2|0,0:0|0:0,0:0:0:0:
202,293,29129,5,14,0:0:0:0:
202,293,29476,2,0,B|244:295|244:295|278:320,1,85,8|2,0:0|0:0,0:0:0:0:
451,377,29823,1,0,0:0:0:0:
494,218,29997,1,0,0:0:0:0:
368,352,30170,1,8,0:0:0:0:
397,224,30344,1,0,0:0:0:0:
478,301,30517,6,0,L|495:209,1,85,2|0,0:0|0:0,0:0:0:0:
390,88,30864,1,8,0:0:0:0:
301,228,31038,2,0,P|218:210|158:152,1,170,2|0,0:0|0:0,0:0:0:0:
302,62,31558,2,0,L|313:146,1,85,8|0,0:0|0:0,0:0:0:0:
493,217,31905,6,0,L|499:132,1,85,14|0,0:0|0:0,0:0:0:0:
369,7,32252,1,8,0:0:0:0:
313,146,32426,1,2,0:0:0:0:
222,29,32599,1,0,0:0:0:0:
378,86,32773,1,0,0:0:0:0:
222,29,32946,2,0,L|137:18,1,85,8|0,0:0|0:0,0:0:0:0:
0,113,33293,5,2,0:0:0:0:
96,152,33467,2,0,P|135:135|155:98,1,85,0|8,0:0|0:0,0:0:0:0:
174,257,33814,2,0,B|138:266|138:266|14:217,1,170,2|2,0:0|0:0,0:0:0:0:
155,98,34335,2,0,L|147:182,1,85,8|2,0:0|0:0,0:0:0:0:
131,343,34672,5,14,0:0:0:0:
131,343,35019,2,0,B|173:332|173:332|214:338,1,85,8|2,0:0|0:0,0:0:0:0:
347,293,35366,1,0,0:0:0:0:
344,198,35540,1,0,0:0:0:0:
174,257,35714,1,8,0:0:0:0:
252,159,35887,1,0,0:0:0:0:
359,296,36061,6,0,P|402:290|439:272,1,85,2|0,0:0|0:0,0:0:0:0:
292,351,36409,1,8,0:0:0:0:
440,273,36582,2,0,B|471:230|471:230|457:113,1,170,2|0,0:0|0:0,0:0:0:0:
340,12,37103,2,0,L|348:97,1,85,8|0,0:0|0:0,0:0:0:0:
262,264,37451,6,0,L|270:179,1,85,4|0,0:0|0:0,0:0:0:0:
365,261,37798,1,8,0:0:0:0:
292,351,37972,2,0,P|248:358|207:343,1,85,2|0,0:0|0:0,0:0:0:0:
50,355,38319,1,2,0:0:0:0:
173,253,38493,1,8,0:0:0:0:
10,196,38667,1,2,0:0:0:0:
129,318,38841,6,0,P|162:292|172:252,1,85,2|0,0:0|0:0,0:0:0:0:
189,116,39188,1,8,0:0:0:0:
80,133,39362,2,0,P|40:122|15:89,1,85,2|0,0:0|0:0,0:0:0:0:
128,15,39709,1,2,0:0:0:0:
146,183,39883,1,8,0:0:0:0:
256,59,40057,1,2,0:0:0:0:
378,189,40230,6,0,P|460:180|508:114,1,170,0|8,0:0|0:0,0:0:0:0:
256,140,40751,1,0,0:0:0:0:
134,189,40925,2,0,P|51:181|2:114,1,170,8|8,0:0|0:0,0:0:0:0:
183,102,41446,1,0,0:0:0:0:
328,102,41620,6,0,P|347:64|343:22,1,85,2|0,0:0|0:0,0:0:0:0:
169,22,41967,1,2,0:0:0:0:
256,150,42141,1,2,0:0:0:0:
184,282,42315,2,0,P|165:320|169:362,1,85,2|2,0:0|0:0,0:0:0:0:
303,336,42662,1,2,0:0:0:0:
323,329,42749,1,2,0:0:0:0:
343,324,42836,1,2,0:0:0:0:
447,248,43010,6,0,L|465:156,1,93.5000028533936,4|0,0:0|0:0,0:0:0:0:
317,237,43357,2,0,L|225:218,1,93.5000028533936,8|0,0:0|0:0,0:0:0:0:
192,129,43705,1,2,0:0:0:0:
253,312,43878,1,2,0:0:0:0:
373,174,44052,2,0,L|464:155,1,93.5000028533936,8|0,0:0|0:0,0:0:0:0:
302,161,44399,6,0,L|290:68,1,93.5000028533936,2|0,0:0|0:0,0:0:0:0:
190,2,44747,1,8,0:0:0:0:
290,68,44920,2,0,B|376:102|376:102|391:9,1,187.000005706787,2|2,0:0|0:0,0:0:0:0:
264,0,45442,1,8,0:0:0:0:
251,191,45615,1,8,0:0:0:0:
97,107,45789,6,0,P|92:60|110:18,1,93.5000028533936,2|2,0:0|0:0,0:0:0:0:
154,192,46136,1,8,0:0:0:0:
154,192,46310,1,2,0:0:0:0:
97,276,46484,2,0,P|92:323|110:365,1,93.5000028533936,2|0,0:0|0:0,0:0:0:0:
264,280,46831,2,0,P|269:233|251:191,1,93.5000028533936,8|0,0:0|0:0,0:0:0:0:
22,138,47179,6,0,L|35:230,1,93.5000028533936,2|0,0:0|0:0,0:0:0:0:
293,268,47526,2,0,L|385:254,1,93.5000028533936,8|2,0:0|0:0,0:0:0:0:
200,348,47874,1,2,0:0:0:0:
146,212,48047,1,2,0:0:0:0:
316,254,48221,2,0,L|408:240,1,93.5000028533936,8|0,0:0|0:0,0:0:0:0:
474,93,48568,6,0,P|484:48|465:6,1,93.5000028533936,2|0,0:0|0:0,0:0:0:0:
318,60,48916,2,0,P|273:70|231:51,1,93.5000028533936,8|0,0:0|0:0,0:0:0:0:
93,14,49263,1,2,0:0:0:0:
93,14,49437,1,2,0:0:0:0:
106,145,49611,2,0,B|104:192|104:192|131:229,1,93.5000028533936,8|0,0:0|0:0,0:0:0:0:
364,226,49958,6,0,B|391:189|391:189|389:141,1,93.5000028533936,2|0,0:0|0:0,0:0:0:0:
256,269,50306,1,8,0:0:0:0:
442,250,50479,2,0,B|469:213|469:213|467:165,1,93.5000028533936,2|0,0:0|0:0,0:0:0:0:
454,28,50827,1,2,0:0:0:0:
297,29,51000,2,0,B|295:77|295:77|322:114,1,93.5000028533936,8|0,0:0|0:0,0:0:0:0:
190,114,51348,6,0,B|217:77|217:77|215:29,1,93.5000028533936,4|0,0:0|0:0,0:0:0:0:
58,28,51695,2,0,B|95:55|95:55|143:53,1,93.5000028533936,8|0,0:0|0:0,0:0:0:0:
256,159,52043,1,8,0:0:0:0:
302,282,52216,1,0,0:0:0:0:
302,282,52303,1,2,0:0:0:0:
302,282,52390,2,0,L|394:266,1,93.5000028533936,2|2,0:0|0:0,0:0:0:0:
297,372,52738,6,0,P|289:326|303:282,1,93.5000028533936,0|2,0:0|0:0,0:0:0:0:
400,125,53085,1,2,0:0:0:0:
247,155,53259,2,0,P|201:162|157:148,1,93.5000028533936,2|0,0:0|0:0,0:0:0:0:
16,151,53606,1,2,0:0:0:0:
33,317,53780,1,8,0:0:0:0:
33,317,54127,6,0,L|22:224,1,93.5000028533936,2|0,0:0|0:0,0:0:0:0:
160,226,54475,2,0,L|170:318,1,93.5000028533936,8|0,0:0|0:0,0:0:0:0:
157,148,54822,1,2,0:0:0:0:
160,6,54996,1,2,0:0:0:0:
6,59,55169,2,0,L|17:152,1,93.5000028533936,8|2,0:0|0:0,0:0:0:0:
256,109,55517,6,0,L|256:15,1,93.5000028533936
84,29,55864,1,2,0:0:0:0:
221,182,56038,2,0,B|298:231|298:231|331:143,1,187.000005706787,2|2,0:0|0:0,0:0:0:0:
379,12,56559,1,8,0:0:0:0:
507,153,56733,1,8,0:0:0:0:
367,265,56907,6,0,L|398:177,1,93.5000028533936,2|2,0:0|0:0,0:0:0:0:
378,343,57254,1,8,0:0:0:0:
254,300,57428,1,2,0:0:0:0:
378,343,57601,2,0,P|420:323|443:283,1,93.5000028533936,2|0,0:0|0:0,0:0:0:0:
133,343,57949,2,0,P|91:323|68:283,1,93.5000028533936,8|0,0:0|0:0,0:0:0:0:
240,208,58296,6,0,L|254:300,1,93.5000028533936,2|0,0:0|0:0,0:0:0:0:
68,283,58644,2,0,L|51:186,1,93.5000028533936,8|2,0:0|0:0,0:0:0:0:
141,82,58991,2,0,L|164:220,1,140.25000428009
240,208,59339,2,0,L|225:124,1,85,8|0,0:0|0:0,0:0:0:0:
376,355,59686,6,0,P|415:342|441:296,1,85,2|0,0:0|0:0,0:0:0:0:
324,91,60033,2,0,L|339:174,1,85,8|0,0:0|0:0,0:0:0:0:
371,282,60381,1,2,0:0:0:0:
446,168,60555,1,2,0:0:0:0:
269,237,60728,2,0,P|259:278|267:320,1,85,8|2,0:0|0:0,0:0:0:0:
460,156,61076,6,0,P|469:115|461:73,1,85,2|0,0:0|0:0,0:0:0:0:
356,23,61423,1,8,0:0:0:0:
240,139,61597,2,0,L|156:124,1,85,2|0,0:0|0:0,0:0:0:0:
36,243,61944,1,2,0:0:0:0:
154,361,62118,2,0,L|168:278,1,85,8|0,0:0|0:0,0:0:0:0:
254,55,62465,6,0,L|239:138,1,85
169,278,62813,2,0,B|211:310|211:310|321:270,1,170,8|2,0:0|0:0,0:0:0:0:
414,147,63334,1,2,0:0:0:0:
346,359,63508,1,8,0:0:0:0:
227,216,63681,1,0,0:0:0:0:
446,288,63855,6,0,P|470:253|478:212,1,85,2|0,0:0|0:0,0:0:0:0:
330,158,64202,1,2,0:0:0:0:
259,292,64376,2,0,P|235:257|227:216,1,85,2|0,0:0|0:0,0:0:0:0:
256,101,64724,1,2,0:0:0:0:
348,27,64897,1,8,0:0:0:0:
348,27,65245,6,0,P|390:30|429:15,1,85,2|0,0:0|0:0,0:0:0:0:
163,27,65592,1,14,0:0:0:0:
163,27,65940,2,0,P|120:29|81:14,1,85,2|2,0:0|0:0,0:0:0:0:
121,200,66287,1,2,0:0:0:0:
0,102,66461,1,0,0:0:0:0:
201,210,66634,6,0,L|211:126,1,85
67,146,66982,1,8,0:0:0:0:
140,313,67156,2,0,P|223:321|295:279,1,170,2|2,0:0|0:0,0:0:0:0:
431,241,67677,1,8,0:0:0:0:
415,364,67850,1,0,0:0:0:0:
354,219,68024,6,0,L|363:135,1,85,2|0,0:0|0:0,0:0:0:0:
502,18,68372,2,0,L|493:102,1,85,8|0,0:0|0:0,0:0:0:0:
290,33,68719,2,0,L|374:42,1,85,2|2,0:0|0:0,0:0:0:0:
482,193,69066,1,2,0:0:0:0:
378,291,69240,1,2,0:0:0:0:
231,318,69414,6,0,P|222:276|234:236,1,85
136,146,69761,1,2,0:0:0:0:
286,114,69935,2,0,P|297:73|289:32,1,85,2|0,0:0|0:0,0:0:0:0:
199,71,70282,1,2,0:0:0:0:
376,146,70456,1,8,0:0:0:0:
376,146,70804,6,0,L|409:224,1,85,2|0,0:0|0:0,0:0:0:0:
102,224,71151,2,0,L|136:146,1,85,8|0,0:0|0:0,0:0:0:0:
256,185,71498,1,2,0:0:0:0:
340,345,71672,1,2,0:0:0:0:
172,345,71846,1,8,0:0:0:0:
172,345,72193,6,0,P|130:350|90:336,1,85,2|0,0:0|0:0,0:0:0:0:
7,225,72541,1,8,0:0:0:0:
39,88,72714,1,8,0:0:0:0:
62,65,72801,1,8,0:0:0:0:
90,47,72888,2,0,P|130:33|172:39,1,85,2|2,0:0|0:0,0:0:0:0:
327,75,73235,2,0,L|385:64,3,42.5,2|2|2|2,0:0|0:0|0:0|0:0,0:0:0:0:
432,22,73583,5,0,0:0:0:0:
367,149,73757,1,0,0:0:0:0:
506,225,73930,1,2,0:0:0:0:
406,356,74104,1,0,0:0:0:0:
255,268,74278,2,0,L|255:183,1,85,8|0,0:0|0:0,0:0:0:0:
106,356,74625,1,8,0:0:0:0:
145,149,74799,1,2,0:0:0:0:
255,268,74973,6,0,L|255:353,1,85,2|2,0:0|0:0,0:0:0:0:
21,348,75320,1,8,0:0:0:0:
60,133,75494,1,0,0:0:0:0:
183,292,75667,1,8,0:0:0:0:
7,203,75841,1,0,0:0:0:0:
182,108,76015,2,0,L|169:195,1,85,8|0,0:0|0:0,0:0:0:0:
121,25,76362,5,8,0:0:0:0:
391,25,76536,1,8,0:0:0:0:
255,117,76710,2,0,L|255:32,1,85,8|8,0:0|0:0,0:0:0:0:
170,192,77057,1,8,0:0:0:0:
255,352,77231,2,0,L|255:267,1,85,8|0,0:0|0:0,0:0:0:0:
151,103,77578,1,4,0:0:0:0:
151,103,77926,5,8,0:0:0:0:
324,283,78099,1,8,0:0:0:0:
188,283,78273,1,8,0:0:0:0:
361,103,78447,1,8,0:0:0:0:
255,352,78621,1,8,0:0:0:0:
162,196,78794,5,4,0:0:0:0:
350,196,78968,1,4,0:0:0:0:
