osu file format v14

[General]
AudioFilename: audio.mp3
AudioLeadIn: 0
PreviewTime: 133
Countdown: 0
SampleSet: Soft
StackLeniency: 0.3
Mode: 0
LetterboxInBreaks: 0
WidescreenStoryboard: 0

[Editor]
DistanceSpacing: 1
BeatDivisor: 6
GridSize: 4
TimelineZoom: 1.8

[Metadata]
Title:Let's!
TitleUnicode:Let's!
Artist:Kawasaki Yasuhiro
ArtistUnicode:カワサキヤスヒロ
Creator:verychill
Version:Normal
Source:ホロのぐらふぃてぃ
Tags:acoustic instrumental swing anime outro ending ed idol vtuber virtual youtuber hololive holo no graffiti horogura hologra cover corp フリーBGM free bgm DOVA-SYNDROME lets! chai the tea
BeatmapID:2901509
BeatmapSetID:1407182

[Difficulty]
HPDrainRate:2.5
CircleSize:3
OverallDifficulty:4
ApproachRate:5
SliderMultiplier:1.1
SliderTickRate:0.5

[Events]
//Background and Video events
0,0,"bg.jpg",0,0
//Break Periods
//Storyboard Layer 0 (Background)
//Storyboard Layer 1 (Fail)
//Storyboard Layer 2 (Pass)
//Storyboard Layer 3 (Foreground)
//Storyboard Layer 4 (Overlay)
//Storyboard Sound Samples

[TimingPoints]
133,329.67032967033,4,2,0,50,1,0
133,-111.111111111111,4,2,0,50,0,0
10682,-111.111111111111,4,2,0,65,0,0
12001,-111.111111111111,4,2,0,85,0,1
14638,-111.111111111111,4,2,0,60,0,0
17275,-111.111111111111,4,2,0,75,0,0
35737,-111.111111111111,4,2,0,75,0,1
38374,-111.111111111111,4,2,0,75,0,0
59473,-111.111111111111,4,2,0,85,0,1
63319,-111.111111111111,4,2,0,60,0,0
64089,-111.111111111111,4,2,0,85,0,1
64638,-111.111111111111,4,2,0,60,0,0
64748,-111.111111111111,4,2,0,75,0,0
85847,-111.111111111111,4,2,0,50,0,0
90792,-111.111111111111,4,2,0,60,0,0
91451,-111.111111111111,4,2,0,65,0,0
91781,-111.111111111111,4,2,0,68,0,0
92111,-111.111111111111,4,2,0,69,0,0
92440,-111.111111111111,4,2,0,72,0,0
92770,-111.111111111111,4,2,0,75,0,0
93100,-111.111111111111,4,2,0,78,0,0
93429,-111.111111111111,4,2,0,81,0,0
93759,-111.111111111111,4,2,0,75,0,0
96396,-111.111111111111,4,2,0,85,0,1
99034,-111.111111111111,4,2,0,85,0,0
100352,-111.111111111111,4,2,0,60,0,0
101341,-111.111111111111,4,2,0,60,0,1
101451,-111.111111111111,4,2,0,30,0,0

[Colours]
Combo1 : 85,85,85
Combo2 : 240,137,81
Combo3 : 157,193,253
Combo4 : 204,113,188
Combo5 : 250,233,137
Combo6 : 133,214,133
Combo7 : 214,67,67
Combo8 : 200,200,200

[HitObjects]
386,357,133,6,0,P|336:363|287:359,1,98.9999969787599,2|2,0:0|0:2,0:0:0:0:
295,260,792,2,0,P|343:248|368:248,1,65.9999979858399,2|2,0:0|0:0,0:0:0:0:
450,285,1341,2,0,B|464:246|464:175|409:193|413:125|433:82,1,197.99999395752,2|2,0:0|0:0,0:0:0:0:
242,54,2770,5,2,0:0:0:0:
152,96,3100,1,2,0:0:0:0:
203,179,3429,2,0,P|204:228|193:264,1,65.9999979858399,2|2,0:0|0:0,0:0:0:0:
230,338,3979,2,0,B|193:353|150:355|128:296|84:299|41:317,1,197.99999395752,2|2,0:0|0:0,0:0:0:0:
8,124,5407,5,2,0:0:0:0:
70,47,5737,1,2,0:0:0:0:
132,124,6067,1,2,0:0:0:0:
132,124,6286,1,2,0:0:0:0:
213,67,6616,2,0,P|294:63|450:79,1,230.99999295044,2|2,0:0|0:0,0:0:0:0:
447,276,8045,6,0,P|473:317|512:347,2,98.9999969787599,2|2|2,0:0|0:0|0:0,0:0:0:0:
410,222,8924,1,2,0:0:0:0:
315,242,9253,1,2,0:0:0:0:
256,192,9363,12,0,11341,1:0:0:0:
35,111,12001,21,4,3:1:0:0:
118,56,12330,1,6,1:2:0:0:
172,138,12660,2,0,P|221:138|270:142,1,98.9999969787599,2|6,3:2|1:2,0:0:0:0:
302,200,13209,6,0,B|310:297|310:297|343:306,1,131.99999597168,2|12,3:2|0:2,0:0:0:0:
442,315,13979,1,2,3:2:0:0:
471,220,14308,2,0,P|458:173|419:144,1,98.9999969787599,4|4,3:3|3:3,0:3:0:0:
356,134,16286,102,0,P|405:147|441:137,1,65.9999979858399,0|4,1:2|0:3,0:0:0:0:
512,52,16946,1,8,0:3:0:0:
422,11,17275,38,0,P|342:13|298:17,1,98.9999969787599,6|0,3:2|1:2,0:0:0:0:
240,69,17935,1,2,3:2:0:0:
153,34,18264,1,2,1:2:0:0:
152,34,18484,2,0,P|105:78|101:142,1,131.99999597168,2|2,3:2|1:3,0:0:0:0:
135,236,19253,1,2,3:2:0:0:
232,208,19583,1,2,1:2:0:0:
326,238,19913,6,0,P|322:300|345:374,1,98.9999969787599,2|0,3:2|1:2,0:0:0:0:
428,332,20572,2,0,P|432:270|409:196,1,98.9999969787599,2|2,3:2|1:2,0:0:0:0:
375,154,21231,1,2,3:2:0:0:
375,154,21451,2,0,P|361:103|378:41,2,98.9999969787599,2|2|2,0:0|0:0|3:2,0:0:0:0:
244,178,22550,6,0,P|197:165|148:167,1,98.9999969787599,2|0,3:2|1:2,0:0:0:0:
70,228,23209,2,0,P|50:168|74:99,1,98.9999969787599,2|0,3:2|1:2,0:0:0:0:
87,76,23758,2,0,P|127:41|225:62,1,131.99999597168,2|2,3:2|1:3,0:0:0:0:
285,100,24528,2,0,P|332:122|404:91,1,98.9999969787599,2|2,3:2|1:2,0:0:0:0:
460,61,25187,5,2,3:2:0:0:
489,155,25517,1,2,1:2:0:0:
427,232,25847,1,2,3:2:0:0:
332,231,26176,1,2,1:2:0:0:
332,231,26396,2,0,P|266:218|186:216,1,131.99999597168,2|2,3:2|1:2,0:0:0:0:
102,215,27165,1,2,3:3:0:0:
90,373,27825,6,0,P|170:371|214:367,1,98.9999969787599,6|0,3:2|1:2,0:0:0:0:
281,332,28485,2,0,P|340:352|409:328,1,98.9999969787599,2|2,3:2|1:2,0:0:0:0:
433,314,29034,2,0,P|467:274|447:176,1,131.99999597168,2|2,3:2|1:3,0:0:0:0:
377,148,29803,1,2,3:2:0:0:
280,176,30133,1,2,1:2:0:0:
186,146,30463,70,0,P|197:87|143:37,1,98.9999969787599,2|0,3:2|1:2,0:0:0:0:
83,28,31122,1,2,3:2:0:0:
23,106,31451,1,2,1:2:0:0:
64,201,31781,1,2,3:2:0:0:
64,201,32001,2,0,P|78:247|67:295,2,98.9999969787599,2|2|2,0:0|0:0|3:2,0:0:0:0:
186,146,33100,6,0,P|234:155|281:142,1,98.9999969787599,2|0,3:2|1:2,0:0:0:0:
334,59,33759,1,2,3:2:0:0:
334,59,33979,1,2,0:0:0:0:
418,111,34308,2,0,P|452:151|432:249,1,131.99999597168,2|2,3:2|1:3,0:0:0:0:
399,313,35078,2,0,P|357:287|308:290,1,98.9999969787599,2|2,3:2|1:2,0:0:0:0:
215,323,35737,5,8,3:3:0:0:
135,263,36067,1,14,0:2:0:0:
198,187,36396,1,8,3:3:0:0:
198,187,36616,2,0,P|190:110|190:70,1,98.9999969787599,8|4,3:3|1:1,0:0:0:0:
300,16,37385,21,2,1:2:0:0:
383,69,37715,1,2,1:2:0:0:
334,155,38045,1,2,1:2:0:0:
424,195,38374,38,0,P|432:244|429:294,1,98.9999969787599,6|2,3:2|1:2,0:0:0:0:
352,357,39034,1,2,3:2:0:0:
352,357,39253,1,2,3:2:0:0:
281,286,39583,2,0,P|188:280|140:289,1,131.99999597168,2|0,3:2|1:0,0:0:0:0:
52,302,40352,5,2,3:2:0:0:
3,215,40682,1,2,1:2:0:0:
85,159,41011,2,0,P|92:110|89:60,1,98.9999969787599,2|0,3:2|1:2,0:0:0:0:
188,65,41671,2,0,P|180:113|184:142,1,65.9999979858399,8|2,3:3|3:2,0:0:0:0:
214,223,42220,2,0,P|280:228|346:223,1,131.99999597168,2|2,3:2|1:2,0:0:0:0:
442,201,42990,1,4,3:3:0:0:
467,105,43319,1,2,1:2:0:0:
418,19,43649,6,0,P|344:13|295:17,1,98.9999969787599,2|0,3:2|1:2,0:0:0:0:
234,64,44308,2,0,P|184:66|135:59,1,98.9999969787599,2|2,3:2|1:2,0:0:0:0:
83,100,44858,2,0,P|89:173|85:243,1,131.99999597168,2|2,3:2|1:3,0:0:0:0:
119,325,45627,1,2,3:2:0:0:
216,342,45957,1,2,1:2:0:0:
287,273,46286,6,0,P|292:224|252:182,1,98.9999969787599,2|2,3:2|1:2,0:0:0:0:
200,167,46836,1,2,0:0:0:0:
154,79,47165,1,2,3:2:0:0:
219,3,47495,2,0,P|287:2|371:18,1,131.99999597168,2|0,3:2|1:2,0:0:0:0:
443,51,48264,1,2,3:2:0:0:
393,136,48594,1,2,1:2:0:0:
475,190,48924,6,0,P|501:247|481:301,1,98.9999969787599,6|2,3:2|1:2,0:0:0:0:
432,357,49583,2,0,P|382:354|333:356,1,98.9999969787599,2|0,3:2|1:2,0:0:0:0:
266,348,50133,2,0,P|242:290|279:239,1,131.99999597168,2|2,3:2|1:3,0:0:0:0:
203,175,50902,1,2,3:2:0:0:
127,238,51231,1,2,1:2:0:0:
37,194,51561,70,0,P|10:136|30:82,1,98.9999969787599,2|0,3:2|1:2,0:0:0:0:
80,27,52220,2,0,P|129:29|178:27,1,98.9999969787599,8|2,3:3|1:2,0:0:0:0:
245,28,52770,2,0,P|303:52|356:18,1,131.99999597168,2|2,3:2|1:2,0:0:0:0:
453,40,53539,6,0,P|438:103|437:155,1,98.9999969787599,4|2,3:3|1:2,0:0:0:0:
390,224,54198,2,0,P|342:179|289:167,1,98.9999969787599,2|0,3:2|1:2,0:0:0:0:
245,159,54748,2,0,P|177:173|128:218,1,131.99999597168,2|2,0:0|1:2,0:0:0:0:
78,297,55517,1,2,0:0:0:0:
299,263,56176,5,2,3:2:0:0:
390,224,56506,1,2,1:2:0:0:
442,310,56836,2,0,P|391:350|336:357,1,98.9999969787599,2|0,3:2|1:2,0:0:0:0:
291,365,57386,2,0,B|226:335|231:374|145:327,1,131.99999597168,2|2,0:0|1:2,0:0:0:0:
89,271,58154,2,0,B|74:226|25:197|25:197|77:170|102:114,1,197.99999395752,2|2,0:0|3:2,0:0:0:0:
294,31,59473,21,14,3:2:0:0:
217,93,59803,1,14,0:2:0:0:
294,155,60133,1,14,0:2:0:0:
217,217,60462,1,14,0:2:0:0:
293,278,60792,2,0,P|339:303|393:299,1,98.9999969787599,4|8,1:3|1:3,0:0:0:0:
467,247,61451,2,0,P|485:199|479:149,1,98.9999969787599,2|4,1:2|0:3,0:0:0:0:
423,70,62111,5,4,3:2:0:0:
349,135,62440,2,0,P|305:118|247:115,1,98.9999969787599,2|4,1:3|3:3,0:0:0:0:
158,128,63100,1,4,3:3:0:0:
158,128,63319,1,6,1:2:0:0:
287,290,64089,102,0,L|221:295,1,65.9999979858399,2|2,1:1|1:1,0:0:0:0:
100,349,64748,38,0,P|86:301|95:250,1,98.9999969787599,6|0,3:2|1:2,0:0:0:0:
145,169,65407,1,2,3:2:0:0:
114,80,65737,1,2,1:2:0:0:
114,80,65957,2,0,B|292:92|169:43|348:59,1,230.99999295044,2|2,3:2|3:2,0:0:0:0:
425,114,67056,1,2,1:2:0:0:
390,209,67385,6,0,B|383:255|423:294|468:251|511:317|499:351,2,197.99999395752,2|2|2,3:2|3:2|3:2,0:0:0:0:
304,159,69034,1,2,1:2:0:0:
266,250,69363,1,2,3:2:0:0:
266,250,69583,1,2,0:3:0:0:
194,318,69913,6,0,P|132:336|76:304,1,131.99999597168,2|2,0:3|1:2,0:0:0:0:
26,218,70682,1,2,3:2:0:0:
98,150,71012,1,2,1:2:0:0:
98,150,71231,2,0,P|159:132|215:164,1,131.99999597168,2|2,3:2|1:2,0:0:0:0:
266,250,72000,1,2,3:2:0:0:
364,260,72330,1,2,1:2:0:0:
433,189,72660,6,0,P|452:123|364:42,1,197.99999395752,2|2,3:2|3:2,0:0:0:0:
268,52,73649,1,2,1:2:0:0:
268,52,73869,2,0,P|176:55|124:50,1,131.99999597168,2|6,0:0|1:2,0:0:0:0:
42,41,74638,1,4,1:3:0:0:
42,41,74858,1,2,1:2:0:0:
5,167,75297,6,0,P|101:143|209:192,1,197.99999395752,6|2,3:2|3:2,0:0:0:0:
244,215,76176,1,2,0:0:0:0:
240,314,76506,2,0,P|189:354|124:356,1,131.99999597168,2|2,3:2|1:3,0:0:0:0:
27,333,77275,1,2,3:2:0:0:
2,237,77605,1,2,1:2:0:0:
101,239,77935,70,0,B|107:191|70:139|43:171|21:115|23:67,1,197.99999395752,2|2,3:2|3:2,0:0:0:0:
104,9,78924,1,2,1:2:0:0:
148,103,79253,1,2,3:2:0:0:
148,103,79473,1,2,0:2:0:0:
233,53,79803,2,0,P|314:57|380:42,1,131.99999597168,2|2,0:2|1:3,0:0:0:0:
459,22,80572,5,2,3:2:0:0:
500,111,80902,1,2,1:2:0:0:
413,153,81231,1,2,3:2:0:0:
413,153,81451,1,2,0:0:0:0:
489,259,81891,2,0,P|453:283|430:346,1,98.9999969787599,2|0,3:2|1:2,0:0:0:0:
369,357,82440,2,0,P|319:320|229:306,1,131.99999597168,2|2,3:2|1:2,0:0:0:0:
152,308,83209,5,2,3:2:0:0:
256,192,83319,12,4,85187,1:3:0:0:
126,27,85847,70,0,P|176:21|225:25,1,98.9999969787599,6|2,0:0|0:2,0:0:0:0:
217,124,86506,2,0,P|168:135|143:135,1,65.9999979858399,2|2,0:0|0:0,0:0:0:0:
62,99,87056,2,0,B|48:138|48:209|103:191|99:259|79:302,1,197.99999395752,2|0,0:0|0:0,0:0:0:0:
270,330,88484,5,2,0:0:0:0:
360,288,88814,1,2,0:0:0:0:
309,205,89143,2,0,P|307:155|318:119,1,65.9999979858399,2|2,0:0|0:0,0:0:0:0:
282,46,89693,2,0,B|371:33|344:81|435:53,1,131.99999597168,2|10,0:0|1:2,0:0:0:0:
509,64,90462,2,0,L|494:184,1,98.9999969787599,0|8,1:2|3:3,0:0:0:0:
504,260,91122,5,2,3:2:0:0:
442,337,91452,1,10,1:2:0:0:
380,260,91782,1,2,1:2:0:0:
380,260,92001,1,2,3:2:0:0:
299,317,92331,2,0,P|230:329|148:316,1,131.99999597168,2|2,1:2|1:2,0:0:0:0:
76,286,93100,1,2,1:2:0:0:
26,200,93429,1,10,3:2:0:0:
65,108,93759,6,0,P|38:66|0:36,2,98.9999969787599,6|10|2,3:2|1:2|3:2,0:0:0:0:
102,162,94638,1,2,3:2:0:0:
197,142,94968,2,0,P|257:165|321:151,1,131.99999597168,6|10,3:2|1:2,0:0:0:0:
416,120,95737,2,0,P|482:153|494:202,1,98.9999969787599,10|10,1:2|1:2,0:0:0:0:
477,273,96396,21,4,3:1:0:0:
394,328,96725,1,6,1:2:0:0:
340,246,97056,2,0,P|290:245|241:241,1,98.9999969787599,2|6,3:2|1:2,0:0:0:0:
210,184,97605,6,0,B|202:87|202:87|168:77,1,131.99999597168,2|12,3:2|0:2,0:0:0:0:
70,60,98375,1,2,3:2:0:0:
41,154,98704,1,4,3:3:0:0:
93,238,99034,1,4,3:3:0:0:
245,373,100352,102,0,B|182:376|146:342|146:342|146:318|153:303|165:287,1,164.9999949646,2|8,1:0|0:3,1:0:0:0:
256,192,101341,1,6,1:2:0:0:
