osu file format v14

[General]
AudioFilename: audio.mp3
AudioLeadIn: 0
PreviewTime: 133
Countdown: 0
SampleSet: Soft
StackLeniency: 0.3
Mode: 0
LetterboxInBreaks: 0
WidescreenStoryboard: 1

[Editor]
Bookmarks: 38374,85847
DistanceSpacing: 0.4
BeatDivisor: 6
GridSize: 4
TimelineZoom: 1.8

[Metadata]
Title:Let's!
TitleUnicode:Let's!
Artist:Kawasaki Yasuhiro
ArtistUnicode:カワサキヤスヒロ
Creator:verychill
Version:Hard
Source:ホロのぐらふぃてぃ
Tags:acoustic instrumental swing anime outro ending ed idol vtuber virtual youtuber hololive holo no graffiti horogura hologra cover corp フリーBGM free bgm DOVA-SYNDROME lets! chai the tea
BeatmapID:2901508
BeatmapSetID:1407182

[Difficulty]
HPDrainRate:3.5
CircleSize:3.5
OverallDifficulty:6.5
ApproachRate:7.5
SliderMultiplier:1.4
SliderTickRate:0.5

[Events]
//Background and Video events
0,0,"bg.jpg",0,0
//Break Periods
//Storyboard Layer 0 (Background)
//Storyboard Layer 1 (Fail)
//Storyboard Layer 2 (Pass)
//Storyboard Layer 3 (Foreground)
//Storyboard Layer 4 (Overlay)
//Storyboard Sound Samples

[TimingPoints]
133,329.67032967033,4,2,0,50,1,0
5627,-100,4,2,0,5,0,0
5737,-100,4,2,0,50,0,0
5957,-100,4,2,0,5,0,0
6067,-100,4,2,0,50,0,0
10682,-100,4,2,0,65,0,0
12001,-76.9230769230769,4,2,0,85,0,1
14638,-76.9230769230769,4,2,0,85,0,0
16286,-100,4,2,0,60,0,0
17275,-76.9230769230769,4,2,0,75,0,0
24748,-76.9230769230769,4,2,0,5,0,0
24858,-76.9230769230769,4,2,0,75,0,0
25078,-76.9230769230769,4,2,0,5,0,0
25187,-76.9230769230769,4,2,0,75,0,0
29803,-76.9230769230769,4,2,0,75,0,0
30023,-76.9230769230769,4,2,0,5,0,0
30133,-76.9230769230769,4,2,0,75,0,0
30352,-76.9230769230769,4,2,0,5,0,0
30462,-76.9230769230769,4,2,0,75,0,0
35078,-76.9230769230769,4,2,0,75,0,0
35627,-76.9230769230769,4,2,0,5,0,0
35737,-76.9230769230769,4,2,0,75,0,1
38374,-86.9565217391304,4,2,0,75,0,0
43539,-86.9565217391304,4,2,0,5,0,0
43649,-86.9565217391304,4,2,0,75,0,0
54089,-86.9565217391304,4,2,0,5,0,0
54198,-86.9565217391304,4,2,0,75,0,0
59473,-71.4285714285714,4,2,0,85,0,1
63319,-100,4,2,0,60,0,0
63979,-100,4,2,0,5,0,0
64089,-71.4285714285714,4,2,0,85,0,1
64638,-71.4285714285714,4,2,0,60,0,0
64748,-86.9565217391304,4,2,0,75,0,0
67935,-86.9565217391304,4,2,0,5,0,0
68045,-86.9565217391304,4,2,0,75,0,0
72880,-86.9565217391304,4,2,0,5,0,0
72990,-86.9565217391304,4,2,0,75,0,0
73979,-76.9230769230769,4,2,0,75,0,0
75297,-86.9565217391304,4,2,0,75,0,0
78154,-86.9565217391304,4,2,0,5,0,0
78264,-86.9565217391304,4,2,0,75,0,0
83759,-86.9565217391304,4,2,0,5,0,0
83869,-86.9565217391304,4,2,0,75,0,0
84089,-86.9565217391304,4,2,0,30,0,0
84198,-86.9565217391304,4,2,0,75,0,0
84748,-86.9565217391304,4,2,0,5,0,0
84858,-86.9565217391304,4,2,0,75,0,0
85847,-100,4,2,0,50,0,0
90792,-100,4,2,0,60,0,0
91122,-100,4,2,0,60,0,1
91451,-100,4,2,0,65,0,1
91781,-100,4,2,0,68,0,1
92111,-100,4,2,0,69,0,1
92440,-100,4,2,0,72,0,1
92770,-100,4,2,0,75,0,1
93100,-100,4,2,0,78,0,1
93429,-100,4,2,0,81,0,1
93759,-100,4,2,0,75,0,0
95627,-100,4,2,0,5,0,0
95737,-100,4,2,0,75,0,0
96396,-76.9230769230769,4,2,0,85,0,1
98924,-76.9230769230769,4,2,0,5,0,1
99034,-76.9230769230769,4,2,0,85,0,0
99253,-100,4,2,0,60,0,0
100352,-76.9230769230769,4,2,0,60,0,0
101341,-76.9230769230769,4,2,0,60,0,1
101451,-76.9230769230769,4,2,0,30,0,0

[Colours]
Combo1 : 85,85,85
Combo2 : 240,137,81
Combo3 : 157,193,253
Combo4 : 204,113,188
Combo5 : 250,233,137
Combo6 : 133,214,133
Combo7 : 214,67,67
Combo8 : 200,200,200

[HitObjects]
161,162,133,6,0,P|119:121|41:122,2,140,2|8|2,0:0|0:0|0:0,0:0:0:0:
210,247,1012,1,2,0:0:0:0:
210,247,1122,1,10,0:0:0:0:
286,157,1341,2,0,P|227:91|243:-2,1,186.666666666667,2|8,0:0|0:0,0:0:0:0:
323,63,2001,1,2,0:0:0:0:
473,6,2330,5,2,0:0:0:0:
473,6,2440,1,8,0:0:0:0:
423,92,2660,1,2,0:0:0:0:
423,92,2770,2,0,L|439:270,1,140,2|10,0:0|0:0,0:0:0:0:
304,159,3429,1,2,0:0:0:0:
258,253,3649,1,2,0:0:0:0:
258,253,3759,1,10,0:0:0:0:
183,152,3979,6,0,P|94:165|47:242,1,186.666666666667,2|10,0:0|0:0,0:0:0:0:
147,248,4639,1,2,0:0:0:0:
74,366,4968,2,0,P|88:334|81:286,1,46.6666666666667,2|10,0:0|0:0,0:0:0:0:
15,101,5407,6,0,P|-8:61|10:20,1,93.3333333333333,2|0,0:0|0:0,0:0:0:0:
29,8,5737,2,0,P|74:8|100:44,1,93.3333333333333,10|0,0:0|0:0,0:0:0:0:
102,66,6067,1,2,0:0:0:0:
178,0,6286,2,0,P|200:-5|223:-1,1,46.6666666666667,2|10,0:0|0:0,0:0:0:0:
330,76,6616,1,2,0:0:0:0:
330,76,6726,6,0,L|401:68,2,46.6666666666667,2|2|2,0:0|0:0|0:0,0:0:0:0:
296,109,7056,2,0,L|225:101,2,46.6666666666667,8|2|2,0:0|0:0|0:0,0:0:0:0:
311,153,7385,2,0,B|254:205|261:284|324:310|324:310|346:292|346:252,1,233.333333333333,2|0,0:0|0:0,0:0:0:0:
349,235,8045,85,2,0:0:0:0:
162,263,8374,1,10,0:0:0:0:
234,108,8704,1,2,0:0:0:0:
248,202,8924,2,0,L|275:370,1,140,2|2,0:0|0:0,0:0:0:0:
256,192,9363,12,0,10352,0:3:0:0:
357,322,10682,5,4,0:3:0:0:
444,366,10902,1,4,0:3:0:0:
444,366,11012,1,4,1:3:0:0:
508,291,11231,1,4,0:3:0:0:
508,291,11341,2,0,L|496:233,3,46.6666666666667,0|8|8|10,1:0|0:3|0:3|1:2,0:0:0:0:
512,63,12001,22,0,L|449:71,1,60.6666638895672,4|0,3:1|0:0,0:0:0:0:
408,159,12330,2,0,L|347:168,1,60.6666638895672,6|0,1:2|0:0,0:0:0:0:
280,94,12660,2,0,L|114:121,1,121.333327779134,2|0,3:2|3:2,0:0:0:0:
113,122,12990,1,6,1:2:0:0:
232,253,13209,6,0,L|416:284,1,181.999991668702,2|4,3:2|1:2,0:0:0:0:
104,318,13869,1,2,1:2:0:0:
104,318,13979,2,0,L|165:327,1,60.6666638895672,2|0,3:2|0:0,0:0:0:0:
61,229,14308,2,0,L|0:222,2,60.6666638895672,4|4|4,3:3|3:3|3:3,0:0:0:0:
103,204,14638,101,4,3:3:0:0:
409,204,16286,1,0,1:2:0:0:
504,238,16506,2,0,L|487:97,1,140,4|4,0:3|0:3,0:0:0:0:
482,61,16946,1,8,0:3:0:0:
261,206,17275,38,0,P|317:272|285:352,1,181.999991668702,6|0,3:2|1:2,0:0:0:0:
135,384,17935,2,0,P|83:358|75:301,1,121.333327779134,2|2,3:2|0:0,0:0:0:0:
88,254,18264,1,2,1:2:0:0:
245,196,18484,2,0,B|192:212|152:185|155:168|114:146|73:154,1,181.999991668702,2|2,3:2|3:3,0:0:0:0:
27,166,18924,1,2,1:3:0:0:
217,111,19253,6,0,B|201:49|239:-9|239:-9|238:33|285:76,1,181.999991668702,2|0,3:2|1:2,0:0:0:0:
469,128,19913,6,0,B|500:150|484:212|484:212|442:167|453:132,1,181.999991668702,2|0,3:2|1:2,0:0:0:0:
512,301,20572,2,0,P|453:299|405:259,1,121.333327779134,2|0,3:2|3:2,0:0:0:0:
379,219,20902,2,0,P|330:182|256:185,1,121.333327779134,2|2,1:2|0:0,0:0:0:0:
225,197,21231,5,2,3:2:0:0:
296,273,21451,2,0,L|288:334,1,60.6666638895672,2|0,0:0|1:2,0:0:0:0:
195,292,21781,2,0,L|187:353,1,60.6666638895672,2|2,0:0|3:2,0:0:0:0:
86,372,22111,1,2,3:2:0:0:
86,372,22220,2,0,L|107:191,1,181.999991668702,2|2,1:2|3:2,0:0:0:0:
284,92,22880,5,0,1:2:0:0:
441,130,23209,1,2,3:2:0:0:
382,54,23429,1,2,0:0:0:0:
382,54,23539,1,0,1:2:0:0:
266,97,23759,2,0,P|198:155|173:317,1,242.666655558269,2|2,3:2|1:3,0:0:0:0:
425,265,24528,70,0,P|391:311|332:307,1,121.333327779134,2|0,3:2|0:0,0:0:0:0:
283,307,24858,2,0,P|260:253|292:204,1,121.333327779134,2|0,1:2|0:0,0:0:0:0:
316,162,25187,6,0,P|344:170|375:168,1,60.6666638895672,2|0,3:2|0:0,0:0:0:0:
512,141,25517,2,0,P|487:123|458:114,1,60.6666638895672,2|0,1:2|0:0,0:0:0:0:
309,147,25847,2,0,P|332:128|348:102,1,60.6666638895672,2|0,3:2|0:0,0:0:0:0:
500,58,26176,2,0,P|469:61|443:77,1,60.6666638895672,2|0,1:2|0:0,0:0:0:0:
454,125,26396,6,0,P|425:209|457:293,1,181.999991668702,2|2,3:2|3:2,0:0:0:0:
505,304,26836,2,0,P|459:265|409:300,1,121.333327779134,2|2,1:2|3:3,0:0:0:0:
393,336,27165,2,0,P|334:365|272:369,1,121.333327779134,2|0,3:3|1:2,0:0:0:0:
231,361,27495,1,0,1:2:0:0:
250,177,27825,70,0,P|194:111|226:31,1,181.999991668702,6|0,3:2|1:2,0:0:0:0:
376,0,28484,2,0,P|428:25|436:82,1,121.333327779134,2|2,3:2|0:0,0:0:0:0:
424,130,28813,1,2,1:2:0:0:
267,188,29034,2,0,B|319:171|359:198|356:215|397:237|438:229,1,181.999991668702,2|2,3:2|3:3,0:0:0:0:
485,218,29474,1,2,1:3:0:0:
291,284,29803,6,0,P|250:328|187:334,1,121.333327779134,2|0,3:2|0:0,0:0:0:0:
161,374,30133,2,0,P|103:360|66:309,1,121.333327779134,2|0,1:2|0:0,0:0:0:0:
45,269,30462,6,0,B|14:247|30:185|30:185|72:230|61:265,1,181.999991668702,2|0,3:2|1:2,0:0:0:0:
74,67,31122,1,2,3:2:0:0:
128,167,31341,1,0,3:2:0:0:
128,167,31452,2,0,P|173:211|235:212,1,121.333327779134,2|0,1:2|0:0,0:0:0:0:
276,206,31781,5,2,3:2:0:0:
369,149,32001,2,0,L|429:140,1,60.6666638895672,2|0,0:0|1:2,0:0:0:0:
274,111,32330,2,0,L|214:120,1,60.6666638895672,2|2,0:0|3:2,0:0:0:0:
59,91,32660,1,2,3:2:0:0:
59,91,32770,2,0,B|128:76|128:76|155:42|155:42|222:30,1,181.999991668702,2|2,1:2|3:2,0:0:0:0:
433,223,33430,5,0,1:2:0:0:
373,56,33759,1,2,3:2:0:0:
463,111,33979,1,2,0:0:0:0:
463,111,34089,1,0,1:0:0:0:
452,220,34308,2,0,P|411:300|334:347,1,181.999991668702,2|2,3:2|3:3,0:0:0:0:
285,353,34748,1,2,1:3:0:0:
27,241,35078,69,2,3:2:0:0:
123,275,35297,1,2,0:0:0:0:
123,275,35407,2,0,P|128:215|99:163,1,121.333327779134,2|0,1:2|0:0,0:0:0:0:
58,137,35737,5,8,3:3:0:0:
300,100,36066,1,14,0:2:0:0:
206,301,36396,1,8,3:3:0:0:
188,179,36616,1,8,3:3:0:0:
188,179,36726,2,0,L|161:13,1,121.333327779134,14|4,0:2|1:1,0:0:0:0:
281,199,37275,21,2,3:3:0:0:
281,199,37385,2,0,L|289:243,3,45.4999979171754,2|2|2|2,1:3|0:0|0:0|0:0,0:0:0:0:
317,273,37715,1,2,1:2:0:0:
352,282,37825,1,0,1:2:0:0:
385,267,37935,1,0,1:2:0:0:
411,242,38045,2,0,L|393:142,2,60.6666638895672,2|8|4,1:2|3:3|3:3,0:0:0:0:
452,243,38374,54,0,P|475:348|519:385,2,161.000003070831,6|2|2,3:2|1:2|3:2,0:0:0:0:
512,142,39253,2,0,P|461:148|428:135,1,53.6666676902771,2|0,3:2|1:2,0:0:0:0:
332,78,39583,2,0,P|358:185|334:258,1,161.000003070831,2|2,3:2|3:3,0:0:0:0:
330,260,40023,1,2,1:3:0:0:
228,357,40242,1,2,3:3:0:0:
228,357,40352,6,0,P|309:348|396:366,1,161.000003070831,2|2,3:2|1:2,0:0:0:0:
208,264,41012,2,0,B|162:274|144:298|147:321|124:350|80:351,1,161.000003070831,2|0,3:2|1:2,0:0:0:0:
49,208,41671,1,8,3:3:0:0:
49,208,41781,2,0,P|49:234|62:257,2,53.6666676902771,2|2|0,0:3|3:2|1:2,0:0:0:0:
152,148,42220,2,0,B|215:82|243:146|295:91,1,161.000003070831,2|0,3:2|3:0,0:0:0:0:
307,49,42660,6,0,P|274:25|193:27,1,107.333335380554,2|4,1:2|3:3,0:0:0:0:
170,40,42990,1,4,3:3:0:0:
70,42,43209,1,2,1:2:0:0:
70,42,43319,2,0,P|60:116|23:152,1,107.333335380554,2|0,1:2|0:2,0:2:0:0:
0,123,43649,6,0,P|70:123|141:223,1,161.000003070831,2|0,3:2|1:2,0:0:0:0:
132,382,44308,1,2,3:2:0:0:
124,287,44528,1,2,3:2:0:0:
124,287,44638,1,2,1:2:0:0:
238,379,44858,2,0,P|215:302|208:222,1,161.000003070831,2|2,3:2|3:3,0:0:0:0:
187,184,45297,2,0,P|216:119|262:95,1,107.333335380554,2|2,1:3|3:3,0:0:0:0:
265,62,45627,6,0,B|358:44|338:84|430:62,1,161.000003070831,2|2,3:2|1:2,0:0:0:0:
177,196,46286,2,0,B|82:202|112:236|17:238,1,161.000003070831,2|2,3:2|1:2,0:0:0:0:
160,292,46836,2,0,L|150:344,1,53.6666676902771,2|0,0:0|3:2,0:0:0:0:
253,269,47165,2,0,L|263:217,1,53.6666676902771,2|0,3:2|1:2,0:0:0:0:
385,358,47495,2,0,P|463:368|510:308,1,161.000003070831,2|0,3:2|3:2,0:0:0:0:
512,265,47935,1,0,1:2:0:0:
404,199,48154,5,2,3:2:0:0:
402,187,48264,1,2,3:2:0:0:
484,125,48484,1,2,1:2:0:0:
489,103,48594,1,2,1:2:0:0:
370,53,48814,1,2,0:3:0:0:
360,16,48924,38,0,P|297:6|189:4,1,161.000003070831,6|2,3:2|1:2,0:0:0:0:
116,126,49583,2,0,P|178:110|256:106,1,107.333335380554,2|0,3:2|3:2,0:0:0:0:
263,106,49913,1,0,1:2:0:0:
194,209,50133,2,0,P|118:233|45:274,1,161.000003070831,2|2,3:2|3:3,0:0:0:0:
14,300,50572,1,2,1:3:0:0:
6,152,50792,1,2,3:3:0:0:
6,152,50902,6,0,B|10:115|21:96|21:96|48:77|59:26|40:-7,1,161.000003070831,2|2,3:2|1:2,0:0:0:0:
187,226,51561,2,0,B|241:313|239:354|223:385,2,161.000003070831,2|0|8,3:2|1:2|3:3,0:0:0:0:
225,138,52440,1,4,3:3:0:0:
225,138,52550,1,2,1:2:0:0:
346,179,52770,2,0,P|357:100|449:101,1,161.000003070831,2|0,3:2|3:3,0:0:0:0:
471,90,53209,6,0,P|493:137|488:190,1,107.333335380554,2|0,1:2|3:0,0:0:0:0:
511,227,53539,2,0,P|457:285|401:292,1,107.333335380554,4|0,3:3|1:2,0:0:0:0:
412,330,53869,2,0,P|334:313|300:267,1,107.333335380554,2|0,1:2|0:0,0:0:0:0:
286,263,54198,6,0,P|223:223|138:259,1,161.000003070831,2|0,3:2|1:2,0:0:0:0:
109,373,54748,1,2,0:0:0:0:
109,373,54858,1,0,3:2:0:0:
41,275,55078,1,0,3:2:0:0:
41,275,55187,1,2,1:2:0:0:
159,265,55407,1,0,3:2:0:0:
159,265,55517,2,0,P|224:305|270:299,1,107.333335380554,2|2,0:0|3:3,0:0:0:0:
294,292,55847,1,2,1:3:0:0:
306,173,56067,1,2,3:3:0:0:
306,173,56176,6,0,B|386:159|382:226|459:229,2,161.000003070831,2|2|2,3:2|1:2|3:2,0:0:0:0:
512,112,57165,1,0,1:2:0:0:
426,16,57385,1,2,0:0:0:0:
426,16,57495,2,0,B|400:4|362:10|375:52|330:73,1,107.333335380554,2|0,3:2|3:2,3:2:0:0:
327,79,57825,1,2,1:2:0:0:
211,54,58045,1,0,3:2:0:0:
211,54,58154,102,0,B|140:32|129:78|42:45,1,161.000003070831,2|2,0:0|1:2,0:0:0:0:
93,178,58704,1,0,3:0:0:0:
93,178,58814,2,0,P|65:161|30:149,2,53.6666676902771,2|2|2,3:2|3:2|1:2,0:2:0:0:
127,201,59143,1,8,3:3:0:0:
166,215,59253,1,4,3:3:0:0:
212,207,59363,1,4,3:3:0:0:
254,175,59473,70,0,L|259:109,1,65.3333313395183,14|0,3:2|0:0,0:0:0:0:
262,298,59803,2,0,L|256:363,1,65.3333313395183,14|0,0:2|0:0,0:0:0:0:
319,232,60133,2,0,L|384:237,1,65.3333313395183,14|0,0:2|0:0,0:0:0:0:
196,240,60463,2,0,L|131:235,1,65.3333313395183,14|0,0:2|0:0,0:0:0:0:
154,384,60792,69,4,1:3:0:0:
277,373,61012,1,8,0:3:0:0:
297,361,61122,2,0,P|332:324|307:230,1,130.666662679037,8|8,1:3|0:3,0:0:0:0:
298,204,61451,1,2,1:2:0:0:
277,155,61561,1,10,1:2:0:0:
290,104,61671,1,8,0:3:0:0:
329,69,61781,2,0,P|371:75|413:104,2,65.3333313395183,4|4|4,0:3|0:3|0:3,0:0:0:0:
300,24,62111,6,0,P|362:44|444:25,1,130.666662679037,4|4,3:2|3:3,0:0:0:0:
473,15,62440,1,2,1:3:0:0:
512,130,62660,1,4,3:3:0:0:
508,110,62770,1,4,3:3:0:0:
424,190,62990,1,8,3:3:0:0:
413,245,63100,1,4,3:3:0:0:
446,344,63319,6,0,B|497:344|511:276|511:276|429:233|359:277|361:357,1,280,6|0,1:2|0:0,0:0:0:0:
314,344,64089,86,0,P|325:319|326:271,1,65.3333313395183,2|0,1:1|0:0,0:0:0:0:
310,225,64308,2,0,P|300:199|267:164,1,65.3333313395183,2|0,1:1|0:0,0:0:0:0:
101,75,64638,1,2,0:3:0:0:
101,75,64748,38,0,P|28:74|22:-7,2,161.000003070831,6|0|2,3:2|1:3|3:2,0:3:0:0:
185,26,65627,1,2,0:0:0:0:
185,26,65737,1,2,1:2:0:0:
160,144,65957,6,0,P|172:232|87:239,1,161.000003070831,2|2,3:2|3:3,0:0:0:0:
74,247,66396,1,2,1:3:0:0:
290,325,66726,1,2,3:2:0:0:
331,224,66946,1,2,0:2:0:0:
331,224,67056,1,2,1:2:0:0:
378,93,67275,1,2,0:2:0:0:
378,93,67385,6,0,B|318:71|342:-11|415:-39|495:24|478:93,1,268.333338451386,2|0,3:2|0:0,0:0:0:0:
458,130,68045,2,0,P|447:207|529:239,1,161.000003070831,2|0,3:2|1:2,0:0:0:0:
384,272,68594,1,2,0:0:0:0:
384,272,68704,6,0,P|308:306|303:384,1,161.000003070831,2|2,3:2|1:2,0:0:0:0:
218,304,69253,1,2,0:0:0:0:
218,304,69363,2,0,P|165:308|128:346,1,107.333335380554,2|2,3:2|0:3,0:0:0:0:
105,384,69693,1,2,1:3:0:0:
45,310,69913,1,2,0:3:0:0:
45,310,70023,6,0,P|40:257|2:220,1,107.333335380554,2|2,3:2|0:0,0:0:0:0:
24,182,70352,2,0,P|76:177|113:139,1,107.333335380554,2|2,1:2|0:0,0:0:0:0:
152,161,70682,2,0,P|156:213|194:250,1,107.333335380554,2|2,3:2|0:0,0:0:0:0:
173,288,71012,2,0,P|120:293|95:315,1,53.6666676902771,2|0,1:2|0:0,0:0:0:0:
83,331,71231,6,0,L|265:366,1,161.000003070831,2|0,3:2|3:2,0:0:0:0:
294,370,71671,2,0,P|307:306|420:252,1,161.000003070831,2|2,1:2|3:2,0:0:0:0:
406,361,72220,1,2,0:0:0:0:
406,361,72330,1,2,1:2:0:0:
497,294,72550,1,2,0:0:0:0:
512,254,72660,6,0,B|505:189|469:223|457:127,1,107.333335380554,2|0,3:2|0:0,0:0:0:0:
456,147,72990,1,2,1:2:0:0:
451,126,73100,1,2,0:0:0:0:
456,98,73209,1,2,0:0:0:0:
471,71,73319,2,0,P|492:41|495:3,2,53.6666676902771,2|2|2,3:2|0:0|0:0,0:0:0:0:
428,73,73649,2,0,P|407:103|404:141,2,53.6666676902771,2|2|2,1:2|0:0|0:0,0:0:0:0:
413,26,73979,70,0,P|354:12|294:20,1,121.333327779134,2|2,3:2|0:0,0:0:0:0:
248,37,74308,2,0,P|197:69|160:117,1,121.333327779134,6|2,1:2|0:0,0:0:0:0:
145,165,74638,1,4,1:3:0:0:
31,159,74858,2,0,B|23:142|9:140|9:140|10:120|7:109,1,60.6666638895672,2|8,1:2|0:3,0:0:0:0:
0,319,75297,70,0,P|73:284|184:308,1,161.000003070831,6|0,3:2|1:0,0:0:0:0:
362,355,75957,2,0,P|302:372|255:368,1,107.333335380554,2|2,3:2|0:0,0:0:0:0:
216,355,76286,1,2,1:2:0:0:
303,281,76506,6,0,P|333:221|261:212,1,161.000003070831,2|2,3:2|3:3,0:0:0:0:
228,235,76946,1,2,1:3:0:0:
441,5,77275,2,0,L|360:-4,2,53.6666676902771,2|2|2,3:2|0:2|0:2,0:0:0:0:
458,44,77605,2,0,L|539:35,2,53.6666676902771,2|2|2,1:2|0:2|0:2,0:0:0:0:
441,84,77935,6,0,P|480:119|493:171,1,107.333335380554,2|0,3:2|0:0,0:0:0:0:
476,212,78264,2,0,P|410:234|407:164,2,161.000003070831,0|2|2,1:2|3:2|1:2,0:0:0:0:
236,19,79253,6,0,L|150:11,1,53.6666676902771,2|0,3:2|0:0,0:0:0:0:
128,7,79473,2,0,L|42:0,1,53.6666676902771,2|0,0:2|1:2,0:0:0:0:
249,112,79803,2,0,P|73:94|19:90,1,214.666670761108,2|2,0:2|1:3,0:0:0:0:
264,22,80572,5,2,3:2:0:0:
406,123,80902,2,0,L|417:286,1,161.000003070831,2|2,1:2|3:2,0:0:0:0:
314,216,81451,1,2,0:0:0:0:
314,216,81561,2,0,L|323:342,1,107.333335380554,2|2,1:2|0:2,0:0:0:0:
325,367,81891,69,2,3:2:0:0:
232,325,82111,1,2,0:2:0:0:
232,325,82220,1,0,1:2:0:0:
105,372,82440,2,0,P|132:298|113:221,1,161.000003070831,2|2,3:2|3:2,0:0:0:0:
86,190,82880,2,0,P|122:253|199:222,1,161.000003070831,2|2,1:2|3:2,0:0:0:0:
361,117,83539,54,0,P|413:109|460:132,1,107.333335380554,2|0,1:2|0:0,0:0:0:0:
480,95,83869,2,0,P|447:53|443:0,1,107.333335380554,2|0,3:2|0:0,0:0:0:0:
400,3,84198,2,0,P|380:52|336:81,1,107.333335380554,2|0,1:2|3:2,0:0:0:0:
361,117,84528,6,0,P|308:124|261:101,1,107.333335380554,2|0,0:0|0:0,0:0:0:0:
226,75,84858,1,6,1:2:0:0:
125,23,85078,1,0,1:0:0:0:
125,23,85187,2,0,B|143:83|129:136|110:201,1,161.000003070831,4|8,1:3|0:3,0:0:0:0:
351,222,85847,22,0,P|393:263|471:262,2,140,6|8|2,0:0|0:0|0:0,0:0:0:0:
302,137,86726,1,2,0:0:0:0:
302,137,86836,1,10,0:0:0:0:
226,227,87056,1,2,0:0:0:0:
226,227,87165,2,0,P|285:293|278:365,1,140,2|8,0:0|0:0,0:0:0:0:
189,321,87715,1,2,0:0:0:0:
39,378,88044,5,2,0:0:0:0:
39,378,88154,1,8,0:0:0:0:
89,292,88374,1,2,0:0:0:0:
89,292,88484,2,0,L|73:114,1,140,2|8,0:0|0:0,0:0:0:0:
208,225,89143,1,2,0:0:0:0:
273,150,89363,1,2,0:0:0:0:
273,150,89473,1,10,0:0:0:0:
365,232,89693,5,2,0:0:0:0:
365,232,89803,2,0,P|409:220|443:189,1,93.3333333333333,2|0,0:0|1:2,0:0:0:0:
465,159,90133,1,10,1:2:0:0:
395,76,90353,1,4,3:3:0:0:
379,87,90462,1,0,1:2:0:0:
370,103,90572,1,0,1:2:0:0:
365,122,90682,1,2,1:2:0:0:
371,142,90792,1,8,3:3:0:0:
474,301,91122,37,2,3:2:0:0:
465,291,91231,1,2,3:2:0:0:
448,284,91341,1,2,1:2:0:0:
424,287,91451,2,0,P|409:318|416:366,2,46.6666666666667,10|2|2,1:2|0:0|1:2,0:0:0:0:
395,263,91781,5,2,1:2:0:0:
383,276,91891,1,2,3:2:0:0:
361,286,92000,1,2,3:2:0:0:
330,282,92111,2,0,P|320:260|321:237,2,46.6666666666667,10|2|2,1:2|1:2|1:2,0:0:0:0:
302,306,92440,101,8,3:3:0:0:
287,290,92549,1,2,3:2:0:0:
260,279,92659,1,2,1:2:0:0:
221,284,92770,2,0,P|209:304|205:327,2,46.6666666666667,10|2|2,3:2|1:2|1:2,0:0:0:0:
203,250,93100,101,2,1:2:0:0:
219,219,93209,1,2,1:2:0:0:
227,174,93319,1,8,3:3:0:0:
214,118,93429,2,0,B|211:106|202:85|202:56,2,46.6666666666667,10|4|4,3:2|3:3|3:3,0:0:0:0:
163,149,93759,85,6,3:2:0:0:
350,121,94088,1,10,1:2:0:0:
278,276,94418,1,2,3:2:0:0:
264,182,94638,2,0,L|237:14,1,140,2|6,3:2|3:2,0:0:0:0:
92,5,95297,5,2,3:2:0:0:
92,5,95407,2,0,P|124:37|136:82,1,93.3333333333333,10|0,1:2|1:2,0:0:0:0:
116,116,95737,2,0,P|74:133|45:169,1,93.3333333333333,10|0,1:2|1:2,0:0:0:0:
14,190,96067,2,0,P|8:236|25:279,1,93.3333333333333,10|0,1:2|1:2,0:0:0:0:
0,321,96396,22,0,L|63:313,1,60.6666638895672,4|0,3:1|0:0,0:0:0:0:
104,225,96726,2,0,L|165:216,1,60.6666638895672,6|0,1:2|0:0,0:0:0:0:
232,290,97056,2,0,L|399:262,1,121.333327779134,2|0,3:2|3:2,0:0:0:0:
399,262,97385,1,6,1:2:0:0:
280,131,97605,6,0,L|66:95,1,181.999991668702,2|4,3:2|3:2,0:0:0:0:
408,66,98264,1,2,1:2:0:0:
408,66,98374,2,0,P|412:25|426:8,1,60.6666638895672,4|0,3:3|0:0,0:0:0:0:
503,127,98704,2,0,B|447:131|475:157|387:157,1,121.333327779134,8|0,3:3|0:0,0:0:0:0:
339,157,99034,37,4,3:3:0:0:
367,255,99253,1,2,0:0:0:0:
367,255,99363,2,0,L|318:334,1,93.3333333333333,2|2,0:0|0:0,0:0:0:0:
289,373,99693,1,2,0:0:0:0:
185,374,99913,1,2,0:0:0:0:
185,374,100023,2,0,L|136:294,1,93.3333333333333,2|2,0:0|0:0,0:0:0:0:
107,256,100352,70,0,L|58:276,8,30.3333319447836,2|2|2|2|2|2|2|2|2,1:0|0:0|0:0|0:0|0:0|0:0|0:2|0:0|0:0,0:0:0:0:
152,237,100902,1,8,0:3:0:0:
256,192,101341,101,6,1:2:0:0:
