osu file format v14

[General]
AudioFilename: audio.mp3
AudioLeadIn: 0
PreviewTime: 133
Countdown: 0
SampleSet: Soft
StackLeniency: 0.5
Mode: 0
LetterboxInBreaks: 0
WidescreenStoryboard: 1

[Editor]
Bookmarks: 38374,85847
DistanceSpacing: 1
BeatDivisor: 6
GridSize: 32
TimelineZoom: 1.8

[Metadata]
Title:Let's!
TitleUnicode:Let's!
Artist:Kawasaki Yasuhiro
ArtistUnicode:カワサキヤスヒロ
Creator:verychill
Version:Chai's Insane
Source:ホロのぐらふぃてぃ
Tags:acoustic instrumental swing anime outro ending ed idol vtuber virtual youtuber hololive holo no graffiti horogura hologra cover corp フリーBGM free bgm DOVA-SYNDROME lets! chai the tea
BeatmapID:2904324
BeatmapSetID:1407182

[Difficulty]
HPDrainRate:4.5
CircleSize:4.5
OverallDifficulty:8
ApproachRate:9
SliderMultiplier:1.69
SliderTickRate:0.5

[Events]
//Background and Video events
0,0,"bg.jpg",0,0
//Break Periods
//Storyboard Layer 0 (Background)
//Storyboard Layer 1 (Fail)
//Storyboard Layer 2 (Pass)
//Storyboard Layer 3 (Foreground)
//Storyboard Layer 4 (Overlay)
//Storyboard Sound Samples

[TimingPoints]
133,329.67032967033,4,2,0,50,1,0
133,-125,4,2,0,50,0,0
792,-100,4,2,0,50,0,0
2220,-100,4,2,0,5,0,0
2330,-100,4,2,0,50,0,0
4089,-83.3333333333334,4,2,0,50,0,0
4968,-86.9565217391304,4,2,0,50,0,0
5297,-86.9565217391304,4,2,0,5,0,0
5407,-250.000000000001,4,2,0,50,0,0
5627,-250.000000000001,4,2,0,5,0,0
5737,-166.666666666666,4,2,0,50,0,0
5957,-166.666666666666,4,2,0,5,0,0
6067,-125,4,2,0,50,0,0
6396,-142.857142857143,4,2,0,50,0,0
7385,-111.111111111111,4,2,0,50,0,0
7715,-83.3333333333333,4,2,0,50,0,0
8045,-76.923076923077,4,2,0,50,0,0
8704,-100,4,2,0,50,0,0
9253,-86.9565217391304,4,2,0,50,0,0
9693,-250,4,2,0,50,0,0
10682,-250,4,2,0,65,0,0
12001,-52.6315789473684,4,2,0,85,0,1
14638,-55.5555555555556,4,2,0,85,0,0
14858,-250,4,2,0,60,0,0
17165,-250,4,2,0,5,0,0
17275,-76.9230769230769,4,2,0,75,0,0
18264,-125,4,2,0,75,0,0
18484,-90.9090909090909,4,2,0,75,0,0
19473,-90.9090909090909,4,2,0,5,0,0
19583,-83.3333333333333,4,2,0,75,0,0
19803,-83.3333333333333,4,2,0,5,0,0
19913,-90.9090909090909,4,2,0,75,0,0
20462,-90.9090909090909,4,2,0,5,0,0
20572,-90.9090909090909,4,2,0,75,0,0
20902,-83.3333333333333,4,2,0,75,0,0
21211,-66.6666666666667,4,2,0,75,0,0
21451,-71.4285714285714,4,2,0,75,0,0
21781,-76.9230769230769,4,2,0,75,0,0
22220,-200,4,2,0,75,0,0
22440,-76.9230769230769,4,2,0,5,0,0
22550,-66.6666666666667,4,2,0,75,0,0
23429,-90.9090909090909,4,2,0,75,0,0
23759,-76.9230769230769,4,2,0,75,0,0
24198,-71.4285714285714,4,2,0,75,0,0
24418,-76.9230769230769,4,2,0,75,0,0
24528,-90.9090909090909,4,2,0,75,0,0
24748,-90.9090909090909,4,2,0,5,0,0
24858,-90.9090909090909,4,2,0,75,0,0
25078,-90.9090909090909,4,2,0,5,0,0
25187,-90.9090909090909,4,2,0,75,0,0
27275,-90.9090909090909,4,2,0,5,0,0
27385,-76.9230769230769,4,2,0,75,0,0
28814,-125,4,2,0,75,0,0
29034,-90.9090909090909,4,2,0,75,0,0
29253,-90.9090909090909,4,2,0,5,0,0
29363,-90.9090909090909,4,2,0,75,0,0
29473,-125,4,2,0,75,0,0
29693,-125,4,2,0,5,0,0
29803,-90.9090909090909,4,2,0,75,0,0
30023,-90.9090909090909,4,2,0,5,0,0
30133,-90.9090909090909,4,2,0,75,0,0
30352,-90.9090909090909,4,2,0,5,0,0
30462,-90.9090909090909,4,2,0,75,0,0
31012,-90.9090909090909,4,2,0,5,0,0
31122,-90.9090909090909,4,2,0,75,0,0
31671,-90.9090909090909,4,2,0,5,0,0
31781,-71.4285714285714,4,2,0,75,0,0
32001,-76.9230769230769,4,2,0,75,0,0
32330,-90.9090909090909,4,2,0,75,0,0
32660,-166.666666666667,4,2,0,75,0,0
32990,-76.9230769230769,4,2,0,5,0,0
33100,-66.6666666666667,4,2,0,75,0,0
33759,-76.9230769230769,4,2,0,75,0,0
34528,-76.9230769230769,4,2,0,5,0,0
34638,-76.9230769230769,4,2,0,75,0,0
34968,-76.9230769230769,4,2,0,5,0,0
35078,-76.9230769230769,4,2,0,75,0,0
35627,-76.9230769230769,4,2,0,5,0,0
35737,-71.4285714285714,4,2,0,75,0,1
37165,-71.4285714285714,4,2,0,5,0,1
37275,-71.4285714285714,4,2,0,75,0,1
38045,-250,4,2,0,75,0,1
38374,-83.3333333333333,4,2,0,75,0,0
38594,-83.3333333333333,4,2,0,5,0,0
38704,-83.3333333333333,4,2,0,75,0,0
38924,-83.3333333333333,4,2,0,5,0,0
39034,-83.3333333333333,4,2,0,75,0,0
39583,-60.6060606060606,4,2,0,75,0,0
39803,-60.6060606060606,4,2,0,5,0,0
39913,-60.6060606060606,4,2,0,75,0,0
40352,-100,4,2,0,75,0,0
40572,-100,4,2,0,5,0,0
40682,-100,4,2,0,75,0,0
40902,-100,4,2,0,5,0,0
41012,-83.3333333333333,4,2,0,75,0,0
41231,-83.3333333333333,4,2,0,5,0,0
41341,-83.3333333333333,4,2,0,75,0,0
41561,-83.3333333333333,4,2,0,5,0,0
41671,-83.3333333333333,4,2,0,75,0,0
42220,-60.6060606060606,4,2,0,75,0,0
42989,-100,4,2,0,75,0,0
43319,-83.3333333333333,4,2,0,75,0,0
43539,-83.3333333333333,4,2,0,5,0,0
43649,-100,4,2,0,75,0,0
45078,-100,4,2,0,5,0,0
45187,-76.9230769230769,4,2,0,75,0,0
45847,-76.9230769230769,4,2,0,5,0,0
45957,-76.9230769230769,4,2,0,75,0,0
46176,-76.9230769230769,4,2,0,5,0,0
46286,-71.4285714285714,4,2,0,75,0,0
46506,-71.4285714285714,4,2,0,5,0,0
46616,-71.4285714285714,4,2,0,75,0,0
47495,-74.0740740740741,4,2,0,75,0,0
48924,-68.9655172413793,4,2,0,75,0,0
50352,-68.9655172413793,4,2,0,5,0,0
50462,-133.333333333333,4,2,0,75,0,0
50902,-68.9655172413793,4,2,0,75,0,0
51122,-68.9655172413793,4,2,0,5,0,0
51231,-68.9655172413793,4,2,0,75,0,0
51451,-68.9655172413793,4,2,0,5,0,0
51561,-68.9655172413793,4,2,0,75,0,0
52990,-68.9655172413793,4,2,0,5,0,0
53100,-86.9565217391304,4,2,0,75,0,0
53869,-166.666666666667,4,2,0,75,0,0
54089,-142.857142857143,4,2,0,5,0,0
54198,-80,4,2,0,75,0,0
56396,-80,4,2,0,5,0,0
56506,-80,4,2,0,75,0,0
56726,-80,4,2,0,5,0,0
56836,-80,4,2,0,75,0,0
59473,-76.9230769230769,4,2,0,85,0,1
63319,-250,4,2,0,60,0,0
63979,-250,4,2,0,5,0,0
64089,-66.6666666666667,4,2,0,85,0,1
64418,-100,4,2,0,85,0,1
64638,-100,4,2,0,60,0,1
64748,-76.9230769230769,4,2,0,75,0,0
65737,-125,4,2,0,75,0,0
65957,-100,4,2,0,75,0,0
67385,-76.9230769230769,4,2,0,75,0,0
68264,-76.9230769230769,4,2,0,5,0,0
68374,-76.9230769230769,4,2,0,75,0,0
68924,-76.9230769230769,4,2,0,5,0,0
69034,-76.9230769230769,4,2,0,75,0,0
70023,-66.6666666666667,4,2,0,75,0,0
70902,-90.9090909090909,4,2,0,75,0,0
71232,-76.9230769230769,4,2,0,75,0,0
72001,-90.9090909090909,4,2,0,75,0,0
72880,-90.9090909090909,4,2,0,5,0,0
72990,-90.9090909090909,4,2,0,75,0,0
73869,-76.9230769230769,4,2,0,75,0,0
76287,-125,4,2,0,75,0,0
76506,-90.9090909090909,4,2,0,75,0,0
77276,-76.9230769230769,4,2,0,75,0,0
78484,-76.9230769230769,4,2,0,5,0,0
78594,-76.9230769230769,4,2,0,75,0,0
78814,-76.9230769230769,4,2,0,5,0,0
78924,-76.9230769230769,4,2,0,75,0,0
79143,-76.9230769230769,4,2,0,5,0,0
79253,-76.9230769230769,4,2,0,75,0,0
80023,-76.9230769230769,4,2,0,5,0,0
80133,-76.9230769230769,4,2,0,75,0,0
80462,-76.9230769230769,4,2,0,5,0,0
80572,-66.6666666666667,4,2,0,75,0,0
80792,-66.6666666666667,4,2,0,5,0,0
80902,-66.6666666666667,4,2,0,75,0,0
81231,-83.3333333333333,4,2,0,75,0,0
81452,-90.9090909090909,4,2,0,75,0,0
81782,-76.9230769230769,4,2,0,75,0,0
83429,-76.9230769230769,4,2,0,5,0,0
83539,-76.9230769230769,4,2,0,75,0,0
83759,-76.9230769230769,4,2,0,5,0,0
83869,-76.9230769230769,4,2,0,75,0,0
84089,-76.9230769230769,4,2,0,30,0,0
84198,-76.9230769230769,4,2,0,75,0,0
84748,-76.9230769230769,4,2,0,5,0,0
84858,-76.9230769230769,4,2,0,75,0,0
85407,-76.9230769230769,4,2,0,5,0,0
85517,-76.9230769230769,4,2,0,75,0,0
85737,-76.9230769230769,4,2,0,5,0,0
85847,-125,4,2,0,50,0,0
86506,-100,4,2,0,50,0,0
87935,-100,4,2,0,5,0,0
88044,-100,4,2,0,50,0,0
89803,-83.3333333333334,4,2,0,50,0,0
90682,-86.9565217391304,4,2,0,50,0,0
90792,-142.857142857143,4,2,0,60,0,0
91012,-142.857142857143,4,2,0,5,0,0
91122,-83.3333333333334,4,2,0,60,0,1
91451,-71.4285714285715,4,2,0,65,0,1
91781,-62.5,4,2,0,68,0,1
92111,-62.5,4,2,0,69,0,1
92440,-62.5,4,2,0,72,0,1
92770,-62.5,4,2,0,75,0,1
93099,-142.857142857143,4,2,0,78,0,1
93429,-142.857142857143,4,2,0,81,0,1
93759,-76.923076923077,4,2,0,75,0,0
94390,-100,4,2,0,75,0,0
94967,-86.9565217391304,4,2,0,75,0,0
96396,-55.5555555555556,4,2,0,85,0,1
98374,-82.6446280991736,4,2,0,85,0,1
98594,-82.6446280991736,4,2,0,5,0,1
98704,-82.6446280991736,4,2,0,85,0,1
98924,-82.6446280991736,4,2,0,5,0,1
99034,-55.5555555555556,4,2,0,85,0,1
99253,-55.5555555555556,4,2,0,60,0,0
100682,-111.111111111111,4,2,0,60,0,0
101341,-57.1428571428571,4,2,0,60,0,1
101451,-57.1428571428571,4,2,0,5,0,0

[Colours]
Combo1 : 85,85,85
Combo2 : 240,137,81
Combo3 : 157,193,253
Combo4 : 204,113,188
Combo5 : 250,233,137
Combo6 : 133,214,133
Combo7 : 214,67,67
Combo8 : 200,200,200

[HitObjects]
146,201,133,6,0,P|73:253|26:250,1,135.2,2|8,0:0|0:0,0:0:0:0:
131,114,792,2,0,P|200:144|247:141,1,112.666666666667,2|2,0:0|0:0,0:0:0:0:
303,8,1122,1,10,0:0:0:0:
293,100,1341,5,2,0:0:0:0:
293,100,1451,2,0,B|320:96|341:84|361:51|361:51|365:86|381:109|406:126,1,169,2|8,0:0|0:0,0:0:0:0:
315,273,2001,2,0,L|340:149,1,112.666666666667,2|0,0:0|0:0,0:0:0:0:
482,70,2330,5,2,0:0:0:0:
464,63,2440,1,8,0:0:0:0:
469,245,2660,5,2,0:0:0:0:
418,266,2770,2,0,B|432:203|432:203,1,56.3333333333333,2|0,0:0|0:0,0:0:0:0:
440,334,3100,2,0,B|494:385|494:385,1,56.3333333333333,10|0,0:0|0:0,0:0:0:0:
370,320,3429,2,0,B|312:336|312:336,1,56.3333333333333,2|0,0:0|0:0,0:0:0:0:
459,147,3649,5,2,0:0:0:0:
448,145,3759,1,10,0:0:0:0:
243,151,3979,5,2,0:0:0:0:
243,151,4089,2,0,B|241:175|204:223|204:223|272:167|311:152,1,202.799993811035,2|10,0:0|0:0,0:0:0:0:
243,17,4638,2,0,P|252:38|262:97,1,67.5999979370118,2|0,0:0|0:0,0:0:0:0:
37,236,4968,21,2,0:0:0:0:
57,212,5078,2,0,B|92:212|108:177|108:177|98:220|131:242,1,129.566669137955,10|0,0:0|0:0,0:0:0:0:
69,282,5407,102,0,B|53:308|60:327,1,45.0666666666667,2|0,0:0|0:0,0:0:0:0:
46,141,5737,22,0,P|28:112|0:95,1,67.5999979370118,10|0,0:2|0:0,0:0:0:0:
180,190,6067,6,0,P|213:188|260:150,1,90.1333333333333,2|0,0:0|0:0,0:0:0:0:
52,136,6397,6,0,P|36:106|-9:74,1,78.8666642598471,10|2,0:0|0:0,0:0:0:0:
97,207,6726,5,2,0:0:0:0:
100,199,6836,1,2,0:0:0:0:
106,196,6946,1,2,0:0:0:0:
126,135,7056,5,8,0:0:0:0:
146,132,7166,1,2,0:0:0:0:
161,142,7276,1,2,0:0:0:0:
211,80,7385,6,0,P|225:101|232:125,1,50.6999984527588,2|0,0:0|0:0,0:0:0:0:
241,275,7605,5,2,0:0:0:0:
239,232,7715,2,0,P|250:206|281:175,1,67.5999979370118,8|0,0:0|0:0,0:0:0:0:
472,119,7935,21,2,0:0:0:0:
411,163,8045,2,0,B|373:161|311:132|257:17,1,219.699989942933,2|10,0:0|0:0,0:0:0:0:
2,336,8704,6,0,P|26:332|69:334,1,56.3333333333333,2|0,0:0|0:0,0:0:0:0:
149,336,8924,2,0,B|156:354|149:369|149:369|140:353|140:353|145:335,1,56.3333333333333,2|8,0:0|0:0,0:0:0:0:
98,237,9254,6,0,B|121:222|104:200|72:195|38:246|109:273|142:313|142:313|178:340|150:386|150:386|150:386|111:346|142:313|142:313|164:266|211:252|201:161|182:118|81:157|46:114|86:64|128:68|141:95|121:110,1,647.833345689774,2|8,0:0|0:0,0:0:0:0:
121,109,10682,1,4,0:3:0:0:
0,252,10902,5,4,0:3:0:0:
33,191,11012,1,4,1:3:0:0:
0,0,11231,5,4,0:3:0:0:
67,47,11341,1,0,1:0:0:0:
69,41,11450,1,8,0:3:0:0:
71,34,11561,1,8,0:3:0:0:
0,79,11671,5,10,1:2:0:0:
0,183,12001,6,0,B|51:195|51:195|60:191|60:191|92:137,1,107.033330475235,4|0,3:1|0:0,0:0:0:0:
228,276,12330,22,0,B|189:253|189:253|185:244|185:244|197:193,1,107.033330475235,6|0,1:2|0:0,0:0:0:0:
394,332,12660,6,0,B|448:344|448:344|458:340|458:340|481:298,1,107.033330475235,2|0,3:2|0:0,0:0:0:0:
311,304,12880,1,0,3:2:0:0:
311,304,12990,1,6,1:2:0:0:
498,104,13209,6,0,B|507:147|507:147|503:156|503:156|458:182,1,107.033330475235,2|0,3:2|0:0,0:0:0:0:
288,180,13539,6,0,B|314:225|314:225|323:229|323:229|366:219,1,107.033330475235,4|0,3:2|0:0,3:0:0:0:
86,243,13869,5,2,3:2:0:0:
156,223,13979,2,0,B|166:271|166:271|161:281|161:281|111:310,1,107.033330475235,2|0,3:2|0:0,0:0:0:0:
103,105,14308,5,4,3:3:0:0:
115,101,14418,1,4,3:3:0:0:
120,89,14528,1,4,3:3:0:0:
98,173,14638,6,0,B|42:181|42:181|9:146,1,101.399996905518,4|0,3:3|0:0,0:0:0:0:
46,27,14858,21,2,0:0:0:0:
46,27,14968,1,2,0:0:0:0:
189,58,15187,5,2,0:0:0:0:
189,58,15297,1,2,0:0:0:0:
247,121,15517,5,2,0:0:0:0:
247,121,15627,1,2,0:0:0:0:
256,199,15847,5,2,0:0:0:0:
256,199,15957,1,2,0:0:0:0:
247,121,16176,5,2,0:0:0:0:
190,60,16286,1,0,1:2:0:0:
46,27,16506,37,4,0:3:0:0:
355,82,16836,1,4,0:3:0:0:
408,142,16946,2,0,P|388:157|368:151,1,45.0666666666667,8|0,0:3|0:0,0:0:0:0:
197,285,17275,6,0,B|218:317|272:303|268:253|268:253|265:207|326:186|355:231,2,219.699989942933,6|0|2,3:2|1:2|3:2,0:0:0:0:
247,132,18154,1,2,0:0:0:0:
252,122,18264,2,0,P|275:105|300:101,1,45.0666666666667,2|0,1:2|0:0,0:0:0:0:
346,220,18485,6,0,B|213:200|213:200|172:187|168:147,1,185.900005673218,2|2,3:2|3:3,0:0:0:0:
182,97,18924,1,2,1:3:0:0:
383,291,19253,6,0,B|413:281|419:247|419:247|425:217|467:209,1,123.933337115479,2|0,3:2|0:0,0:0:0:0:
349,149,19583,2,0,B|379:149|404:180|404:180|431:208|464:209,1,135.199995874024,2|0,1:2|0:0,0:0:0:0:
502,53,19913,2,0,B|510:143|495:205|495:205|477:264|484:369,1,309.833342788697,2|0,3:2|0:2,0:0:0:0:
302,342,20572,6,0,B|341:329|338:293|338:293|335:266|374:253,1,123.933337115479,2|0,3:2|3:0,0:0:0:0:
398,379,20902,2,0,B|416:350|388:311|388:311|363:275|376:243,1,135.199995874024,2|2,1:2|0:0,3:0:0:0:
497,103,21231,6,0,P|468:99|418:136,1,84.5000032234193,2|0,3:2|0:0,0:0:0:0:
340,67,21451,2,0,P|327:92|346:149,1,78.8666642598471,2|0,0:0|1:2,0:0:0:0:
511,263,21782,6,0,P|505:234|454:196,1,73.2333299809775,2|0,0:0|3:2,0:0:0:0:
254,185,22110,1,2,3:2:0:0:
257,205,22221,2,0,P|273:220|313:227,1,56.3333333333333,2|0,1:2|0:0,0:0:0:0:
397,110,22550,6,0,B|378:79|341:81|341:81|191:112|191:112|173:114|160:97,2,253.500009670258,2|0|2,3:2|1:2|3:2,0:0:0:0:
272,24,23429,1,2,0:0:0:0:
255,27,23539,2,0,P|231:48|227:87,1,61.9666685577393,0|0,1:2|0:0,0:0:0:0:
177,242,23759,6,0,B|174:215|203:204|203:204|327:179|327:179|273:202,1,219.699989942933,2|2,3:2|3:3,0:0:0:0:
177,242,24198,2,0,B|150:235|149:205|149:205|163:79|163:79,1,157.733328519694,2|0,1:3|0:0,0:0:0:0:
33,0,24528,6,0,B|57:89|57:89|67:109|92:101,1,123.933337115479,2|0,3:2|0:0,0:0:0:0:
153,21,24858,2,0,B|109:42|109:42|63:65|85:108,1,123.933337115479,2|0,1:2|0:0,0:0:0:0:
40,223,25187,6,0,P|48:193|71:174,1,61.9666685577393,2|0,3:2|0:0,0:0:0:0:
138,334,25517,2,0,P|112:316|100:288,1,61.9666685577393,2|0,1:2|0:0,0:0:0:0:
275,274,25847,2,0,P|251:292|220:293,1,61.9666685577393,2|0,3:2|0:0,0:0:0:0:
260,125,26177,2,0,P|270:153|263:182,1,61.9666685577393,2|0,1:2|0:0,0:0:0:0:
70,153,26396,5,2,3:2:0:0:
112,98,26506,2,0,P|141:95|167:112,1,61.9666685577393,2|0,0:0|0:0,0:0:0:0:
354,112,26726,1,2,3:2:0:0:
368,98,26836,2,0,P|370:67|354:41,1,61.9666685577393,2|0,1:2|0:0,0:0:0:0:
167,112,27056,2,0,L|291:80,1,123.933337115479,2|0,0:3|0:0,0:0:0:0:
471,32,27385,5,0,1:2:0:0:
471,32,27495,1,0,1:2:0:0:
298,254,27825,6,0,B|275:286|222:270|228:220|228:220|232:174|172:151|141:195,2,219.699989942933,6|0|2,3:2|1:2|3:2,0:0:0:0:
384,134,28704,1,2,0:0:0:0:
377,140,28814,2,0,P|356:141|322:122,1,45.0666666666667,2|0,1:2|0:0,0:0:0:0:
150,184,29034,6,0,B|235:169|235:169|262:162|264:136,1,123.933337115479,2|0,3:2|0:0,0:0:0:0:
169,60,29363,1,2,3:3:0:0:
169,60,29473,2,0,L|259:72,1,90.1333333333333,2|0,1:3|0:0,0:0:0:0:
109,4,29804,6,0,B|154:71|108:80|125:129,1,123.933337115479,2|2,3:2|1:2,0:0:0:0:
10,122,30133,2,0,B|77:69|78:124|129:122,1,123.933337115479,2|2,1:2|1:2,0:0:0:0:
60,301,30462,2,0,B|13:169|97:195|109:4,1,309.833342788697,2|0,3:2|0:2,0:0:0:0:
10,122,31123,21,2,3:2:0:0:
140,112,31342,1,0,3:2:0:0:
121,121,31452,2,0,P|153:164|220:206,1,123.933337115479,2|0,1:2|0:0,3:0:0:0:
325,69,31781,6,0,P|299:50|246:47,1,78.8666642598471,2|0,3:2|0:0,0:0:0:0:
191,0,32001,2,0,P|166:15|148:53,1,73.2333299809775,2|0,0:2|1:2,3:2:0:0:
148,236,32330,6,0,P|179:235|207:215,1,61.9666685577393,2|0,3:2|3:2,3:0:0:0:
84,89,32661,1,2,3:2:0:0:
82,100,32770,2,0,P|92:130|121:155,1,67.5999979370118,2|0,1:2|3:0,3:0:0:0:
235,296,33100,6,0,B|216:327|179:325|179:325|29:294|29:294|11:292|-2:309,1,253.500009670258,2|0,3:2|1:2,0:0:0:0:
221,229,33759,2,0,P|188:214|147:227,1,73.2333299809775,2|0,3:2|0:0,0:0:0:0:
319,185,33979,1,2,0:0:0:0:
327,158,34089,2,0,P|313:124|275:105,1,73.2333299809775,2|0,1:2|0:2,0:0:0:0:
142,86,34308,6,0,B|189:77|197:45|197:45|206:11|262:2,1,146.466659961955,2|0,3:2|0:0,0:0:0:0:
195,148,34638,1,2,3:3:0:0:
222,141,34748,2,0,B|251:98|240:73|240:73|226:50|258:-3,1,146.466659961955,2|0,1:3|0:0,0:0:0:0:
506,104,35078,6,0,B|491:120|477:126|477:126|465:131|450:153,1,73.2333299809775,2|0,3:2|0:0,0:0:0:0:
385,25,35297,1,2,0:0:0:0:
429,19,35407,2,0,B|430:64|384:108|372:156,1,146.466659961955,2|0,1:2|0:0,0:0:0:0:
221,191,35737,6,0,B|222:210|222:210|274:264,1,78.8666642598471,8|0,3:3|0:0,3:0:0:0:
181,361,36067,2,0,B|165:371|165:371|107:334,1,78.8666642598471,14|0,0:2|0:0,3:0:0:0:
305,143,36397,6,0,B|302:166|302:166|331:214,1,78.8666642598471,14|0,0:2|0:0,0:0:0:0:
202,285,36616,2,0,B|183:284|183:284|140:237,1,78.8666642598471,8|0,3:3|0:0,0:0:0:0:
399,127,36946,6,0,B|392:157|392:157|420:286,1,157.733328519694,4|0,1:1|0:0,0:0:0:0:
480,84,37276,1,2,3:3:0:0:
494,110,37385,2,0,B|475:184,3,59.1499981948853,2|2|2|2,1:3|0:0|0:0|0:0,0:0:0:0:
418,281,37715,5,2,1:2:0:0:
354,301,37825,1,0,1:2:0:0:
290,275,37935,1,0,1:2:0:0:
225,284,38045,2,0,L|199:287,2,22.5333333333333,2|8|4,1:2|3:3|3:3,0:0:0:0:
22,317,38374,6,0,B|77:318|93:368|85:321|132:285,1,135.199995874024,6|0,3:2|0:0,0:0:0:0:
1,186,38704,2,0,P|34:137|95:173,1,135.199995874024,2|0,1:2|0:0,0:0:0:0:
202,287,39034,2,0,P|171:263|162:224,1,67.5999979370118,2|0,3:2|0:0,0:0:0:0:
312,161,39253,2,0,P|327:131|357:115,1,67.5999979370118,2|0,3:2|1:2,0:0:0:0:
356,115,39583,6,0,B|344:159|301:160|301:160|179:154,1,185.900001772881,2|0,3:2|0:0,0:0:0:0:
59,153,39913,1,2,3:3:0:0:
59,153,40023,1,2,1:3:0:0:
95,0,40241,5,2,3:3:0:0:
119,0,40352,2,0,B|148:16|146:47|146:47|125:110,1,112.666666666667,2|0,3:2|0:0,0:0:0:0:
27,68,40682,2,0,B|42:51|76:70|76:70|135:103,1,112.666666666667,2|0,1:2|0:3,0:3:0:0:
321,37,41012,6,0,P|311:0|253:56,1,135.199995874024,2|0,3:2|0:2,0:0:0:0:
327,142,41341,2,0,B|272:156|263:208|265:150|213:131,1,135.199995874024,2|0,1:2|0:0,0:0:0:0:
321,37,41671,2,0,P|291:51|278:82,1,67.5999979370118,8|2,3:3|0:3,0:0:0:0:
156,176,41891,2,0,P|150:208|168:236,1,67.5999979370118,2|0,3:2|1:2,0:0:0:0:
168,236,42220,6,0,B|352:300|352:300|398:317|399:367,1,278.850002659321,2|0,3:2|3:3,0:3:0:0:
327,368,42660,21,2,1:2:0:0:
470,347,42880,1,4,3:3:0:0:
505,368,42990,2,0,P|516:335|506:304,1,56.3333333333333,4|0,3:3|0:0,0:0:0:0:
418,178,43209,1,2,1:2:0:0:
400,183,43319,2,0,P|353:131|358:68,1,135.199995874024,2|0,1:2|0:0,0:0:0:0:
471,15,43649,6,0,B|464:48|429:46|429:46|316:31,2,169,2|0|2,3:2|1:2|3:2,0:0:0:0:
476,197,44528,5,2,3:2:0:0:
512,176,44638,1,2,1:2:0:0:
376,64,44858,2,0,P|367:120|374:181,1,112.666666666667,2|0,3:2|0:0,0:0:0:0:
301,342,45187,5,2,3:3:0:0:
301,342,45297,2,0,B|293:303|325:250|392:276|423:290,1,146.466659961955,2|2,1:3|3:3,0:0:0:0:
512,357,45627,2,0,B|475:358|446:342|413:357|402:286|398:252,1,146.466659961955,2|0,3:2|0:0,0:0:0:0:
432,145,45957,2,0,B|439:174|457:225|408:278|384:302,1,146.466659961955,2|0,1:2|0:0,0:0:0:0:
246,330,46286,6,0,B|271:268|249:245|220:167,1,157.733328519694,2|0,3:2|0:0,0:0:0:0:
82,134,46616,1,2,1:2:0:0:
155,174,46836,2,0,P|139:198|147:271,1,78.8666642598471,2|0,0:0|3:2,0:0:0:0:
221,375,47166,2,0,B|238:372|264:374|264:374|244:371|217:357,1,78.8666642598471,2|0,3:2|1:0,0:3:0:0:
16,284,47495,6,0,B|39:313|68:327|68:327|252:384,1,228.150000870323,2|0,3:2|3:0,0:0:0:0:
267,317,47935,1,0,1:2:0:0:
62,343,48154,5,2,3:2:0:0:
42,348,48264,1,2,3:2:0:0:
28,200,48484,21,2,1:2:0:0:
97,224,48594,1,2,1:2:0:0:
112,27,48814,5,2,0:3:0:0:
31,56,48924,2,0,B|17:102|67:133|111:105|111:105|153:75|202:115|179:163,1,245.050007478333,6|2,3:2|1:2,0:0:0:0:
188,317,49583,6,0,P|218:288|193:263,1,81.6833358261109,2|0,3:2|0:0,0:0:0:0:
118,186,49803,1,0,3:2:0:0:
118,186,49913,2,0,P|87:212|112:238,1,81.6833358261109,0|0,1:2|0:0,0:0:0:0:
0,355,50133,6,0,B|-10:332|26:307|55:329|55:329|82:354|118:336|120:304,1,163.366671652222,2|0,3:2|0:0,0:0:0:0:
16,249,50462,1,2,3:3:0:0:
16,249,50572,1,2,1:3:0:0:
15,63,50792,6,0,L|32:75,1,21.1250008058548,2|0,3:3|0:0,0:0:0:0:
15,86,50902,2,0,B|68:120|93:74|121:34|184:62,1,163.366671652222,2|0,3:2|0:0,0:0:0:0:
238,11,51231,2,0,B|284:26|276:74|262:124|324:137,1,163.366671652222,2|0,1:2|0:0,0:0:0:0:
506,128,51561,6,0,B|533:64|496:10|496:10|437:21|417:101,1,245.050007478333,2|0,3:2|1:2,0:0:0:0:
289,246,52220,6,0,P|290:198|296:160,1,81.6833358261109,8|0,3:3|0:0,0:0:0:0:
364,139,52440,1,4,3:3:0:0:
364,139,52550,2,0,P|393:167|416:200,1,81.6833358261109,2|0,1:2|0:0,0:0:0:0:
495,328,52770,22,0,B|509:285|491:247|491:247|456:271|445:311,1,163.366671652222,2|0,3:2|0:0,0:0:0:0:
346,369,53100,5,0,3:3:0:0:
302,318,53209,2,0,P|266:309|235:312,1,64.7833345689774,2|0,1:2|0:0,3:0:0:0:
116,345,53429,1,0,3:0:0:0:
137,363,53539,2,0,P|173:342|174:314,1,64.7833345689774,4|0,3:3|0:0,3:0:0:0:
206,190,53758,1,0,1:2:0:0:
197,185,53869,2,0,P|175:210|203:222,1,67.5999979370118,2|0,1:2|0:0,0:0:0:0:
320,347,54198,6,0,B|313:334|320:297|320:297|355:141,1,211.25,2|0,3:2|1:2,0:0:0:0:
97,191,54747,1,2,0:0:0:0:
87,177,54858,2,0,P|97:143|130:110,1,70.4166666666667,0|0,3:2|0:0,0:0:0:0:
278,2,55078,1,0,3:2:0:0:
255,64,55188,2,0,P|213:86|189:89,1,70.4166666666667,2|0,1:2|0:2,0:0:0:0:
33,11,55407,1,0,3:0:0:0:
54,4,55517,2,0,P|105:49|120:121,1,140.833333333333,2|2,0:0|3:3,0:0:0:0:
87,177,55847,1,2,1:3:0:0:
242,28,56067,5,2,3:3:0:0:
206,36,56176,2,0,P|190:68|259:138,1,140.833333333333,2|0,3:2|0:2,0:0:0:0:
311,19,56506,2,0,P|377:9|412:66,1,140.833333333333,2|0,1:2|0:2,0:0:0:0:
368,236,56836,6,0,B|389:184|411:167|411:167|518:83,1,211.25,2|0,3:2|1:2,0:0:0:0:
256,76,57385,1,2,0:0:0:0:
290,91,57495,2,0,P|301:126|293:167,1,70.4166666666667,0|0,3:2|0:0,0:0:0:0:
225,229,57715,1,0,3:2:0:0:
232,223,57825,2,0,L|375:187,1,140.833333333333,2|0,1:2|3:2,0:0:0:0:
499,157,58154,6,0,P|464:177|457:277,1,140.833333333333,2|0,0:0|3:2,0:0:0:0:
490,333,58484,1,0,1:2:0:0:
338,374,58704,1,0,3:0:0:0:
338,374,58814,2,0,P|339:345|357:304,1,70.4166666666667,2|0,3:2|0:2,0:0:0:0:
420,222,59034,1,2,1:2:0:0:
381,131,59143,5,8,3:3:0:0:
393,141,59253,1,4,3:3:0:0:
399,156,59363,1,4,3:3:0:0:
286,182,59473,22,0,B|284:116|284:116|265:86,1,73.2333299809775,14|0,3:2|0:0,0:0:0:0:
462,86,59803,2,0,B|431:38|431:38|410:28,1,73.2333299809775,14|0,0:2|0:0,0:0:0:0:
183,192,60133,6,0,B|199:132|199:132|195:117,1,73.2333299809775,14|0,0:2|0:0,0:0:0:0:
381,153,60462,2,0,B|359:95|359:95|347:85,1,73.2333299809775,14|0,0:2|0:0,0:0:0:0:
104,88,60792,6,0,B|103:106|103:106|50:165,1,73.2333299809775,4|0,1:3|0:0,0:0:0:0:
22,315,61012,1,8,0:3:0:0:
0,271,61122,2,0,P|43:237|79:235,1,73.2333299809775,8|0,1:3|0:0,0:3:0:0:
193,336,61341,1,8,0:3:0:0:
167,352,61451,2,0,P|155:318|175:279,1,73.2333299809775,2|0,1:2|0:2,0:0:0:0:
275,155,61671,1,8,0:3:0:0:
278,144,61781,5,4,0:3:0:0:
232,98,61891,1,4,0:3:0:0:
169,114,62002,1,4,0:3:0:0:
151,176,62111,5,4,3:2:0:0:
304,244,62330,1,4,3:3:0:0:
279,235,62440,1,2,1:3:0:0:
414,173,62659,5,4,3:3:0:0:
440,175,62770,1,4,3:3:0:0:
370,52,62990,5,8,3:3:0:0:
436,34,63100,1,4,3:3:0:0:
218,90,63319,6,0,B|278:118|337:162|337:162,1,135.2,6|0,3:2|3:0,0:0:0:0:
413,301,64089,6,2,B|404:259|404:259|407:251|407:251|406:212,1,84.5000032234193,2|0,1:1|0:0,0:1:0:0:
267,209,64308,2,2,B|234:229|234:229|232:236|232:236|202:263,1,84.5000032234193,2|0,1:1|0:0,0:1:0:0:
66,366,64638,6,0,L|60:331,1,28.1666666666667,2|2,0:0|0:0,0:0:0:0:
43,372,64748,2,0,B|11:349|27:296|77:302|77:302|190:329,2,219.699989942933,6|0|2,3:2|1:2|3:2,0:0:0:0:
268,195,65627,1,2,0:0:0:0:
232,253,65737,2,0,L|252:295,1,45.0666666666667,2|0,1:2|0:2,0:2:0:0:
442,288,65957,6,0,B|453:278|453:278|429:242|386:299|397:393,1,169,2|2,3:2|3:3,0:0:0:0:
287,357,66396,2,0,L|442:288,1,169,2|2,1:3|3:2,0:0:0:0:
354,141,66946,5,2,0:2:0:0:
333,185,67056,1,2,1:2:0:0:
493,43,67274,5,2,0:2:0:0:
434,17,67385,2,0,B|329:17|377:90|192:111|192:111,1,219.699989942933,2|0,3:2|1:0,0:0:0:0:
204,285,67935,5,2,0:0:0:0:
222,293,68045,2,0,P|281:284|281:202,1,146.466659961955,2|0,3:2|0:0,0:0:0:0:
235,102,68374,2,0,B|268:104|283:127|309:130,1,73.2333299809775,0|0,1:2|0:0,0:0:0:0:
453,131,68594,5,2,0:2:0:0:
482,165,68704,2,0,P|472:224|414:190,1,146.466659961955,2|0,3:2|0:3,0:3:0:0:
463,61,69034,2,0,P|422:121|414:194,1,146.466659961955,2|2,1:2|0:2,0:3:0:0:
288,362,69364,22,0,P|319:339|370:323,1,73.2333299809775,2|0,3:2|0:0,0:0:0:0:
474,298,69584,1,2,0:3:0:0:
512,312,69693,2,0,P|515:347|483:355,1,73.2333299809775,2|0,1:3|0:0,0:0:0:0:
284,309,69913,5,2,0:3:0:0:
351,326,70023,1,2,3:2:0:0:
274,187,70242,5,2,0:0:0:0:
235,207,70352,1,2,1:2:0:0:
129,125,70572,5,2,0:0:0:0:
149,123,70682,1,2,3:2:0:0:
59,15,70902,5,2,0:0:0:0:
59,15,71012,2,0,P|28:20|-6:35,1,61.9666685577393,2|0,1:2|0:0,0:0:0:0:
149,175,71232,6,0,B|127:116|35:144|5:158|44:147|140:109|108:51,1,219.699989942933,2|0,3:2|3:2,0:0:0:0:
68,236,71671,2,0,B|29:211|-13:196|-13:196,2,73.2333299809775,2|2|2,1:2|0:0|0:0,0:0:0:0:
113,292,72001,1,2,3:2:0:0:
149,175,72220,5,2,0:0:0:0:
180,189,72330,1,2,1:2:0:0:
361,62,72550,21,2,0:0:0:0:
306,103,72660,2,0,P|282:145|283:245,1,123.933337115479,2|0,3:2|0:0,0:0:0:0:
488,229,72990,5,2,1:2:0:0:
467,194,73100,1,2,0:0:0:0:
424,168,73209,1,2,0:0:0:0:
359,225,73319,5,2,3:2:0:0:
367,202,73429,1,2,0:0:0:0:
357,182,73538,1,2,0:0:0:0:
276,220,73649,6,0,P|290:186|280:156,1,61.9666685577393,2|2,1:2|0:0,0:0:0:0:
224,37,73869,6,0,B|182:15|107:58|112:201,1,219.699989942933,2|0,0:0|0:0,0:0:0:0:
162,300,74308,6,0,B|187:283|187:226|105:182,1,146.466659961955,6|0,1:2|0:0,0:0:0:0:
0,224,74638,6,0,P|38:246|72:228,1,73.2333299809775,4|0,1:3|0:0,0:0:0:0:
238,79,74858,1,2,1:2:0:0:
170,60,74968,2,0,B|124:78|118:125|111:188,1,146.466659961955,8|2,0:3|0:0,0:0:0:0:
239,324,75298,22,0,B|271:301|255:248|205:254|205:254|92:281,2,219.699989942933,6|0|2,3:2|1:2|3:2,0:0:0:0:
86,208,76176,1,2,0:0:0:0:
21,199,76287,2,0,L|41:241,1,45.0666666666667,2|0,1:2|0:0,0:0:0:0:
95,365,76507,6,0,B|58:383|40:314|94:189,1,185.900005673218,2|2,3:2|3:3,0:3:0:0:
105,73,76947,2,0,L|153:191,1,123.933337115479,2|2,1:3|0:3,0:0:0:0:
241,191,77275,5,2,3:2:0:0:
227,202,77385,1,2,0:2:0:0:
219,218,77495,1,2,0:2:0:0:
309,178,77605,1,2,1:2:0:0:
15,86,77825,5,2,0:2:0:0:
70,126,77934,2,0,B|169:145|136:67|425:6|425:6,1,366.166649904888,2|0,3:2|0:0,0:0:0:0:
426,129,78594,6,0,B|380:172|349:68|279:136|279:136,1,146.466659961955,2|0,3:2|0:2,3:0:0:0:
395,224,78924,2,0,B|344:212|362:152|284:127|284:127,1,146.466659961955,2|0,1:2|0:0,0:0:0:0:
512,210,79253,6,0,P|495:240|490:280,1,73.2333299809775,2|0,3:2|0:0,0:0:0:0:
480,70,79473,2,0,P|498:101|499:137,1,73.2333299809775,2|0,0:2|1:2,0:0:0:0:
397,296,79803,6,0,P|447:243|512:209,1,146.466659961955,2|0,0:2|0:3,0:0:0:0:
464,378,80133,1,2,0:3:0:0:
464,378,80242,2,0,P|391:381|320:360,1,146.466659961955,2|0,1:3|0:0,0:0:0:0:
237,212,80572,22,0,B|254:254|255:321|255:321|262:283|279:247,1,169.000006446839,2|0,3:2|0:0,0:0:0:0:
338,178,80902,2,0,P|306:208|254:329,1,169.000006446839,2|0,1:2|0:0,0:0:0:0:
179,376,81231,2,0,P|183:340|162:309,1,67.5999979370118,2|0,3:2|0:0,0:0:0:0:
10,259,81451,1,2,0:0:0:0:
73,238,81561,2,0,P|104:243|138:258,1,61.9666685577393,2|0,1:2|0:0,0:0:0:0:
23,374,81780,5,2,0:2:0:0:
20,362,81891,2,0,P|55:345|90:335,1,73.2333299809775,2|0,3:2|0:0,0:0:0:0:
188,180,82111,2,0,P|156:164|120:169,1,73.2333299809775,2|0,0:2|1:2,0:0:0:0:
305,364,82440,5,2,3:2:0:0:
298,342,82550,1,2,0:0:0:0:
354,206,82769,5,2,3:2:0:0:
305,231,82879,1,2,1:2:0:0:
262,37,83099,5,2,0:0:0:0:
294,29,83209,2,0,P|295:80|232:161,1,146.466659961955,2|0,3:2|0:0,0:0:0:0:
131,112,83539,6,0,B|64:108|30:150|7:186|41:178|75:166,1,146.466659961955,2|0,1:2|0:0,0:0:0:0:
203,94,83869,2,0,B|186:29|135:9|94:-1|112:28|134:57,1,146.466659961955,2|0,3:2|0:3,0:3:0:0:
242,156,84198,2,0,B|298:119|301:65|298:23|276:49|255:79,1,146.466659961955,2|0,1:2|3:2,0:0:0:0:
383,234,84528,6,0,B|445:230|477:269|499:303|467:295|435:284,1,146.466659961955,2|0,0:0|0:0,0:0:0:0:
321,189,84858,2,0,P|343:151|379:128,1,73.2333299809775,2|0,1:2|0:0,0:0:0:0:
257,235,85078,1,0,1:0:0:0:
257,235,85187,2,0,B|200:198|197:144|200:102|222:128|243:158,1,146.466659961955,4|0,1:3|0:0,0:0:0:0:
280,310,85517,2,0,B|228:352|175:338|136:323|168:309|202:299,1,146.466659961955,8|0,0:3|0:0,0:0:0:0:
354,309,85847,22,0,P|427:361|474:358,1,135.2,6|8,3:2|0:0,0:0:0:0:
356,216,86506,2,0,P|300:251|240:243,1,112.666666666667,2|2,0:0|0:0,0:0:0:0:
170,131,86836,1,10,0:0:0:0:
204,304,87055,5,2,0:0:0:0:
204,304,87165,2,0,B|177:308|156:320|136:353|136:353|132:318|116:295|91:278,1,169,2|8,0:0|0:0,0:0:0:0:
170,131,87715,2,0,P|174:186|162:242,1,112.666666666667,2|0,0:0|0:0,0:0:0:0:
27,174,88044,5,2,0:0:0:0:
45,181,88154,1,8,0:0:0:0:
270,48,88374,5,2,0:0:0:0:
224,19,88484,2,0,B|214:79,1,56.3333333333333,2|0,0:0|0:0,0:0:0:0:
278,181,88814,2,0,B|238:143,1,56.3333333333333,10|0,0:0|0:0,0:0:0:0:
112,145,89143,2,0,B|168:126,1,56.3333333333333,2|0,0:0|0:0,0:0:0:0:
214,228,89363,5,2,0:0:0:0:
190,214,89473,1,10,0:0:0:0:
95,366,89693,5,2,0:0:0:0:
95,366,89803,2,0,B|73:355|13:363|13:363|73:337,1,135.199995874024,2|0,0:0|1:0,0:0:0:0:
148,319,90132,1,10,1:2:0:0:
300,314,90352,5,4,3:3:0:0:
285,305,90462,1,0,1:2:0:0:
324,252,90572,1,0,1:2:0:0:
391,265,90682,1,2,1:2:0:0:
409,332,90792,1,8,3:3:0:0:
163,67,91122,22,0,B|183:69|199:68|251:45,1,67.5999979370118,2|0,3:2|0:0,0:0:0:0:
338,35,91341,5,2,1:2:0:0:
280,0,91451,2,0,B|284:19|290:34|331:88,1,78.8666642598471,10|0,1:2|0:0,0:0:0:0:
388,150,91671,5,2,1:2:0:0:
403,86,91781,2,0,B|385:96|373:106|328:175,1,90.1333333333333,2|0,1:2|0:0,0:0:0:0:
362,273,92000,5,2,3:2:0:0:
362,273,92110,1,10,1:2:0:0:
302,240,92220,1,2,1:2:0:0:
243,275,92330,1,2,1:2:0:0:
177,251,92440,1,8,3:3:0:0:
33,112,92660,5,2,1:2:0:0:
41,98,92770,1,10,3:2:0:0:
110,92,92879,1,2,1:2:0:0:
137,155,92989,1,2,1:2:0:0:
88,206,93100,2,0,L|100:252,1,39.4333321299235,2|0,1:2|0:2,0:0:0:0:
264,382,93319,5,8,3:3:0:0:
252,316,93429,1,10,3:2:0:0:
193,283,93538,1,4,3:3:0:0:
135,317,93649,1,4,3:3:0:0:
128,383,93759,6,0,B|164:291|164:291|161:278|161:278|196:167,1,219.699989942933,6|10,3:2|1:2,0:0:0:0:
479,344,94418,22,0,P|455:321|423:306,1,56.3333333333333,2|0,3:2|0:0,0:0:0:0:
344,342,94638,2,0,B|335:370|335:370|355:345,1,56.3333333333333,2|10,3:2|1:2,0:0:0:0:
473,8,94968,6,0,B|482:10|459:46|450:69,1,64.7833345689774,6|0,3:2|0:0,3:0:0:0:
261,55,95297,1,2,3:2:0:0:
330,27,95407,2,0,B|335:18|361:51|383:60,1,64.7833345689774,10|0,3:2|0:0,3:0:0:0:
286,215,95627,1,0,3:2:0:0:
295,156,95738,2,0,B|288:148|328:133|343:115,1,64.7833345689774,10|0,1:2|0:2,0:0:0:0:
425,220,95958,1,0,1:2:0:0:
409,225,96067,2,0,B|397:229|396:185|384:167,1,64.7833345689774,10|0,1:2|0:2,0:0:0:0:
512,86,96287,1,0,1:2:0:0:
502,134,96397,6,0,B|450:122|450:122|443:113|443:113|441:71,1,101.399996905518,4|0,3:1|0:0,0:0:0:0:
248,162,96726,6,0,B|295:138|295:138|299:128|299:128|292:86,1,101.399996905518,6|0,1:2|0:0,0:0:0:0:
153,258,97057,6,0,B|131:306|131:306|122:311|122:311|82:304,1,101.399996905518,2|0,3:2|0:2,0:0:0:0:
172,177,97275,1,0,3:2:0:0:
172,177,97385,1,6,1:2:0:0:
37,30,97606,6,0,B|56:79|56:79|53:89|53:89|20:113,1,101.399996905518,2|0,3:2|0:2,0:0:0:0:
172,177,97935,6,0,B|126:150|126:150|116:151|116:151|87:180,1,101.399996905518,2|0,3:2|0:2,0:0:0:0:
275,273,98264,1,2,3:2:0:0:
253,190,98374,6,0,B|327:187|327:187|335:194|335:194|349:244,1,136.326662818334,4|0,3:3|3:0,3:0:0:0:
230,333,98704,2,0,B|297:361|297:361|307:359|307:359|338:318,1,136.326662818334,8|0,3:3|3:0,3:0:0:0:
471,233,99034,6,0,B|466:271|466:271|460:279|460:279|408:288,1,101.399996905518,8|0,3:3|0:0,3:0:0:0:
254,195,99253,5,2,0:0:0:0:
254,195,99363,1,2,0:0:0:0:
391,162,99582,5,2,0:0:0:0:
391,162,99692,1,2,0:0:0:0:
425,76,99912,5,2,0:0:0:0:
425,76,100022,1,2,0:0:0:0:
385,17,100242,37,2,0:0:0:0:
385,17,100352,2,0,L|386:74,4,50.6999984527588,2|2|2|2|0,1:0|0:0|0:0|0:0|0:0,0:0:0:0:
391,162,100683,2,0,L|341:173,1,50.6999984527588,4|0,3:3|0:0,0:0:0:0:
254,195,100901,1,8,0:3:0:0:
254,195,101341,102,2,B|248:233|248:233|258:254|258:254|254:291,1,98.5833342734973,6|0,1:2|0:0,0:1:0:0:
