osu file format v14

[General]
AudioFilename: audio.mp3
AudioLeadIn: 0
PreviewTime: 42984
Countdown: 0
SampleSet: Soft
StackLeniency: 0.7
Mode: 0
LetterboxInBreaks: 0
WidescreenStoryboard: 0

[Editor]
DistanceSpacing: 0.8
BeatDivisor: 6
GridSize: 32
TimelineZoom: 1.5

[Metadata]
Title:Let's!
TitleUnicode:Let's!
Artist:Kawasaki Yasuhiro
ArtistUnicode:カワサキヤスヒロ
Creator:CoLouRed GlaZeE
Version:Extra
Source:
Tags:DOVA-SYNDROME instrumental waltz
BeatmapID:2299818
BeatmapSetID:1100779

[Difficulty]
HPDrainRate:5
CircleSize:4
OverallDifficulty:8
ApproachRate:8
SliderMultiplier:1.8
SliderTickRate:1

[Events]
//Background and Video events
0,0,"bg.jpg",0,0
//Break Periods
//Storyboard Layer 0 (Background)
//Storyboard Layer 1 (Fail)
//Storyboard Layer 2 (Pass)
//Storyboard Layer 3 (Foreground)
//Storyboard Layer 4 (Overlay)
//Storyboard Sound Samples

[TimingPoints]
127,329.67032967033,4,2,0,40,1,0
11995,-100,4,2,0,50,0,0
14742,-100,4,2,0,40,0,0
35731,-100,4,2,0,50,0,0
37050,-100,4,2,0,40,0,0
59467,-100,4,2,0,50,0,0
64852,-100,4,2,0,40,0,0
91116,-100,4,2,0,50,0,0
91775,-100,4,2,0,60,0,0
91885,-100,4,2,0,50,0,0
92764,-100,4,2,0,55,0,0
93203,-100,4,2,0,50,0,0
93423,-100,4,2,0,45,0,0
93643,-100,4,2,0,40,0,0
93753,-100,4,2,0,50,0,0
99137,-100,4,2,0,40,0,0
101335,-100,4,2,0,50,0,0

[Colours]
Combo1 : 128,255,255
Combo2 : 255,128,128
Combo3 : 255,128,192
Combo4 : 255,255,128

[HitObjects]
374,212,127,5,0,0:0:0:0:
382,333,456,1,8,0:0:0:0:
265,341,786,1,0,0:0:0:0:
256,225,1006,1,0,0:0:0:0:
256,225,1116,1,8,0:0:0:0:
246,102,1335,2,0,L|238:34,1,60
484,181,1775,5,8,0:0:0:0:
484,181,1995,2,0,B|410:255|304:193,1,180
269,145,2434,1,8,0:0:0:0:
61,262,2654,5,0,0:0:0:0:
61,262,2764,1,0,0:0:0:0:
256,39,3094,1,8,0:0:0:0:
446,294,3423,1,0,0:0:0:0:
327,349,3643,1,0,0:0:0:0:
327,349,3753,1,8,0:0:0:0:
198,281,3973,2,0,B|187:311|197:352,1,60
340,115,4412,5,8,0:0:0:0:
464,70,4632,1,0,0:0:0:0:
426,341,4962,1,0,0:0:0:0:
426,341,5072,2,0,B|340:282|264:310,1,120,8|0,0:0|0:0,0:0:0:0:
239,316,5401,5,0,3:0:0:0:
36,189,5731,1,8,3:2:0:0:
247,50,6061,1,0,3:0:0:0:
476,180,6280,1,0,0:0:0:0:
476,180,6390,2,0,B|424:228|324:192,1,120,8|0,3:2|0:0,0:0:0:0:
291,172,6720,5,2,0:0:0:0:
248,179,6830,1,0,0:0:0:0:
220,138,6940,1,0,0:0:0:0:
248,103,7050,1,8,0:0:0:0:
295,93,7159,1,0,0:0:0:0:
338,110,7269,1,0,0:0:0:0:
363,203,7379,5,2,0:0:0:0:
304,247,7489,1,0,0:0:0:0:
228,240,7599,1,2,0:0:0:0:
165,199,7708,1,8,0:0:0:0:
138,129,7818,1,0,0:0:0:0:
144,54,7928,1,2,0:0:0:0:
144,54,8039,5,2,3:0:0:0:
416,192,8368,1,2,3:0:0:0:
144,330,8698,1,2,3:0:0:0:
64,192,8918,1,2,3:0:0:0:
64,192,9028,1,8,3:2:0:0:
478,255,9247,6,0,L|275:280,1,180,2|0,3:0|0:0,0:0:0:0:
299,277,9687,1,8,0:0:0:0:
211,288,10017,1,0,0:0:0:0:
121,297,10346,1,8,0:0:0:0:
218,72,10676,6,0,B|284:25|372:56,1,120,4|0,0:3|0:0,0:0:0:0:
406,74,11006,1,0,0:0:0:0:
370,232,11225,5,0,3:0:0:0:
304,195,11335,2,0,B|273:185|240:186,1,60,8|0,3:0|3:0,0:0:0:0:
173,194,11555,1,0,3:0:0:0:
102,220,11665,1,0,3:0:0:0:
479,350,11995,5,4,1:0:0:0:
31,193,12324,1,8,1:2:0:0:
478,34,12654,1,0,1:0:0:0:
255,195,12874,1,0,1:0:0:0:
255,195,12984,1,8,1:2:0:0:
479,194,13203,5,0,1:0:0:0:
253,34,13533,1,4,1:2:0:0:
29,192,13863,1,0,1:0:0:0:
29,192,13973,1,0,1:0:0:0:
256,351,14302,1,8,1:3:0:0:
256,351,14412,1,0,3:0:0:0:
256,351,14522,1,0,3:0:0:0:
255,192,14632,5,0,1:0:0:0:
29,192,14852,1,0,0:0:0:0:
29,192,14962,1,2,0:0:0:0:
479,192,15181,1,2,0:0:0:0:
479,192,15291,1,0,0:0:0:0:
101,192,15511,1,0,0:0:0:0:
101,192,15621,1,2,0:0:0:0:
404,192,15841,1,2,0:0:0:0:
404,192,15951,1,0,0:0:0:0:
175,191,16170,1,0,0:0:0:0:
175,191,16280,1,8,1:2:0:0:
328,192,16500,1,4,3:0:0:0:
255,194,16830,1,8,3:0:0:0:
255,194,16940,1,0,3:0:0:0:
404,35,17269,6,0,B|480:114|431:223,1,180,4|8,1:0|1:2,0:0:0:0:
303,351,17929,2,0,B|266:273|168:274,1,120,0|0,1:0|0:0,0:0:0:0:
139,262,18258,1,8,1:2:0:0:
377,306,18478,2,0,L|434:344,1,60,0|0,1:0|0:0,0:0:0:0:
220,180,18808,1,0,1:0:0:0:
220,180,18918,1,8,1:2:0:0:
473,190,19247,2,0,B|420:246|313:218,1,120,0|0,1:0|0:0,0:0:0:0:
363,226,19577,2,0,B|316:165|333:85,1,120,8|0,1:2|0:0,0:0:0:0:
429,96,19907,1,0,1:0:0:0:
134,61,20236,5,8,1:2:0:0:
168,307,20566,1,0,1:0:0:0:
41,212,20786,1,0,1:0:0:0:
41,212,20896,2,0,B|100:250|176:217,1,120,8|0,1:2|0:0,0:0:0:0:
222,185,21225,1,0,1:0:0:0:
380,262,21445,2,0,L|428:331,1,60,0|8,0:0|1:2,0:0:0:0:
447,104,21775,2,0,L|390:128,1,60,0|0,0:0|1:0,0:0:0:0:
230,87,22105,2,0,B|221:26,1,60,0|8,1:0|1:2,0:0:0:0:
221,27,22544,6,0,L|203:214,1,180,0|8,1:0|1:2,0:0:0:0:
408,317,23203,2,0,B|346:286|344:190,1,120,0|0,1:0|0:0,0:0:0:0:
378,151,23533,1,8,1:2:0:0:
287,321,23753,1,0,1:0:0:0:
287,321,23863,2,0,B|236:268|153:297,1,120,0|0,0:0|1:0,0:0:0:0:
109,329,24192,1,8,1:2:0:0:
234,166,24522,2,0,B|304:163|326:89,1,120,0|0,1:0|0:0,0:0:0:0:
244,87,24852,2,0,B|313:110|313:190,1,120,8|0,1:2|0:0,0:0:0:0:
295,26,25181,1,0,1:0:0:0:
479,192,25511,5,8,1:2:0:0:
31,192,25841,1,0,1:0:0:0:
256,351,26170,1,8,1:2:0:0:
255,34,26390,1,0,1:0:0:0:
255,34,26500,1,0,1:0:0:0:
383,258,26720,5,0,1:0:0:0:
383,258,26830,2,0,B|326:276|227:260,1,120,8|0,1:2|0:0,0:0:0:0:
193,250,27159,1,0,1:0:0:0:
191,71,27379,1,8,1:2:0:0:
193,250,27489,1,8,1:2:0:0:
451,121,27819,6,0,B|526:190|480:303,1,180,4|8,1:0|1:2,0:0:0:0:
486,286,28478,1,0,1:0:0:0:
197,288,28698,1,0,0:0:0:0:
197,288,28808,1,8,1:2:0:0:
180,201,29028,2,0,L|204:23,1,180,0|0,1:0|1:0,0:0:0:0:
127,47,29467,1,8,1:2:0:0:
353,174,29797,2,0,B|320:232|341:290,1,120,0|0,1:0|0:0,0:0:0:0:
353,174,30127,2,0,B|374:112|346:44,1,120,8|0,1:2|0:0,0:0:0:0:
415,241,30456,2,0,L|193:205,1,180,0|8,1:0|1:2,0:0:0:0:
24,85,31116,5,0,1:0:0:0:
0,182,31335,1,0,1:0:0:0:
0,182,31445,2,0,L|12:305,1,120,8|0,1:2|0:0,0:0:0:0:
77,341,31775,1,0,1:0:0:0:
236,300,31995,2,0,L|300:330,1,60,0|8,0:0|1:2,0:0:0:0:
431,226,32324,2,0,L|491:168,1,60,0|0,0:0|1:0,0:0:0:0:
245,124,32654,1,0,1:0:0:0:
245,124,32764,2,0,B|194:130|184:76|130:80,1,120,8|0,1:2|0:0,0:0:0:0:
80,29,33094,2,0,B|182:61|267:26,1,180,0|8,1:0|1:2,0:0:0:0:
487,109,33753,5,0,1:0:0:0:
336,199,33973,2,0,L|329:269,1,60,0|8,0:0|1:2,0:0:0:0:
110,158,34302,2,0,L|147:357,1,180,0|0,1:0|1:0,0:0:0:0:
209,295,34742,2,0,L|184:166,1,120,8|0,1:2|0:0,0:0:0:0:
262,192,35072,1,0,1:0:0:0:
420,320,35291,1,0,0:0:0:0:
420,320,35401,2,0,L|387:170,1,120,8|0,1:2|0:0,0:0:0:0:
431,136,35731,5,0,1:0:0:0:
117,36,36061,1,4,1:0:0:0:
33,327,36390,1,0,1:0:0:0:
130,243,36610,1,0,1:0:0:0:
130,243,36720,1,8,1:2:0:0:
384,331,36940,6,0,B|302:241|398:178,1,180,0|0,1:0|1:0,0:0:0:0:
462,147,37379,2,0,B|391:147|357:74,1,120,8|0,1:2|0:0,0:0:0:0:
443,64,37709,1,0,1:0:0:0:
462,147,37819,1,0,1:0:0:0:
413,215,37929,1,8,1:2:0:0:
330,210,38039,2,0,B|300:207|271:185,1,60,8|8,1:2|3:0,0:0:0:0:
113,169,38258,5,4,3:0:0:0:
113,169,38368,2,0,B|58:232|136:285,1,120,4|0,1:0|0:0,0:0:0:0:
189,210,38698,2,0,B|231:144|163:97,1,120,8|0,1:2|0:0,0:0:0:0:
103,79,39028,1,0,1:0:0:0:
285,154,39247,1,0,1:0:0:0:
285,154,39357,1,8,1:2:0:0:
461,77,39577,2,0,B|374:148|462:252,1,180,0|0,1:0|1:0,0:0:0:0:
512,274,40017,1,8,1:2:0:0:
322,330,40236,5,0,1:0:0:0:
322,330,40346,2,0,B|251:337|191:278,1,120,0|0,1:0|0:0,0:0:0:0:
155,352,40676,2,0,B|227:341|264:261,1,120,8|0,1:2|0:0,0:0:0:0:
319,250,41006,1,0,1:0:0:0:
76,148,41335,1,8,1:2:0:0:
373,33,41665,1,0,1:0:0:0:
264,105,41885,1,0,1:0:0:0:
264,105,41995,1,8,1:2:0:0:
427,200,42214,6,0,B|441:270|378:329|307:302,1,180,0|0,1:0|1:0,0:0:0:0:
309,232,42654,2,0,B|233:238|247:324,1,120,8|0,1:2|1:0,0:0:0:0:
292,374,42984,1,0,1:0:0:0:
357,170,43203,1,8,1:2:0:0:
357,170,43313,1,8,1:2:0:0:
178,56,43533,1,0,0:0:0:0:
178,56,43643,2,0,B|100:45|26:90,1,120,0|0,1:0|0:0,0:0:0:0:
0,114,43973,1,8,1:2:0:0:
176,306,44302,5,0,1:0:0:0:
254,254,44522,1,0,1:0:0:0:
254,254,44632,1,8,1:2:0:0:
458,292,44852,2,0,B|404:380|286:332,1,180,0|0,1:0|1:0,0:0:0:0:
349,274,45291,2,0,B|399:227|384:162,1,120,8|0,1:2|1:0,0:0:0:0:
312,176,45621,2,0,B|318:107|261:66,1,120,0|0,1:0|0:0,0:0:0:0:
200,37,45951,1,8,1:2:0:0:
460,66,46280,6,0,B|360:58|297:68,1,120,0|0,1:0|0:0,0:0:0:0:
267,70,46610,1,8,1:2:0:0:
92,152,46830,2,0,B|114:175|154:189,1,60,0|0,0:0|1:0,0:0:0:0:
241,343,47159,2,0,B|258:314|261:279,1,60,0|8,1:0|1:2,0:0:0:0:
440,232,47489,2,0,B|396:133|283:158,1,180,0|0,1:0|1:0,0:0:0:0:
224,134,47929,1,8,1:2:0:0:
84,114,48148,5,0,1:0:0:0:
148,198,48258,1,0,1:0:0:0:
37,194,48478,5,0,1:0:0:0:
207,264,48588,1,8,1:2:0:0:
72,285,48808,5,0,1:0:0:0:
277,316,48918,1,4,1:0:0:0:
421,65,49247,5,8,1:2:0:0:
500,241,49577,2,0,B|435:192|337:205,1,120,0|0,1:0|1:0,0:0:0:0:
313,207,49907,1,8,1:2:0:0:
68,143,50127,2,0,B|94:227|191:229|236:151,1,180,0|0,1:0|1:0,0:0:0:0:
258,123,50566,1,8,1:2:0:0:
500,241,50786,5,0,3:0:0:0:
500,241,50841,1,0,3:0:0:0:
500,241,50896,1,0,1:0:0:0:
180,338,51225,1,8,1:2:0:0:
327,50,51555,1,0,1:0:0:0:
430,349,51885,5,8,1:2:0:0:
234,257,52214,2,0,B|282:206|254:139,1,120,0|0,1:0|1:0,0:0:0:0:
215,87,52544,1,8,1:2:0:0:
338,201,52764,2,0,B|251:252|155:185,1,180,0|0,1:0|1:0,0:0:0:0:
116,133,53203,2,0,B|154:186|133:272,1,120,8|0,1:2|0:0,0:0:0:0:
212,254,53533,2,0,B|271:292|298:343,1,120,0|0,1:0|1:0,0:0:0:0:
357,298,53863,2,0,B|421:287|477:305,1,120,8|0,1:2|0:0,0:0:0:0:
512,367,54192,1,0,1:0:0:0:
388,119,54522,5,8,1:2:0:0:
318,41,54742,1,0,0:0:0:0:
318,41,54852,1,0,1:0:0:0:
215,28,55072,1,0,1:0:0:0:
215,28,55181,1,8,1:2:0:0:
419,68,55401,1,0,1:0:0:0:
419,68,55511,2,0,B|353:101|318:158,1,120,0|0,1:0|1:0,0:0:0:0:
290,207,55841,1,8,1:2:0:0:
91,93,56061,5,0,0:0:0:0:
91,93,56170,1,0,1:0:0:0:
391,198,56500,1,8,1:2:0:0:
106,346,56830,1,0,1:0:0:0:
326,291,57159,1,8,1:2:0:0:
118,204,57379,1,0,0:0:0:0:
118,204,57489,2,0,B|186:216|242:158,1,120,0|0,1:0|1:0,0:0:0:0:
269,108,57819,1,8,1:2:0:0:
477,235,58039,5,0,1:0:0:0:
477,235,58148,1,0,1:0:0:0:
416,325,58368,1,0,1:0:0:0:
416,325,58478,1,8,1:2:0:0:
308,359,58698,1,0,1:0:0:0:
308,359,58808,1,0,1:0:0:0:
191,345,59028,1,8,1:2:0:0:
191,345,59137,1,0,1:0:0:0:
123,305,59247,1,0,1:0:0:0:
82,243,59357,1,0,1:0:0:0:
57,173,59467,1,8,1:2:0:0:
478,190,59797,5,8,1:2:0:0:
255,34,60127,1,8,1:2:0:0:
33,192,60456,1,8,1:2:0:0:
256,351,60786,1,4,1:3:0:0:
375,139,61006,5,8,1:2:0:0:
375,139,61116,2,0,B|376:219|292:232,1,120,4|0,1:2|0:0,0:0:0:0:
299,150,61445,1,0,1:0:0:0:
310,228,61555,1,8,1:2:0:0:
242,265,61665,1,8,1:2:0:0:
232,190,61775,1,0,1:0:0:0:
220,114,61885,1,0,0:0:0:0:
286,73,61995,1,0,1:0:0:0:
353,33,62105,1,4,1:3:0:0:
405,244,62324,5,0,1:0:0:0:
405,244,62434,1,8,1:2:0:0:
125,352,62654,1,0,1:0:0:0:
125,352,62764,1,0,1:0:0:0:
46,72,62984,1,0,1:0:0:0:
46,72,63094,1,8,1:2:0:0:
353,33,63313,6,0,B|398:86|393:162|338:204|275:205|212:171|180:102|236:39,1,360,4|0,1:0|0:0,0:0:0:0:
295,94,64083,1,8,1:2:0:0:
93,14,64302,1,8,1:2:0:0:
248,352,64659,6,0,L|242:374,2,22.5,2|2|4,0:0|0:0|1:0,0:0:0:0:
467,110,65072,1,8,1:2:0:0:
330,348,65401,2,0,B|315:265|201:262,1,120,0|2,1:0|0:0,0:0:0:0:
268,193,65731,1,8,1:2:0:0:
346,33,65951,2,0,B|493:65|360:133,1,180,0|0,1:0|1:0,0:0:0:0:
296,94,66390,1,8,1:2:0:0:
30,114,66720,1,0,1:0:0:0:
174,350,66940,5,2,0:0:0:0:
174,350,67050,2,0,B|218:294|178:234,1,120,8|2,1:2|0:0,0:0:0:0:
119,291,67379,2,0,B|200:351|298:312,1,180,0|8,1:0|1:2,0:0:0:0:
435,65,68039,2,0,B|358:-2|220:39,1,180,0|8,1:0|1:2,0:0:0:0:
27,140,68588,1,2,0:0:0:0:
27,140,68698,2,0,B|85:189|181:154,1,120,0|0,1:0|0:0,0:0:0:0:
211,123,69028,2,0,B|157:69|81:98,1,120,8|0,1:2|0:0,0:0:0:0:
211,123,69357,2,0,B|276:169|341:138,1,120,0|2,1:0|0:0,0:0:0:0:
390,106,69687,1,8,1:2:0:0:
392,315,69907,6,0,B|367:332|315:321,1,60,2|0,0:0|1:0,0:0:0:0:
512,157,70236,1,0,0:0:0:0:
512,157,70346,1,8,1:2:0:0:
296,23,70566,1,0,0:0:0:0:
296,23,70676,1,0,1:0:0:0:
114,195,70896,1,0,0:0:0:0:
114,195,71006,1,8,1:2:0:0:
399,190,71225,6,0,B|270:196|235:49,1,180,0|0,1:0|1:0,0:0:0:0:
198,162,71665,2,0,B|272:211|339:133,1,120,8|0,1:2|0:0,0:0:0:0:
413,116,71995,2,0,B|378:176|288:157,1,120,0|0,1:0|0:0,0:0:0:0:
254,104,72324,1,8,1:2:0:0:
309,160,72434,1,2,0:0:0:0:
338,242,72544,1,2,0:0:0:0:
338,323,72654,1,0,1:0:0:0:
355,34,72984,1,8,1:2:0:0:
471,154,73203,5,0,0:0:0:0:
471,154,73313,1,0,1:0:0:0:
486,230,73423,1,2,0:0:0:0:
424,282,73533,1,2,0:0:0:0:
361,234,73643,1,8,1:2:0:0:
284,217,73753,1,2,0:0:0:0:
226,271,73863,1,2,0:0:0:0:
259,343,73973,1,0,1:0:0:0:
412,88,74192,5,0,0:0:0:0:
412,88,74302,2,0,B|350:122|280:108,1,120,12|0,1:2|0:0,0:0:0:0:
183,54,74632,1,8,1:2:0:0:
344,207,74852,5,8,1:2:0:0:
226,219,74962,1,0,1:0:0:0:
487,286,75181,5,0,1:0:0:0:
405,327,75291,2,0,B|327:378|196:343,1,180,4|8,1:0|1:2,0:0:0:0:
333,141,75951,2,0,B|265:171|186:152,1,120,0|2,1:0|0:0,0:0:0:0:
183,91,76280,1,8,1:2:0:0:
45,285,76500,2,0,B|-47:215|37:120,1,180,0|0,1:0|1:0,0:0:0:0:
97,96,76940,1,8,1:2:0:0:
233,287,77159,5,2,0:0:0:0:
233,287,77269,1,0,1:0:0:0:
274,221,77379,1,2,0:0:0:0:
351,240,77489,1,2,0:0:0:0:
376,316,77599,1,8,1:2:0:0:
455,323,77709,1,2,0:0:0:0:
492,252,77819,1,2,0:0:0:0:
471,175,77929,1,0,1:0:0:0:
357,32,78258,5,8,1:2:0:0:
104,23,78588,1,0,1:0:0:0:
11,302,78918,1,8,1:2:0:0:
382,345,79247,1,0,1:0:0:0:
370,153,79467,2,0,B|367:116|367:87,1,60,2|8,0:0|1:2,0:0:0:0:
151,335,79797,2,0,B|118:341|87:352,1,60,2|0,0:0|1:0,0:0:0:0:
179,169,80127,5,0,0:0:0:0:
179,169,80236,2,0,B|158:105|180:39,1,120,8|0,1:2|0:0,0:0:0:0:
245,28,80566,1,0,1:0:0:0:
256,348,80896,1,8,1:2:0:0:
463,181,81116,1,2,0:0:0:0:
463,181,81225,2,0,B|388:172|312:187,1,120,0|2,1:0|0:0,0:0:0:0:
269,186,81555,1,8,1:2:0:0:
117,187,81775,5,2,0:0:0:0:
117,187,81885,1,0,1:0:0:0:
329,334,82105,1,0,0:0:0:0:
329,334,82214,1,8,1:2:0:0:
408,75,82434,1,0,1:0:0:0:
408,75,82544,2,0,B|351:110|259:69,1,120,0|2,1:0|1:2,0:0:0:0:
232,30,82874,1,8,1:2:0:0:
32,351,83094,5,2,0:0:0:0:
32,351,83203,1,0,1:0:0:0:
489,288,83533,1,8,1:2:0:0:
330,32,83753,1,0,0:0:0:0:
330,32,83863,1,0,1:0:0:0:
73,123,84192,1,8,1:2:0:0:
195,285,84412,1,0,1:0:0:0:
195,285,84522,1,0,1:0:0:0:
328,199,84852,1,12,1:2:0:0:
219,119,85072,1,8,1:2:0:0:
219,119,85181,1,8,1:2:0:0:
235,207,85511,1,8,1:2:0:0:
491,224,85841,5,4,1:0:0:0:
386,255,86170,1,8,0:0:0:0:
278,284,86500,2,0,B|218:303|141:264,1,120
133,205,86830,1,8,0:0:0:0:
335,130,87050,2,0,L|401:152,1,60
144,71,87489,1,8,0:0:0:0:
144,71,87709,2,0,B|113:147|19:155|-20:60,1,180
32,25,88148,1,8,0:0:0:0:
207,288,88368,5,0,0:0:0:0:
207,288,88478,1,0,0:0:0:0:
306,36,88808,1,8,0:0:0:0:
379,344,89137,1,0,0:0:0:0:
475,258,89357,1,0,0:0:0:0:
475,258,89467,1,8,0:0:0:0:
455,135,89687,2,0,B|439:105|407:83,1,60
170,63,90017,5,0,1:0:0:0:
246,30,90127,1,8,1:2:0:0:
170,63,90346,5,0,1:0:0:0:
246,30,90456,1,0,1:0:0:0:
328,41,90566,1,8,1:2:0:0:
392,95,90676,1,8,1:2:0:0:
413,175,90786,1,0,1:0:0:0:
34,352,91116,6,0,L|102:331,1,60,0|0,1:0|0:0,0:0:0:0:
138,259,91335,1,8,1:2:0:0:
255,334,91445,6,0,L|337:356,1,60,0|0,1:0|0:0,0:0:0:0:
307,244,91665,1,8,1:2:0:0:
502,191,91775,6,0,L|482:112,1,60,8|0,1:2|0:0,0:0:0:0:
422,250,91995,1,0,1:0:0:0:
379,121,92105,5,8,1:2:0:0:
294,168,92215,1,8,1:2:0:0:
204,131,92324,1,8,1:2:0:0:
116,101,92434,2,0,L|136:164,1,60,0|0,1:0|0:0,0:0:0:0:
214,365,92654,5,0,1:0:0:0:
306,374,92764,1,8,1:2:0:0:
389,331,92874,1,8,1:2:0:0:
407,237,92984,1,8,1:2:0:0:
327,191,93094,1,0,1:0:0:0:
247,196,93203,1,0,1:0:0:0:
179,153,93313,1,8,1:3:0:0:
168,75,93423,1,4,1:3:0:0:
214,11,93533,1,4,1:3:0:0:
294,0,93643,1,4,1:3:0:0:
371,19,93753,1,4,1:0:0:0:
429,307,94083,5,8,1:2:0:0:
141,365,94412,1,0,1:0:0:0:
83,77,94632,1,0,1:0:0:0:
83,77,94742,1,8,1:2:0:0:
371,19,94962,2,0,B|439:39|460:125|401:172,1,180,4|0,1:0|1:0,0:0:0:0:
429,307,95401,1,8,1:2:0:0:
255,32,95731,5,0,1:0:0:0:
256,192,95951,1,8,1:2:0:0:
255,32,96061,1,8,1:2:0:0:
33,33,96280,5,0,1:0:0:0:
33,33,96390,1,8,1:2:0:0:
31,354,96720,1,12,1:2:0:0:
482,352,97050,1,0,1:0:0:0:
480,32,97269,1,0,1:0:0:0:
480,32,97379,1,12,1:2:0:0:
256,33,97599,5,0,1:0:0:0:
31,192,97929,1,8,1:2:0:0:
255,352,98258,1,8,1:2:0:0:
255,352,98368,1,8,1:2:0:0:
482,192,98698,1,8,1:3:0:0:
90,34,99028,5,8,1:2:0:0:
275,45,99247,1,0,0:0:0:0:
275,45,99357,1,2,0:0:0:0:
428,118,99577,1,2,0:0:0:0:
428,118,99687,1,0,0:0:0:0:
275,165,99907,1,0,0:0:0:0:
275,165,100017,1,2,0:0:0:0:
164,242,100236,1,2,0:0:0:0:
164,242,100346,1,0,1:0:0:0:
276,260,100566,1,0,1:0:0:0:
276,260,100676,1,0,1:0:0:0:
365,293,100896,1,0,1:0:0:0:
255,352,101335,1,4,1:0:0:0:
