osu file format v14

[General]
AudioFilename: audio.mp3
AudioLeadIn: 0
PreviewTime: 81605
Countdown: 0
SampleSet: Soft
StackLeniency: 0.7
Mode: 0
LetterboxInBreaks: 0
EpilepsyWarning: 1
WidescreenStoryboard: 1

[Editor]
Bookmarks: 13902,120930,227957
DistanceSpacing: 1.5
BeatDivisor: 4
GridSize: 4
TimelineZoom: 1

[Metadata]
Title:Weight of the World Kowaretasekainouta
TitleUnicode:Weight of the World/壊レタ世界ノ歌
Artist:Kawano Marina
ArtistUnicode:河野万里奈
Creator:Lilyanna
Version:Believing
Source:NieR:Automata
Tags:Kalibe Keiichi Okabe japanese version -Vanilla
BeatmapID:1262823
BeatmapSetID:597326

[Difficulty]
HPDrainRate:6
CircleSize:4.6
OverallDifficulty:7
ApproachRate:8
SliderMultiplier:2.4
SliderTickRate:1

[Events]
//Background and Video events
0,0,"bg.jpg",0,0
//Break Periods
2,317345,319639
//Storyboard Layer 0 (Background)
//Storyboard Layer 1 (Fail)
//Storyboard Layer 2 (Pass)
//Storyboard Layer 3 (Foreground)
//Storyboard Sound Samples

[TimingPoints]
930,810.810810810811,4,2,1,35,1,0
81605,-200,4,2,1,30,0,0
82011,-100,4,2,1,60,0,1
94578,-200,4,2,1,60,0,1
94984,-100,4,2,1,60,0,1
107957,-133.333333333333,4,2,1,25,0,0
116977,-133.333333333333,4,2,1,5,0,0
117686,-133.333333333333,4,2,1,40,0,0
120930,-100,4,2,1,25,0,0
188632,-200,4,2,1,25,0,0
189038,-100,4,2,1,60,0,1
201605,-200,4,2,1,60,0,1
202011,-100,4,2,1,60,0,1
214984,-133.333333333333,4,2,1,25,0,0
224004,-133.333333333333,4,2,1,5,0,0
224713,-133.333333333333,4,2,1,25,0,0
227957,-100,4,2,1,25,0,0
253902,-142.857142857143,4,2,1,25,0,0
255524,-200,4,2,1,25,0,0
257146,-133.333333333333,4,2,1,25,0,0
283092,-100,4,2,1,60,0,1
295659,-200,4,2,1,60,0,1
296065,-100,4,2,1,60,0,1
309038,-133.333333333333,4,2,1,25,0,0
320389,810.810810810811,4,2,1,20,1,0
320389,-100,4,2,1,20,0,0
335794,-100,4,2,1,10,0,0
337416,-100,4,2,1,5,0,0

[Colours]
Combo1 : 99,99,50
Combo2 : 40,143,162
Combo3 : 179,179,100
Combo4 : 0,196,196

[HitObjects]
396,89,13902,6,0,P|419:153|397:213,1,120,6|0,0:0|0:0,0:0:0:0:
327,151,14511,1,0,0:0:0:0:
446,285,14916,1,0,0:0:0:0:
281,211,15321,2,0,L|156:197,2,120
64,48,16740,1,4,0:0:0:0:
64,48,17146,6,0,P|65:103|69:175,1,120,6|0,0:0|0:0,0:0:0:0:
72,257,17754,1,0,0:0:0:0:
232,170,18159,1,0,0:0:0:0:
132,319,18565,1,0,0:0:0:0:
147,139,18970,1,0,0:0:0:0:
232,170,19173,1,0,0:0:0:0:
163,228,19375,1,0,0:0:0:0:
436,319,20389,6,0,P|458:248|434:193,1,120,6|0,0:0|0:0,0:0:0:0:
367,257,20998,1,0,0:0:0:0:
486,123,21403,1,0,0:0:0:0:
321,196,21808,1,0,0:0:0:0:
374,24,22213,1,0,0:0:0:0:
451,50,22416,1,0,0:0:0:0:
387,112,22618,1,0,0:0:0:0:
154,254,23227,1,4,0:0:0:0:
154,254,23632,6,0,L|149:129,1,120,6|0,0:0|0:0,0:0:0:0:
71,87,24240,1,0,0:0:0:0:
252,81,24646,1,0,0:0:0:0:
173,243,25051,1,0,0:0:0:0:
20,339,25457,1,0,0:0:0:0:
111,329,25660,1,0,0:0:0:0:
61,256,25862,1,0,0:0:0:0:
398,58,26875,5,6,0:0:0:0:
404,238,27281,2,0,L|329:234,1,60,0|0,0:0|0:0,0:0:0:0:
380,151,27686,2,0,L|319:106,1,60,0|0,0:0|0:0,0:0:0:0:
241,114,28092,1,0,0:0:0:0:
241,114,28294,2,0,P|274:43|338:27,1,120,0|0,0:0|0:0,0:0:0:0:
167,47,28902,2,0,P|147:108|19:119,1,180,0|0,0:0|0:0,0:0:0:0:
78,51,29713,1,4,0:0:0:0:
56,230,30119,5,6,0:0:0:0:
223,164,30524,2,0,L|248:234,1,60,0|0,0:0|0:0,0:0:0:0:
152,220,30929,2,0,L|135:293,1,60
194,350,31335,1,0,0:0:0:0:
272,304,31538,2,0,P|341:293|405:318,1,120
458,252,32146,2,0,P|442:194|454:136,1,120
293,54,32957,1,0,0:0:0:0:
259,139,33159,1,0,0:0:0:0:
167,155,33362,6,0,P|222:225|352:143,1,240,6|0,0:0|0:0,0:0:0:0:
259,139,34375,1,0,0:0:0:0:
439,131,34781,1,0,0:0:0:0:
439,131,35186,1,0,0:0:0:0:
367,75,35389,1,0,0:0:0:0:
286,115,35592,1,0,0:0:0:0:
196,108,35794,2,0,L|133:121,1,60,0|0,0:0|0:0,0:0:0:0:
64,228,36200,2,0,L|122:215,1,60,4|0,0:0|0:0,0:0:0:0:
215,265,36605,6,0,L|219:346,2,60,6|0|0,0:0|0:0|0:0,0:0:0:0:
296,227,37213,2,0,L|303:349,1,120,0|0,0:0|0:0,0:0:0:0:
368,178,38024,1,0,0:0:0:0:
368,178,38430,1,0,0:0:0:0:
296,123,38633,1,0,0:0:0:0:
369,71,38835,1,0,0:0:0:0:
443,120,39038,2,0,P|459:187|386:273,1,180,2|0,0:0|0:0,0:0:0:0:
316,312,39848,5,6,0:0:0:0:
295,132,40254,2,0,L|220:136,1,60,0|0,0:0|0:0,0:0:0:0:
271,219,40659,2,0,L|210:264,1,60,0|0,0:0|0:0,0:0:0:0:
135,256,41065,1,0,0:0:0:0:
135,256,41267,2,0,P|168:323|224:342,1,120,0|0,0:0|0:0,0:0:0:0:
290,322,41875,2,0,P|360:270|451:319,1,180
371,358,42686,1,4,0:0:0:0:
470,210,43092,5,6,0:0:0:0:
476,30,43498,2,0,L|401:34,1,60,0|0,0:0|0:0,0:0:0:0:
452,117,43903,2,0,L|391:162,1,60,0|0,0:0|0:0,0:0:0:0:
316,130,44308,1,0,0:0:0:0:
280,212,44511,2,0,P|232:160|232:100,1,120,0|0,0:0|0:0,0:0:0:0:
138,110,45119,2,0,P|129:168|86:208,1,120,0|0,0:0|0:0,0:0:0:0:
233,312,45930,2,0,L|164:320,1,60,0|0,0:0|0:0,0:0:0:0:
292,368,46335,6,0,P|312:302|282:246,1,120,6|0,0:0|0:0,0:0:0:0:
349,186,46943,2,0,P|329:120|359:64,1,120
171,112,47754,1,0,0:0:0:0:
171,112,48160,1,0,0:0:0:0:
249,67,48363,1,0,0:0:0:0:
172,20,48565,1,0,0:0:0:0:
100,74,48767,2,0,P|92:124|98:146,1,60
130,273,49173,2,0,P|135:243|128:215,1,60,4|0,0:0|0:0,0:0:0:0:
166,356,49578,6,0,B|250:355,1,60,6|0,0:0|0:0,0:0:0:0:
237,269,49984,2,0,P|261:209|231:152,1,120
297,90,50592,2,0,P|351:111|405:87,1,120
404,87,51402,1,0,0:0:0:0:
451,163,51605,1,0,0:0:0:0:
425,249,51808,1,0,0:0:0:0:
338,310,52011,2,0,L|269:327,1,60
161,233,52416,2,0,L|230:250,1,60,0|0,0:0|0:0,0:0:0:0:
331,161,52821,6,0,P|352:99|317:37,1,120,6|0,0:0|0:0,0:0:0:0:
332,51,53632,1,2,0:0:0:0:
247,82,53835,1,2,0:0:0:0:
160,55,54038,1,2,0:0:0:0:
82,217,54443,2,0,B|59:278|59:278|76:351,1,120,6|0,0:0|0:0,0:0:0:0:
71,331,55254,1,2,0:0:0:0:
158,308,55457,1,2,0:0:0:0:
244,334,55660,1,6,0:0:0:0:
411,263,56065,6,0,P|423:182|421:166,1,60,6|0,0:0|0:0,0:0:0:0:
393,119,56470,2,0,P|317:86|301:84,1,60
266,144,56875,2,0,P|296:204|332:226,2,80
228,258,57686,2,0,P|165:233|109:256,1,120,2|0,0:0|0:0,0:0:0:0:
36,88,58497,2,0,L|27:8,2,60
63,174,59105,1,0,0:0:0:0:
154,173,59308,6,0,B|222:148|222:148|277:152,1,120,6|0,0:0|0:0,0:0:0:0:
226,72,59916,2,0,B|298:76|298:76|346:102,1,120,0|0,0:0|0:0,2:0:0:0:
430,255,60727,1,0,0:0:0:0:
430,255,60930,2,0,B|425:182|425:182|402:140,1,120,2|0,0:0|0:0,2:0:0:0:
495,309,61740,2,0,P|424:338|360:308,1,120,0|0,0:0|0:0,0:0:0:0:
214,279,62551,6,4,P|286:251|349:280,1,120,6|4,0:0|0:0,0:0:0:0:
130,328,63362,1,2,0:0:0:0:
41,313,63565,1,2,0:0:0:0:
89,237,63767,1,2,0:0:0:0:
75,26,64173,2,0,L|84:160,1,120,2|0,0:0|0:0,0:0:0:0:
193,288,64984,2,0,L|184:154,1,120,2|0,0:0|0:0,0:0:0:0:
320,50,65794,6,0,P|371:85|435:76,1,120,6|0,0:0|0:0,0:0:0:0:
426,80,66605,1,2,0:0:0:0:
398,165,66808,1,2,0:0:0:0:
431,248,67011,1,2,0:0:0:0:
260,304,67416,2,0,L|115:321,1,120,6|0,0:0|0:0,0:0:0:0:
140,317,68227,1,2,0:0:0:0:
168,232,68430,1,2,0:0:0:0:
135,149,68633,1,6,0:0:0:0:
293,47,69038,6,0,B|305:137,1,60,6|0,0:0|0:0,0:0:0:0:
382,144,69443,2,0,L|362:211,1,60
443,245,69848,2,0,L|374:335,2,80
325,271,70659,2,0,P|275:252|209:267,1,120,2|0,0:0|0:0,0:0:0:0:
380,201,71470,1,2,0:0:0:0:
387,111,71673,1,2,0:0:0:0:
308,72,71875,1,2,0:0:0:0:
239,140,72078,1,2,0:0:0:0:
274,223,72281,6,0,P|195:217|158:175,1,120,6|0,0:0|0:0,0:0:0:0:
124,112,72889,2,0,L|134:41,1,60
221,64,73294,2,0,L|212:124,1,60
254,203,73700,1,0,0:0:0:0:
326,255,73902,2,0,P|336:174|291:123,1,120
204,283,74713,2,0,L|194:354,1,60
106,349,75118,2,0,L|115:289,1,60
204,283,75524,6,0,B|276:260|350:324|350:324|295:223|344:159|344:159|433:203|478:114,1,480,2|2,0:0|0:0,0:0:0:0:
396,95,77957,2,0,L|388:26,1,60,0|0,0:0|0:0,0:0:0:0:
309,77,78362,2,0,L|280:14,1,60,0|0,0:0|0:0,0:0:0:0:
165,110,78767,6,0,B|191:164|148:217|148:217|185:282|140:343,1,240,6|0,0:0|0:0,0:0:0:0:
248,356,79781,2,0,P|263:294|259:262,1,80
344,86,80389,2,0,P|325:158|338:220,1,120,0|0,1:0|0:0,0:0:0:0:
396,360,80997,2,0,P|415:288|402:226,1,120,0|0,1:0|0:0,0:0:0:0:
446,96,81605,6,0,L|452:125,1,30,4|0,0:0|0:0,0:0:0:0:
431,252,82011,5,4,1:0:0:0:
314,220,82213,1,0,1:0:0:0:
422,272,82416,1,0,1:0:0:0:
305,241,82619,2,0,P|269:231|223:235,1,60,0|0,1:0|0:0,0:0:0:0:
160,232,83024,2,0,P|121:235|77:222,1,60
49,107,83430,2,0,P|137:131|237:101,1,180,0|0,0:0|0:0,0:0:0:0:
405,57,84443,1,0,1:0:0:0:
330,118,84646,1,0,1:0:0:0:
480,115,84848,2,0,L|486:197,1,60,0|0,1:0|0:0,0:0:0:0:
486,275,85254,5,4,1:0:0:0:
361,302,85456,1,0,1:0:0:0:
477,255,85659,1,0,1:0:0:0:
352,281,85862,2,0,P|286:290|224:276,1,120,0|0,1:0|0:0,0:0:0:0:
53,345,86673,2,0,L|35:285,1,60,0|0,0:0|0:0,0:0:0:0:
105,220,87078,1,0,0:0:0:0:
105,220,87281,2,0,B|93:191|112:154|112:154|82:118|93:72,1,120,0|0,0:0|1:0,0:0:0:0:
143,21,87889,1,0,1:0:0:0:
188,181,88092,1,0,1:0:0:0:
164,101,88294,1,0,0:0:0:0:
255,50,88497,6,0,P|317:69|393:55,1,120,4|0,0:0|0:0,0:0:0:0:
422,144,89105,2,0,P|403:205|417:282,1,120,4|0,0:0|0:0,0:0:0:0:
239,352,89916,2,0,P|244:292|225:235,1,120
209,142,90524,2,0,P|251:150|275:163,1,60,0|0,3:0|0:0,0:0:0:0:
288,65,90930,2,0,P|319:94|333:117,1,60,0|0,0:0|0:0,0:0:0:0:
395,39,91335,2,0,P|406:80|406:107,1,60,0|0,0:0|0:0,0:0:0:0:
342,197,91740,6,0,P|305:232|231:235,1,120,4|0,0:0|0:0,0:0:0:0:
141,224,92348,1,4,0:0:0:0:
58,171,92551,2,0,P|95:136|170:128,1,120,0|0,0:0|0:0,0:0:0:0:
141,224,93159,1,0,0:0:0:0:
247,109,93362,1,0,1:0:0:0:
377,249,93767,21,0,3:0:0:0:
345,158,93970,1,0,1:0:0:0:
411,338,94173,1,2,3:0:0:0:
430,75,94578,6,0,L|428:125,1,30,0|0,1:0|0:0,0:0:0:0:
294,237,94984,5,4,1:0:0:0:
174,269,95186,1,0,1:0:0:0:
218,183,95389,1,0,1:0:0:0:
211,342,95592,2,0,P|139:340|117:320,1,60,0|0,1:0|0:0,0:0:0:0:
84,275,95997,2,0,P|156:277|178:297,1,60
40,124,96402,2,0,B|12:177|35:222|35:222|0:256|19:324,1,180
84,275,97213,1,0,0:0:0:0:
178,106,97416,1,0,1:0:0:0:
168,216,97619,1,0,1:0:0:0:
252,123,97821,2,0,P|248:73|230:45,1,60,0|0,1:0|0:0,0:0:0:0:
270,197,98227,5,4,1:0:0:0:
390,165,98429,1,0,1:0:0:0:
346,251,98632,1,0,1:0:0:0:
353,92,98835,2,0,P|411:86|459:122,1,120,0|0,1:0|0:0,0:0:0:0:
381,323,99646,2,0,P|322:326|276:289,1,120,0|0,0:0|0:0,0:0:0:0:
201,229,100254,2,0,L|192:309,1,60,0|0,0:0|3:0,0:0:0:0:
109,243,100659,2,0,L|118:323,1,60,0|0,0:0|3:0,0:0:0:0:
56,166,101065,1,0,0:0:0:0:
116,92,101267,1,0,0:0:0:0:
184,159,101470,6,0,L|310:170,1,120,4|0,0:0|0:0,0:0:0:0:
241,242,102078,2,0,L|367:253,1,120,4|0,0:0|0:0,0:0:0:0:
404,50,102889,2,0,P|413:137|401:178,1,120,0|0,0:0|0:0,0:0:0:0:
360,252,103497,1,0,3:0:0:0:
304,170,103700,1,0,0:0:0:0:
278,262,103902,2,0,L|277:344,1,60,0|0,0:0|0:0,0:0:0:0:
180,322,104308,2,0,L|177:241,1,60
88,124,104713,6,0,B|77:184|77:184|81:270,1,120,4|0,0:0|0:0,0:0:0:0:
158,188,105321,2,0,B|169:128|169:128|165:42,1,120,4|0,0:0|0:0,0:0:0:0:
255,32,105930,2,0,L|257:106,1,60,0|0,0:0|0:0,0:0:0:0:
254,240,106335,1,0,1:0:0:0:
363,125,106538,1,0,3:0:0:0:
363,125,106943,5,0,1:0:0:0:
331,34,107146,1,0,3:0:0:0:
393,207,107349,1,0,3:0:0:0:
490,113,107551,1,0,1:0:0:0:
424,287,107754,1,0,3:0:0:0:
290,121,107957,38,0,B|235:108|218:48|218:48|154:149|48:100,1,270.000010299683,2|0,0:0|0:0,0:0:0:0:
65,255,109578,2,0,B|94:335|195:326|195:326|181:258|181:258|132:222,1,270.000010299683,2|0,0:0|0:0,0:0:0:0:
250,132,111200,6,0,B|275:180|251:234|251:234|266:301|266:301|352:258|357:205,1,270.000010299683,2|0,0:0|0:0,0:0:0:0:
341,243,112821,1,2,0:0:0:0:
382,184,113024,1,2,0:0:0:0:
380,111,113227,1,2,0:0:0:0:
343,48,113430,2,0,P|283:55|230:44,1,90.0000034332277,2|0,0:0|0:0,0:0:0:0:
54,134,114443,5,2,0:0:0:0:
13,193,114646,1,2,0:0:0:0:
15,266,114849,1,2,0:0:0:0:
52,329,115052,2,0,P|112:322|165:333,1,90.0000034332277,2|0,0:0|0:0,0:0:0:0:
202,289,115659,2,0,P|246:293|291:285,1,90.0000034332277,2|2,0:0|0:0,0:0:0:0:
459,51,116875,2,0,L|447:89,1,22.5000008583069,2|0,0:0|0:0,0:0:0:0:
198,161,117686,5,4,0:0:0:0:
256,192,117889,12,4,120524,0:0:0:0:
416,332,120930,6,0,L|221:288,1,180,4|0,1:0|3:0,0:0:0:0:
192,208,121740,2,0,L|116:224,1,60,0|0,3:0|0:0,0:0:0:0:
12,364,122146,2,0,P|52:328|52:264,1,120,0|0,0:0|0:0,0:0:0:0:
40,244,122754,5,0,0:0:0:0:
91,300,122957,1,0,0:0:0:0:
167,305,123159,1,0,0:0:0:0:
234,268,123362,1,0,1:0:0:0:
234,268,123767,2,0,L|304:288,1,60,0|0,1:0|0:0,0:0:0:0:
336,376,124173,5,0,1:0:0:0:
336,376,124375,2,0,P|388:360|460:348,1,120,0|0,1:0|3:0,0:0:0:0:
512,276,124984,2,0,P|452:266|395:248,1,120,0|0,3:0|0:0,0:0:0:0:
264,152,125794,1,0,0:0:0:0:
251,135,125997,1,0,0:0:0:0:
325,113,126200,1,0,0:0:0:0:
391,150,126402,1,0,0:0:0:0:
312,264,126605,2,0,L|248:248,1,60,0|0,1:0|0:0,0:0:0:0:
160,160,127011,2,0,L|220:144,1,60,0|0,0:0|0:0,0:0:0:0:
344,84,127416,5,0,1:0:0:0:
344,84,127619,1,0,1:0:0:0:
280,24,127821,2,0,P|240:16|204:4,1,60,0|0,0:0|3:0,0:0:0:0:
156,84,128227,2,0,P|116:94|96:102,1,60,0|0,3:0|0:0,0:0:0:0:
24,56,128632,1,0,0:0:0:0:
24,56,128835,2,0,B|-12:128|56:156|10:236,1,180,0|0,0:0|1:0,0:0:0:0:
0,256,129646,1,0,0:0:0:0:
30,345,129848,2,0,P|82:289|194:301,1,180,0|0,1:0|0:0,0:0:0:0:
204,312,130659,5,0,1:0:0:0:
316,260,130862,1,0,1:0:0:0:
228,184,131065,2,0,L|248:260,1,60
286,347,131470,1,0,1:0:0:0:
286,347,131673,2,0,L|310:279,1,60,0|0,0:0|1:0,0:0:0:0:
440,240,132078,1,0,0:0:0:0:
440,240,132281,2,0,P|384:248|328:208,1,120,0|0,1:0|1:0,0:0:0:0:
164,140,133092,2,0,P|220:148|276:108,1,120,0|0,1:0|1:0,0:0:0:0:
512,40,133902,6,0,B|460:16|424:44|392:72|336:40,1,180,4|0,0:0|0:0,0:0:0:0:
338,41,134713,2,0,L|368:160,1,120,0|0,0:0|0:0,0:0:0:0:
432,264,135321,2,0,P|380:228|328:240,1,120,0|0,0:0|0:0,0:0:0:0:
272,308,135930,2,0,P|260:340|252:368,1,60,0|0,0:0|0:0,0:0:0:0:
180,296,136335,2,0,P|122:314|59:328,1,120,0|0,1:0|1:0,0:0:0:0:
36,336,137146,5,6,0:0:0:0:
110,275,137348,1,0,1:0:0:0:
49,200,137551,2,0,L|30:258,1,60,0|0,0:0|0:0,0:0:0:0:
161,353,137957,2,0,L|179:295,1,60,0|0,0:0|0:0,0:0:0:0:
260,216,138362,1,0,3:0:0:0:
153,215,138565,6,0,P|211:205|280:195,1,120,0|0,0:0|0:0,0:0:0:0:
351,247,139173,1,0,0:0:0:0:
283,179,139375,1,0,0:0:0:0:
372,116,139578,2,0,P|402:124|435:133,1,60
500,252,139984,2,0,P|471:243|442:236,1,60
300,266,140389,5,6,0:0:0:0:
392,316,140592,2,0,P|334:305|282:338,1,120,0|0,1:0|0:0,0:0:0:0:
188,372,141200,2,0,P|164:303|149:253,1,120,0|0,0:0|0:0,0:0:0:0:
64,196,141808,2,0,P|29:207|1:215,1,60
68,100,142213,2,0,P|96:109|125:117,1,60,2|0,0:0|1:0,0:0:0:0:
213,176,142619,1,0,1:0:0:0:
145,243,142821,1,0,1:0:0:0:
145,243,143024,1,0,0:0:0:0:
213,176,143227,2,0,P|228:142|237:115,1,60,0|0,0:0|0:0,0:0:0:0:
209,27,143632,5,6,0:0:0:0:
209,27,143835,2,0,P|281:45|322:20,1,120,0|0,1:0|0:0,0:0:0:0:
411,1,144443,2,0,L|487:18,1,60,0|0,0:0|0:0,0:0:0:0:
408,104,144848,2,0,L|347:89,1,60
480,52,145254,2,0,P|497:106|466:172,1,120,0|0,1:0|0:0,0:0:0:0:
403,215,145862,1,0,0:0:0:0:
403,215,146065,2,0,P|387:158|407:103,1,120,2|0,0:0|1:0,0:0:0:0:
492,287,146875,6,0,B|416:255|392:343|316:299,1,180,6|0,0:0|0:0,0:0:0:0:
320,301,147686,2,0,P|260:271|216:295,1,120
147,350,148294,2,0,P|83:330|15:318,1,120
108,256,148902,2,0,P|139:248|176:232,1,60,0|0,0:0|0:0,0:0:0:0:
41,201,149308,2,0,P|9:257|29:305,1,120,0|0,0:0|1:0,0:0:0:0:
198,215,150119,5,6,0:0:0:0:
124,172,150321,1,0,1:0:0:0:
41,201,150524,2,0,P|24:164|17:128,1,60,0|0,0:0|0:0,0:0:0:0:
160,96,150930,2,0,P|151:124|138:151,1,60,0|0,0:0|0:0,0:0:0:0:
93,48,151335,1,0,0:0:0:0:
93,48,151538,2,0,P|141:12|200:22,1,120,0|0,0:0|0:0,0:0:0:0:
269,83,152146,2,0,B|340:100|340:100|381:74,1,120,0|0,0:0|0:0,0:0:0:0:
461,24,152754,1,0,0:0:0:0:
399,81,152957,1,0,0:0:0:0:
448,160,153159,1,0,0:0:0:0:
373,222,153362,5,6,0:0:0:0:
373,222,153565,2,0,P|311:206|240:196,1,120,0|0,1:0|0:0,0:0:0:0:
164,300,154173,2,0,P|223:290|281:275,1,120,0|0,0:0|0:0,0:0:0:0:
373,222,154781,2,0,P|351:280|377:334,1,120,0|0,0:0|0:0,0:0:0:0:
482,290,155389,2,0,L|419:275,1,60,0|0,0:0|0:0,0:0:0:0:
296,344,155794,2,0,P|256:336|233:330,1,60,0|0,0:0|0:0,0:0:0:0:
152,280,156200,2,0,P|112:292|92:300,1,60,0|0,0:0|0:0,0:0:0:0:
32,356,156605,5,6,0:0:0:0:
32,356,156808,2,0,P|100:384|152:360,1,120,0|0,1:0|0:0,0:0:0:0:
232,320,157416,2,0,P|223:277|212:248,1,60,0|0,0:0|0:0,0:0:0:0:
152,192,157821,2,0,P|164:140|172:120,1,60,0|0,0:0|0:0,0:0:0:0:
232,60,158227,2,0,P|176:92|120:76,1,120
54,33,158835,1,0,0:0:0:0:
144,66,159038,5,0,0:0:0:0:
70,127,159240,1,0,0:0:0:0:
152,192,159443,1,0,1:0:0:0:
152,192,159848,6,0,P|208:176|278:166,1,120,6|0,0:0|0:0,0:0:0:0:
336,128,160457,1,0,0:0:0:0:
413,184,160659,5,2,0:0:0:0:
347,113,160862,1,2,0:0:0:0:
268,166,161065,1,2,0:0:0:0:
268,166,161470,6,0,P|276:225|293:282,1,120,6|0,0:0|0:0,0:0:0:0:
356,328,162079,1,0,0:0:0:0:
270,285,162281,5,2,0:0:0:0:
197,347,162484,1,2,0:0:0:0:
103,322,162687,1,2,0:0:0:0:
103,322,163092,6,0,L|44:333,1,60,6|0,0:0|0:0,0:0:0:0:
128,240,163497,2,0,L|69:251,1,60,0|0,0:0|0:0,0:0:0:0:
156,160,163902,2,0,L|67:175,2,80,0|2|2,0:0|0:0|0:0,0:0:0:0:
266,95,164713,6,0,P|238:134|238:203,1,120,2|0,0:0|0:0,0:0:0:0:
311,265,165321,1,0,0:0:0:0:
311,265,165524,2,0,P|342:253|385:243,1,60,0|0,0:0|0:0,0:0:0:0:
424,180,165930,2,0,P|393:168|350:158,1,60,0|0,0:0|0:0,0:0:0:0:
349,350,166335,6,0,P|381:306|365:242,1,120,6|0,0:0|0:0,0:0:0:0:
332,112,166943,2,0,L|348:176,1,60,0|0,0:0|0:0,0:0:0:0:
224,256,167348,2,0,L|244:192,1,60,0|0,0:0|0:0,0:0:0:0:
313,289,167754,2,0,B|253:261|223:296|193:329|133:293,1,180
116,276,168565,1,0,0:0:0:0:
49,335,168767,2,0,P|28:284|48:218,1,120
123,58,169578,6,0,P|139:114|110:173,1,120,6|0,0:0|0:0,0:0:0:0:
44,223,170186,1,0,0:0:0:0:
116,276,170389,2,0,L|188:257,1,60
232,176,170794,2,0,L|290:191,1,60,0|0,0:0|0:0,0:0:0:0:
363,253,171200,2,0,B|292:235|292:235|250:269,1,120,2|0,0:0|0:0,0:0:0:0:
130,119,172011,2,0,B|201:136|201:136|243:102,1,120,2|0,0:0|0:0,0:0:0:0:
405,14,172821,6,0,B|365:98|438:108|396:188,1,180,6|0,0:0|0:0,0:0:0:0:
316,239,173632,1,2,0:0:0:0:
388,175,173835,1,2,0:0:0:0:
475,215,174038,1,2,0:0:0:0:
336,347,174443,6,0,B|271:329|271:329|225:344|225:344|161:326,1,180,6|0,0:0|0:0,0:0:0:0:
70,301,175254,1,2,0:0:0:0:
156,343,175457,1,2,0:0:0:0:
214,267,175659,1,2,0:0:0:0:
28,216,176065,6,0,L|56:312,1,60,6|0,0:0|0:0,0:0:0:0:
92,156,176470,2,0,L|120:252,1,60,0|0,0:0|0:0,0:0:0:0:
156,96,176875,2,0,L|188:196,2,80,0|2|2,0:0|0:0|0:0,0:0:0:0:
121,219,177686,6,0,P|175:248|238:225,1,120,2|0,0:0|0:0,0:0:0:0:
380,114,178497,1,2,0:0:0:0:
331,197,178700,1,2,0:0:0:0:
417,237,178902,1,2,0:0:0:0:
344,180,179105,1,2,0:0:0:0:
261,236,179308,6,0,P|239:278|231:300,1,60,4|0,1:0|0:0,0:0:0:0:
158,347,179713,1,0,0:0:0:0:
158,347,179916,2,0,P|217:333|272:364,1,120,0|0,0:0|0:0,0:0:0:0:
335,291,180524,1,0,0:0:0:0:
390,369,180727,6,0,P|368:310|350:242,1,120,0|0,0:0|0:0,0:0:0:0:
240,168,181335,2,0,P|265:183|293:195,1,60,0|0,0:0|0:0,0:0:0:0:
432,256,181740,2,0,P|459:244|485:228,1,60
436,144,182146,2,0,P|408:155|382:171,1,60,0|0,0:0|0:0,0:0:0:0:
316,272,182551,6,0,B|240:232|224:312|140:264,1,180,6|0,0:0|0:0,0:0:0:0:
83,332,183362,2,0,P|55:286|71:213,1,120
121,151,183970,1,0,0:0:0:0:
82,74,184173,1,0,0:0:0:0:
82,74,184578,2,0,P|36:57|19:53,1,60,0|0,0:0|0:0,0:0:0:0:
121,151,184984,2,0,P|166:134|184:130,1,60
216,44,185389,2,0,P|243:55|272:63,1,60,0|0,3:0|0:0,0:0:0:0:
367,47,185794,6,0,P|283:102|291:180,1,180,6|0,0:0|0:0,0:0:0:0:
351,244,186605,1,0,0:0:0:0:
288,316,186808,2,0,P|245:305|198:298,1,80,2|2,0:0|0:0,0:0:0:0:
59,244,187416,2,0,P|121:258|170:222,1,120,0|0,1:0|0:0,0:0:0:0:
224,153,188024,1,0,1:0:0:0:
100,104,188227,2,0,P|137:113|160:120,1,60
320,180,188632,6,0,P|296:184|272:192,1,30,4|0,0:0|0:0,0:0:0:0:
165,228,189038,5,4,1:0:0:0:
245,250,189240,1,0,1:0:0:0:
320,180,189443,1,0,1:0:0:0:
416,204,189646,1,0,1:0:0:0:
416,204,190051,2,0,P|446:194|486:192,1,60,0|0,0:0|0:0,0:0:0:0:
512,297,190457,6,0,B|464:270|428:299|387:333|332:297,1,180,0|0,0:0|0:0,0:0:0:0:
380,236,191267,1,0,0:0:0:0:
300,364,191470,1,0,1:0:0:0:
200,324,191673,1,0,1:0:0:0:
96,380,191875,2,0,L|32:372,1,60,0|0,1:0|0:0,0:0:0:0:
0,248,192281,5,4,1:0:0:0:
80,304,192484,1,0,1:0:0:0:
184,212,192686,1,0,1:0:0:0:
108,156,192889,2,0,P|68:164|50:170,1,60,0|0,1:0|0:0,0:0:0:0:
196,92,193294,2,0,P|224:100|254:106,1,60
108,36,193700,6,0,P|80:100|104:148,1,120,0|0,0:0|0:0,0:0:0:0:
184,212,194308,2,0,P|244:196|311:186,1,120
250,106,194916,1,0,1:0:0:0:
331,207,195119,1,0,1:0:0:0:
232,288,195321,1,0,1:0:0:0:
332,352,195524,6,0,P|400:368|444:336,1,120,4|0,0:0|0:0,0:0:0:0:
438,217,196132,2,0,P|386:189|330:207,1,120,4|0,0:0|0:0,0:0:0:0:
264,292,196740,1,0,0:0:0:0:
264,292,196943,6,0,B|188:252|168:332|88:282,1,180,0|0,0:0|3:0,0:0:0:0:
204,159,197957,1,0,1:0:0:0:
104,128,198159,1,0,1:0:0:0:
184,64,198362,2,0,L|199:131,1,60,0|0,1:0|0:0,0:0:0:0:
220,232,198767,6,0,P|153:218|88:206,1,120,4|0,0:0|0:0,0:0:0:0:
0,280,199375,2,0,P|58:291|117:303,1,120,4|0,0:0|0:0,0:0:0:0:
192,380,199984,2,0,L|284:360,1,60
384,304,200389,5,0,1:0:0:0:
384,304,200592,2,0,P|352:300|324:288,1,60,0|0,0:0|0:0,0:0:0:0:
192,228,200997,1,0,1:0:0:0:
192,228,201200,2,0,P|224:224|252:212,1,60,2|0,0:0|0:0,0:0:0:0:
352,148,201605,6,0,L|360:188,1,30,4|0,0:0|0:0,0:0:0:0:
512,176,202011,5,4,1:0:0:0:
432,144,202213,1,0,1:0:0:0:
348,216,202416,1,0,1:0:0:0:
256,188,202619,1,0,1:0:0:0:
256,188,203024,2,0,P|244:141|240:104,1,60,0|0,0:0|0:0,0:0:0:0:
332,44,203430,6,0,P|256:92|168:68,1,180,0|0,0:0|0:0,0:0:0:0:
84,4,204240,1,0,0:0:0:0:
160,84,204443,1,0,1:0:0:0:
68,132,204646,1,0,1:0:0:0:
160,204,204848,2,0,P|189:196|235:188,1,60,0|0,1:0|0:0,0:0:0:0:
380,264,205254,5,4,1:0:0:0:
304,220,205457,1,0,1:0:0:0:
216,300,205659,1,0,1:0:0:0:
112,264,205862,2,0,L|52:280,1,60,0|0,1:0|0:0,0:0:0:0:
152,364,206267,2,0,L|212:348,1,60
328,380,206673,6,0,P|296:332|317:273,1,120,0|0,0:0|0:0,0:0:0:0:
496,208,207281,2,0,P|447:240|391:223,1,120,0|0,0:0|1:0,0:0:0:0:
312,172,207889,1,0,1:0:0:0:
362,323,208092,1,0,1:0:0:0:
448,260,208294,1,0,0:0:0:0:
500,364,208497,6,0,P|433:344|384:336,1,120,4|0,0:0|0:0,0:0:0:0:
304,268,209105,2,0,P|246:285|187:296,1,120,4|0,0:0|0:0,0:0:0:0:
88,156,209713,1,0,0:0:0:0:
144,232,209916,2,0,P|148:296|108:336,1,120,0|0,0:0|0:0,0:0:0:0:
16,280,210524,2,0,L|76:268,1,60,0|0,3:0|0:0,0:0:0:0:
268,176,210930,2,0,L|209:187,1,60,0|0,0:0|0:0,0:0:0:0:
48,112,211335,2,0,L|106:123,1,60,0|0,0:0|0:0,0:0:0:0:
187,295,211740,6,0,L|306:315,1,120,4|0,0:0|0:0,0:0:0:0:
456,260,212348,1,4,0:0:0:0:
372,208,212551,2,0,P|333:215|304:224,1,60
344,384,212957,2,0,P|373:378|402:371,1,60,0|0,0:0|0:0,0:0:0:0:
512,312,213362,5,0,1:0:0:0:
432,272,213565,1,0,3:0:0:0:
512,216,213767,1,0,3:0:0:0:
436,352,213970,1,0,1:0:0:0:
306,315,214173,5,0,3:0:0:0:
231,336,214375,1,0,3:0:0:0:
88,272,214578,5,0,1:0:0:0:
163,290,214781,1,0,3:0:0:0:
276,240,214984,22,0,L|176:264,1,90.0000034332277,2|0,0:0|0:0,0:0:0:0:
0,293,215592,2,0,L|87:271,1,90.0000034332277
253,215,216605,5,2,0:0:0:0:
163,290,217011,1,0,0:0:0:0:
249,369,217416,1,0,0:0:0:0:
339,294,217822,1,0,0:0:0:0:
253,215,218227,6,0,B|209:193|173:218|173:218|125:253|78:230,1,180.000006866455,2|0,0:0|0:0,0:0:0:0:
6,143,219443,1,0,0:0:0:0:
6,143,219646,2,0,P|62:189|62:86,1,225.000008583069,0|0,0:0|0:0,0:0:0:0:
70,87,221470,6,0,L|121:74,1,45.0000017166138,2|2,0:0|0:0,0:0:0:0:
208,20,221875,1,2,0:0:0:0:
272,76,222078,1,2,0:0:0:0:
211,136,222282,2,0,L|196:188,1,45.0000017166138,2|0,0:0|0:0,0:0:0:0:
260,236,222686,2,0,P|216:248|174:262,1,90.0000034332277,0|2,0:0|0:0,0:0:0:0:
352,144,223902,2,0,L|344:165,1,22.5000008583069,2|0,0:0|0:0,0:0:0:0:
216,340,224713,5,4,0:0:0:0:
256,192,224916,12,0,227551,0:0:0:0:
390,318,227957,6,0,B|402:247|402:247|366:187,1,120,4|0,0:0|1:0,0:0:0:0:
313,142,228565,1,0,1:0:0:0:
399,118,228767,1,0,0:0:0:0:
265,76,228970,2,0,P|233:134|250:193,1,120
176,248,229578,2,0,P|117:241|67:272,1,120,0|0,0:0|0:0,0:0:0:0:
136,327,230186,1,0,0:0:0:0:
33,201,230389,1,0,1:0:0:0:
185,40,230794,1,0,1:0:0:0:
185,40,231200,5,4,1:0:0:0:
303,72,231402,1,0,1:0:0:0:
217,188,231605,1,0,1:0:0:0:
94,47,231808,2,0,P|108:99|169:133,1,120,0|0,1:0|0:0,0:0:0:0:
300,154,232416,1,0,1:0:0:0:
217,188,232619,1,0,0:0:0:0:
158,254,232821,2,0,P|243:270|281:249,1,120,0|0,0:0|0:0,0:0:0:0:
353,222,233430,1,0,0:0:0:0:
424,167,233632,5,0,3:0:0:0:
487,231,233835,1,0,3:0:0:0:
459,316,234038,1,0,3:0:0:0:
369,310,234240,1,0,3:0:0:0:
424,167,234443,5,4,1:0:0:0:
459,316,234646,1,0,1:0:0:0:
353,222,234848,1,0,1:0:0:0:
487,231,235051,1,0,1:0:0:0:
490,100,235254,2,0,P|435:79|377:90,1,120,0|0,1:0|0:0,0:0:0:0:
303,50,235862,1,0,0:0:0:0:
225,96,236065,2,0,L|102:106,1,120,0|0,0:0|0:0,0:0:0:0:
33,160,236673,1,0,0:0:0:0:
109,207,236875,2,0,L|228:197,1,120,0|0,0:0|0:0,0:0:0:0:
377,232,237686,5,4,1:0:0:0:
228,197,237889,1,0,1:0:0:0:
284,304,238091,1,0,1:0:0:0:
442,168,238294,2,0,P|464:227|444:296,1,120,0|0,1:0|0:0,0:0:0:0:
377,119,238902,2,0,P|375:57|377:50,1,60,0|0,0:0|0:0,0:0:0:0:
284,46,239308,2,0,P|217:57|156:42,1,120,0|0,0:0|0:0,0:0:0:0:
79,206,240119,5,2,0:0:0:0:
124,126,240321,1,2,0:0:0:0:
212,286,240524,1,2,3:2:0:0:
169,206,240726,1,2,0:0:0:0:
38,286,240930,5,4,1:0:0:0:
124,126,241132,1,0,1:0:0:0:
212,286,241335,1,0,1:0:0:0:
79,206,241538,1,0,1:0:0:0:
276,223,241740,2,0,P|300:284|283:340,1,120,0|0,0:0|0:0,0:0:0:0:
212,286,242348,1,0,0:0:0:0:
192,187,242551,2,0,P|255:133|312:138,1,120,0|0,0:0|0:0,0:0:0:0:
276,223,243159,1,0,0:0:0:0:
453,215,243362,5,2,0:0:0:0:
407,138,243564,1,2,0:0:0:0:
317,298,243767,1,2,3:2:0:0:
366,223,243969,1,2,0:0:0:0:
356,52,244173,5,4,1:0:0:0:
366,223,244375,1,0,1:0:0:0:
452,50,244578,1,0,1:0:0:0:
301,127,244781,2,0,P|266:66|274:14,1,120,0|0,1:0|0:0,0:0:0:0:
182,28,245389,2,0,L|115:29,1,60
171,104,245794,2,0,L|46:108,2,120,0|0|0,0:0|0:0|0:0,0:0:0:0:
276,250,247011,2,0,L|209:251,1,60,0|0,0:0|0:0,0:0:0:0:
409,134,247416,5,4,1:0:0:0:
437,273,247619,1,0,1:0:0:0:
335,179,247821,1,0,1:0:0:0:
412,48,248024,1,0,1:0:0:0:
256,138,248227,2,0,P|249:197|275:249,1,120,0|0,0:0|0:0,0:0:0:0:
335,179,248835,1,0,0:0:0:0:
335,77,249038,2,0,P|283:42|214:49,1,120
256,138,249646,1,0,0:0:0:0:
169,116,249848,2,0,P|98:119|52:82,1,120
129,34,250457,1,0,0:0:0:0:
19,172,250659,5,4,1:0:0:0:
62,329,250862,1,0,1:0:0:0:
91,195,251065,1,0,1:0:0:0:
108,268,251268,1,0,1:0:0:0:
176,210,251470,2,0,P|231:188|289:199,1,120,0|0,1:0|0:0,0:0:0:0:
346,268,252078,1,0,0:0:0:0:
363,179,252281,2,0,L|373:56,1,120
453,19,252889,1,0,0:0:0:0:
457,108,253091,2,0,L|447:227,1,120
372,59,253902,6,0,B|267:45|267:45|213:92|213:92|97:100,1,293.999991027832,4|0,1:0|0:0,0:0:0:0:
114,170,255524,2,0,L|243:161,1,120,2|0,0:0|0:0,0:0:0:0:
185,287,256740,2,0,L|236:282,1,30,0|0,0:0|0:0,0:0:0:0:
313,272,257146,5,2,0:0:0:0:
372,227,257348,1,0,0:0:0:0:
379,152,257551,1,0,0:0:0:0:
340,99,257754,1,0,0:0:0:0:
340,99,258159,1,0,0:0:0:0:
340,99,258565,2,0,B|292:120|254:90|254:90|224:132|166:129,1,180.000006866455
106,146,259578,1,0,0:0:0:0:
133,287,259984,2,0,L|210:295,1,45.0000017166138,0|0,0:0|0:0,0:0:0:0:
240,256,260389,5,2,0:0:0:0:
283,199,260591,1,0,0:0:0:0:
354,185,260794,1,0,0:0:0:0:
423,228,260997,1,0,0:0:0:0:
423,228,261402,1,0,0:0:0:0:
423,228,261808,2,0,L|424:123,1,90.0000034332277,0|0,0:0|0:0,0:0:0:0:
350,103,262416,2,0,L|351:47,1,45.0000017166138,0|0,0:0|0:0,0:0:0:0:
286,25,262821,1,0,0:0:0:0:
151,75,263227,1,0,0:0:0:0:
88,111,263430,1,0,0:0:0:0:
143,161,263632,6,0,P|85:186|37:162,1,90.0000034332277,2|0,0:0|0:0,0:0:0:0:
30,245,264240,2,0,P|42:287|26:328,1,90.0000034332277,0|0,0:0|0:0,0:0:0:0:
169,344,265051,2,0,B|249:324|249:324|325:329,1,135.000005149841,0|0,0:0|0:0,0:0:0:0:
445,318,266065,1,0,0:0:0:0:
445,318,266470,2,0,L|449:241,1,45.0000017166138,0|0,0:0|0:0,0:0:0:0:
453,201,266875,5,2,0:0:0:0:
57,36,268092,2,0,L|61:113,1,45.0000017166138,0|0,0:0|0:0,0:0:0:0:
63,152,268497,1,0,0:0:0:0:
318,296,269308,1,2,0:0:0:0:
320,152,269713,2,0,L|320:206,1,45.0000017166138,0|0,0:0|0:0,0:0:0:0:
262,241,270119,5,2,0:0:0:0:
223,181,270321,1,0,0:0:0:0:
148,175,270524,1,0,0:0:0:0:
87,213,270727,1,0,0:0:0:0:
87,213,271132,1,0,0:0:0:0:
87,213,271538,2,0,B|63:128|63:128|78:68,1,135.000005149841,0|0,0:0|0:0,0:0:0:0:
213,41,272551,1,2,0:0:0:0:
240,108,272754,1,2,0:0:0:0:
296,58,272957,2,0,L|360:55,1,45.0000017166138,2|0,0:0|0:0,0:0:0:0:
403,91,273362,5,2,0:0:0:0:
343,130,273564,1,0,0:0:0:0:
337,202,273767,1,0,0:0:0:0:
378,273,273970,1,0,0:0:0:0:
378,273,274375,1,0,0:0:0:0:
378,273,274781,2,0,B|336:306|336:306|277:311,1,90.0000034332277,0|0,0:0|0:0,0:0:0:0:
264,246,275389,2,0,B|227:249|227:249|185:282,1,90.0000034332277,0|0,0:0|0:0,0:0:0:0:
46,319,276200,1,2,0:0:0:0:
87,260,276402,1,2,0:0:0:0:
56,195,276605,6,0,B|51:142|51:142|65:89,1,90.0000034332277,2|0,0:0|0:0,0:0:0:0:
135,96,277213,2,0,L|122:150,1,45.0000017166138,0|0,0:0|0:0,0:0:0:0:
199,137,277619,2,0,L|184:192,1,45.0000017166138,0|0,0:0|0:0,0:0:0:0:
128,222,278024,2,0,P|183:252|252:210,1,135.000005149841,0|0,0:0|0:0,0:0:0:0:
346,119,279038,2,0,L|354:74,1,45.0000017166138,0|0,0:0|0:0,0:0:0:0:
282,65,279443,6,0,B|279:115|233:141|233:141|246:144|226:152|226:152|163:177|174:255|174:255|143:144|52:166,1,405.000015449524
83,240,281470,1,4,1:0:0:0:
83,240,282078,1,0,1:0:0:0:
163,229,282281,1,0,1:0:0:0:
242,215,282484,1,0,1:0:0:0:
324,202,282686,1,0,1:0:0:0:
225,40,283092,5,4,1:0:0:0:
354,65,283294,1,0,1:0:0:0:
244,116,283497,1,0,1:0:0:0:
425,101,283700,2,0,P|433:73|426:32,1,60,0|0,1:0|0:0,0:0:0:0:
328,143,284105,2,0,P|320:171|327:212,1,60
499,202,284511,2,0,B|444:220|449:307|449:307|392:248|329:275,1,240
366,364,285524,1,0,1:0:0:0:
271,287,285727,1,0,1:0:0:0:
159,357,285930,2,0,L|226:355,1,60,0|0,1:0|0:0,0:0:0:0:
279,194,286335,5,4,1:0:0:0:
159,162,286537,1,0,1:0:0:0:
203,248,286740,1,0,1:0:0:0:
196,89,286943,2,0,P|124:89|86:128,1,120,0|0,1:0|0:0,0:0:0:0:
169,319,287754,2,0,P|246:314|279:265,1,120,0|0,0:0|0:0,0:0:0:0:
318,200,288362,2,0,L|299:130,1,60,0|0,0:0|3:0,0:0:0:0:
360,65,288767,2,0,L|375:122,1,60,0|0,0:0|3:0,0:0:0:0:
403,215,289173,1,0,0:0:0:0:
466,118,289375,1,0,0:0:0:0:
470,267,289578,6,0,P|430:298|346:280,1,120,4|0,0:0|0:0,0:0:0:0:
288,225,290186,2,0,L|164:218,1,120,4|0,0:0|0:0,0:0:0:0:
145,20,290997,2,0,B|126:72|166:115|166:115|115:118|86:155,1,180,0|0,0:0|3:0,0:0:0:0:
242,46,292011,2,0,L|322:38,1,60,0|0,0:0|0:0,0:0:0:0:
425,114,292416,2,0,L|345:106,1,60,0|0,0:0|0:0,0:0:0:0:
250,160,292821,5,4,0:0:0:0:
207,286,293024,1,0,0:0:0:0:
128,33,293430,1,4,0:0:0:0:
165,160,293633,1,0,0:0:0:0:
22,335,294038,2,0,L|38:264,1,60,0|0,0:0|0:0,0:0:0:0:
113,220,294443,2,0,L|89:348,1,120,0|0,1:0|0:0,0:0:0:0:
188,227,295051,1,0,1:0:0:0:
165,66,295254,1,2,3:0:0:0:
276,359,295659,6,0,L|264:308,1,30,0|0,1:0|0:0,0:0:0:0:
210,145,296065,5,4,1:0:0:0:
348,100,296267,1,0,1:0:0:0:
165,66,296470,1,0,1:0:0:0:
325,171,296673,2,0,P|367:174|407:145,1,60,0|0,1:0|0:0,0:0:0:0:
472,253,297078,2,0,P|430:250|390:279,1,60
267,272,297484,2,0,B|200:292|153:240|153:240|108:292|24:272,1,240
73,187,298497,1,0,1:0:0:0:
145,53,298700,1,0,1:0:0:0:
230,192,298902,2,0,L|236:118,1,60,0|0,1:0|0:0,0:0:0:0:
145,53,299308,5,4,1:0:0:0:
304,98,299511,1,0,1:0:0:0:
128,126,299713,1,0,1:0:0:0:
271,32,299916,2,0,P|347:37|376:81,1,120,0|0,1:0|0:0,0:0:0:0:
462,237,300727,2,0,P|386:232|357:188,1,120,0|0,0:0|0:0,0:0:0:0:
304,123,301335,2,0,L|228:132,1,60,0|0,0:0|3:0,0:0:0:0:
102,82,301740,2,0,L|178:91,1,60,0|0,0:0|3:0,0:0:0:0:
171,185,302146,1,0,1:0:0:0:
232,60,302348,1,0,1:0:0:0:
117,240,302551,6,0,P|176:261|230:235,1,120,4|0,0:0|0:0,0:0:0:0:
315,206,303159,2,0,P|369:185|424:207,1,120,4|0,0:0|0:0,0:0:0:0:
260,106,303970,2,0,P|178:128|72:88,1,180,0|0,0:0|3:0,0:0:0:0:
41,17,304781,1,0,0:0:0:0:
32,155,304984,2,0,L|42:230,1,60,0|0,0:0|0:0,0:0:0:0:
116,316,305389,2,0,L|108:256,1,60,0|0,0:0|0:0,0:0:0:0:
150,164,305794,5,4,0:0:0:0:
205,276,305997,1,0,0:0:0:0:
250,20,306402,1,4,0:0:0:0:
303,144,306605,2,0,L|308:75,1,60,0|0,0:0|0:0,0:0:0:0:
403,85,307011,2,0,L|407:144,1,60,0|0,0:0|0:0,0:0:0:0:
375,277,307416,1,0,1:0:0:0:
303,144,307619,1,0,3:0:0:0:
130,347,308024,1,0,1:0:0:0:
112,202,308227,37,0,3:0:0:0:
124,56,308430,1,0,3:0:0:0:
58,274,308632,1,0,1:0:0:0:
46,128,308835,1,0,3:0:0:0:
230,147,309038,6,0,B|274:145|292:111|292:111|305:201|383:193|383:193|390:122,1,270.000010299683,2|0,0:0|0:0,0:0:0:0:
313,262,310659,2,0,B|290:259|260:227|260:227|205:234|172:306|172:306|137:258|107:263,1,270.000010299683,2|0,0:0|0:0,0:0:0:0:
88,117,312281,6,0,B|95:175|95:175|30:186|-15:251|28:326|61:339,1,270.000010299683,2|0,0:0|0:0,0:0:0:0:
205,341,313902,1,2,0:0:0:0:
277,342,314105,1,2,0:0:0:0:
349,346,314308,1,2,0:0:0:0:
421,351,314511,2,0,P|403:298|358:273,1,90.0000034332277,2|0,0:0|0:0,0:0:0:0:
205,144,315524,5,2,0:0:0:0:
277,143,315727,1,2,0:0:0:0:
349,139,315930,1,2,0:0:0:0:
421,135,316133,2,0,P|403:187|366:211,1,90.0000034332277,2|0,0:0|0:0,0:0:0:0:
339,269,316740,2,0,L|431:292,1,90.0000034332277,2|2,0:0|0:0,0:0:0:0:
103,53,320389,6,0,L|106:193,1,120,2|0,0:0|0:0,0:0:0:0:
104,269,320997,1,0,0:0:0:0:
242,144,321402,1,0,0:0:0:0:
180,313,321808,1,0,0:0:0:0:
180,313,322213,1,0,0:0:0:0:
264,344,322416,1,0,0:0:0:0:
328,281,322619,1,0,0:0:0:0:
451,40,323227,1,0,0:0:0:0:
451,40,323632,6,0,P|382:62|321:31,1,120,2|0,0:0|0:0,0:0:0:0:
272,107,324240,2,0,P|203:85|142:116,2,120,0|0|0,0:0|0:0|0:0,0:0:0:0:
272,107,325457,1,0,0:0:0:0:
324,179,325659,1,0,0:0:0:0:
261,243,325862,1,0,0:0:0:0:
261,243,326875,6,0,P|310:309|310:345,1,120,2|0,0:0|0:0,0:0:0:0:
221,325,327484,1,0,0:0:0:0:
186,148,327889,1,0,0:0:0:0:
97,304,328294,1,0,0:0:0:0:
97,304,328700,1,0,0:0:0:0:
66,220,328903,1,0,0:0:0:0:
129,156,329106,1,0,0:0:0:0:
399,68,330119,6,0,B|407:140|407:140|396:211,1,120,2|0,0:0|0:0,0:0:0:0:
329,243,330727,2,0,B|321:171|321:171|332:100,2,120,0|0|0,0:0|0:0|0:0,0:0:0:0:
329,243,331943,1,0,0:0:0:0:
257,295,332145,1,0,0:0:0:0:
193,232,332348,1,0,0:0:0:0:
256,192,333362,12,0,339848,0:0:0:0:
