osu file format v14

[General]
AudioFilename: audio.mp3
AudioLeadIn: 0
PreviewTime: 40398
Countdown: 1
SampleSet: Normal
StackLeniency: 0.7
Mode: 0
LetterboxInBreaks: 0
WidescreenStoryboard: 1

[Editor]
DistanceSpacing: 0.9
BeatDivisor: 4
GridSize: 4
TimelineZoom: 1

[Metadata]
Title:Sono Koe wo Oboeteru (TV Size)
TitleUnicode:Sono Koe wo Oboeteru (TV Size)
Artist:Kawano Marina
ArtistUnicode:Kawano Marina
Creator:DylanSan
Version:Nadeko Medusa
Source:〈物語〉シリーズ セカンドシーズン
Tags:Monogatari Series Nekomonogatari Kabukimonogatari Otorimonogatari Onimonogatari Koimonogatari Shiro Mayoi Jianshi Aniplex Shaft ED
BeatmapID:1193963
BeatmapSetID:560016

[Difficulty]
HPDrainRate:7
CircleSize:4.6
OverallDifficulty:8.7
ApproachRate:9.2
SliderMultiplier:1.2
SliderTickRate:1

[Events]
//Background and Video events
0,0,"rebnam.jpg",0,0
//Break Periods
//Storyboard Layer 0 (Background)
//Storyboard Layer 1 (Fail)
//Storyboard Layer 2 (Pass)
//Storyboard Layer 3 (Foreground)
//Storyboard Layer 4 (Overlay)
//Storyboard Sound Samples

[TimingPoints]
1248,355.029585798817,4,1,0,30,1,0
1248,-133.333333333333,4,1,0,30,0,0
6853,352.941176470588,4,1,0,30,1,0
8264,-71.4285714285714,4,1,0,30,0,1
16735,-100,4,1,0,30,0,0
29264,-83.3333333333333,4,1,0,30,0,0
41794,-76.9230769230769,4,1,0,30,0,0
54676,-66.6666666666667,4,1,0,30,0,0
77441,-62.5,4,1,0,30,0,1
85911,-100,4,1,0,30,0,0

[Colours]
Combo1 : 196,122,87
Combo2 : 0,213,213
Combo3 : 211,207,118
Combo4 : 245,84,75
Combo5 : 38,167,189
Combo6 : 177,233,63

[HitObjects]
104,208,1248,6,0,P|132:272|196:276,1,135.000005149842
40,180,1958,2,0,P|39:250|81:319,1,135.000005149841
256,287,2668,2,0,P|235:226|172:213,1,135.000005149842
320,336,3378,2,0,P|330:293|310:201,1,135.000005149841
127,96,4088,6,0,P|165:105|255:54,1,135.000005149842
366,16,4798,2,0,P|328:7|238:58,1,135.000005149842
245,212,5508,2,0,B|239:246|252:277|285:308|334:302|358:277|371:249|371:249|414:225|451:227|481:235,1,292.50001115799
310,225,6853,6,0,B|314:204|332:188|366:175|392:168|424:164,1,120
217,30,7558,2,0,B|238:34|254:52|267:86|274:112|278:144,1,120
101,312,8264,6,0,L|89:194,1,83.9999974365235
82,114,8617,1,0,0:0:0:0:
217,30,8794,2,0,L|229:148,1,83.9999974365235
236,228,9147,1,0,0:0:0:0:
84,184,9323,2,0,L|202:172,1,83.9999974365235
282,165,9676,1,0,0:0:0:0:
452,333,9852,2,0,L|334:345,1,83.9999974365235
255,353,10205,1,0,0:0:0:0:
302,151,10382,1,0,0:0:0:0:
235,240,10558,1,0,0:0:0:0:
413,136,10735,1,0,0:0:0:0:
320,237,10911,1,0,0:0:0:0:
128,180,11088,6,0,P|168:163|226:166,1,83.9999974365235
277,312,11441,1,0,0:0:0:0:
146,260,11617,2,0,P|129:220|132:162,1,83.9999974365235
278,111,11970,1,0,0:0:0:0:
226,241,12147,2,0,P|186:258|128:255,1,83.9999974365235
77,109,12500,1,0,0:0:0:0:
207,160,12676,2,0,P|224:200|221:258,1,83.9999974365235
72,208,13029,1,0,0:0:0:0:
243,320,13205,2,0,P|226:280|229:222,1,83.9999974365235
0,161,13558,1,0,0:0:0:0:
170,139,13735,1,0,0:0:0:0:
307,223,13911,6,0,L|195:245,1,83.9999974365235
341,105,14264,1,0,0:0:0:0:
341,105,14441,2,0,L|453:83,1,83.9999974365235
307,223,14794,1,0,0:0:0:0:
307,223,14970,2,0,L|195:245,1,83.9999974365235
245,121,15323,1,0,0:0:0:0:
363,175,15500,1,0,0:0:0:0:
363,175,15676,1,0,0:0:0:0:
278,311,15852,1,0,0:0:0:0:
124,229,16029,2,0,L|52:297,1,83.9999974365235
32,163,16382,2,0,L|104:95,1,83.9999974365235
204,52,16735,6,0,B|235:42|301:29|340:100|320:172|266:186|212:182|212:182|187:199|192:243|192:243|236:258|247:305,1,420
168,316,18147,6,0,P|128:290|116:254,1,60
94,153,18500,1,0,0:0:0:0:
205,52,18676,2,0,P|231:80|224:169,1,120
141,353,19382,1,0,0:0:0:0:
209,311,19558,2,0,P|240:290|285:291,1,60
424,355,19911,1,0,0:0:0:0:
262,358,20088,1,0,0:0:0:0:
363,263,20264,2,0,L|413:210,2,60
240,222,20794,1,0,0:0:0:0:
336,67,20970,6,0,L|337:142,1,60
266,291,21323,1,0,0:0:0:0:
220,160,21500,2,0,P|220:109|284:45,1,120
368,152,22029,2,0,P|338:145|310:134,1,60
149,83,22382,2,0,L|112:147,1,60
53,269,22735,1,0,0:0:0:0:
198,208,22911,1,0,0:0:0:0:
52,112,23088,1,0,0:0:0:0:
53,269,23264,2,0,P|94:288|120:288,1,60
198,208,23617,5,0,0:0:0:0:
216,228,23705,1,0,0:0:0:0:
228,252,23794,1,0,0:0:0:0:
104,208,23970,1,0,0:0:0:0:
288,176,24147,1,0,0:0:0:0:
160,48,24323,2,0,L|238:73,1,60
352,124,24676,1,0,0:0:0:0:
324,12,24852,1,0,0:0:0:0:
176,128,25029,1,0,0:0:0:0:
237,274,25205,6,0,L|308:284,1,60
380,296,25558,1,0,0:0:0:0:
269,171,25735,1,0,0:0:0:0:
432,216,25911,1,0,0:0:0:0:
321,77,26088,1,0,0:0:0:0:
416,93,26264,2,0,L|480:106,1,60
499,191,26617,6,0,L|364:164,1,120
269,171,27147,1,0,0:0:0:0:
164,122,27323,2,0,L|174:253,1,120
200,273,28029,6,0,L|189:138,1,120
288,50,28558,1,0,0:0:0:0:
280,196,28735,1,0,0:0:0:0:
108,140,28911,2,0,P|153:79|188:71,1,90
189,66,29264,6,0,P|250:57|311:0,1,143.999995605469
262,141,29794,1,0,0:0:0:0:
144,4,29970,1,0,0:0:0:0:
321,72,30147,1,0,0:0:0:0:
160,112,30323,1,0,0:0:0:0:
331,166,30500,1,0,0:0:0:0:
210,215,30676,2,0,B|142:226|142:226|42:208,1,143.999995605469
21,143,31205,1,0,0:0:0:0:
168,136,31382,1,0,0:0:0:0:
28,286,31558,1,0,0:0:0:0:
210,215,31735,1,0,0:0:0:0:
32,148,31911,1,0,0:0:0:0:
260,85,32088,6,0,P|308:56|404:83,1,143.999995605469
334,154,32617,1,0,0:0:0:0:
196,61,32794,1,0,0:0:0:0:
390,71,32970,1,0,0:0:0:0:
384,256,33147,1,0,0:0:0:0:
196,256,33323,1,0,0:0:0:0:
129,197,33500,2,0,B|181:158|181:158|273:149,1,143.999995605469
440,143,34029,1,0,0:0:0:0:
376,280,34205,1,0,0:0:0:0:
397,81,34382,1,0,0:0:0:0:
485,217,34558,1,0,0:0:0:0:
336,148,34735,1,0,0:0:0:0:
509,78,34911,6,0,B|511:156|511:156|483:220,1,143.999995605469
367,284,35441,1,0,0:0:0:0:
429,165,35617,1,0,0:0:0:0:
432,333,35794,1,0,0:0:0:0:
371,211,35970,1,0,0:0:0:0:
504,296,36147,1,0,0:0:0:0:
266,289,36323,2,0,P|185:288|119:261,1,143.999995605469
86,143,36852,2,0,P|127:177|136:203,1,71.9999978027345
92,346,37205,2,0,P|51:312|42:286,1,71.9999978027345
215,191,37558,1,0,0:0:0:0:
56,219,37735,1,0,0:0:0:0:
189,119,37911,6,0,P|248:122|289:205,1,143.999995605469
294,268,38441,1,0,0:0:0:0:
361,137,38617,1,0,0:0:0:0:
441,248,38794,1,0,0:0:0:0:
395,70,38970,1,0,0:0:0:0:
328,200,39147,1,0,0:0:0:0:
278,20,39323,6,0,P|341:15|398:101,1,143.999995605469
219,118,39852,1,0,0:0:0:0:
411,168,40029,1,0,0:0:0:0:
214,227,40205,1,0,0:0:0:0:
411,168,40382,2,0,L|317:107,1,107.999996704102
295,96,40735,6,0,P|254:118|150:116,1,143.999995605469
29,64,41264,1,0,0:0:0:0:
142,191,41441,1,0,0:0:0:0:
111,50,41617,1,0,0:0:0:0:
75,235,41794,6,0,B|67:282|57:317|29:351|29:351|68:334|113:342|136:363,1,233.999989288331
239,383,42500,2,0,P|270:358|306:347,1,77.9999964294435
406,344,42852,1,0,0:0:0:0:
240,285,43029,1,0,0:0:0:0:
438,255,43205,1,0,0:0:0:0:
264,138,43382,6,0,B|200:94|200:94|163:18,1,155.999992858887
311,58,43911,1,0,0:0:0:0:
390,207,44088,1,0,0:0:0:0:
443,53,44264,1,0,0:0:0:0:
300,168,44441,1,0,0:0:0:0:
426,66,44617,1,0,0:0:0:0:
467,246,44794,2,0,P|419:292|327:271,1,155.999992858887
237,197,45323,2,0,P|188:200|155:223,1,77.9999964294435
219,282,45676,1,0,0:0:0:0:
352,172,45852,1,0,0:0:0:0:
212,304,46029,1,0,0:0:0:0:
251,156,46205,6,0,P|280:36|280:36,1,116.999994644165
285,21,46558,1,0,0:0:0:0:
372,96,46735,2,0,L|349:180,1,77.9999964294435
271,325,47088,1,0,0:0:0:0:
468,296,47264,1,0,0:0:0:0:
340,347,47441,1,0,0:0:0:0:
161,194,47794,6,0,B|117:188|117:188|49:205,1,77.9999964294435
51,207,48058,1,0,0:0:0:0:
33,237,48147,2,0,B|24:269|24:269|30:313,1,77.9999964294435
109,333,48500,1,0,0:0:0:0:
89,107,48676,1,0,0:0:0:0:
165,265,48852,1,0,0:0:0:0:
223,111,49029,6,0,P|272:93|355:156,1,155.999992858887
376,295,49558,2,0,P|396:248|416:230,1,77.9999964294435
476,322,49911,1,0,0:0:0:0:
309,271,50088,1,0,0:0:0:0:
436,219,50264,1,0,0:0:0:0:
368,319,50441,2,0,P|327:347|237:297,1,155.999992858887
309,271,50970,1,0,0:0:0:0:
194,364,51147,1,0,0:0:0:0:
236,179,51323,1,0,0:0:0:0:
368,319,51500,1,0,0:0:0:0:
348,165,51676,1,0,0:0:0:0:
164,205,51852,6,0,B|88:215|88:215|4:187,1,155.999992858887
110,140,52382,2,0,L|276:120,1,155.999992858887
443,105,52911,1,0,0:0:0:0:
352,231,53088,2,0,P|348:172|362:139,1,77.9999964294435
443,105,53441,1,0,0:0:0:0:
473,122,53529,1,0,0:0:0:0:
492,151,53617,1,0,0:0:0:0:
497,185,53705,1,0,0:0:0:0:
488,219,53794,1,0,0:0:0:0:
461,241,53882,1,0,0:0:0:0:
426,248,53970,1,0,0:0:0:0:
392,237,54058,1,0,0:0:0:0:
368,210,54147,1,0,0:0:0:0:
328,28,54676,6,0,P|336:80|316:220,1,180.000006866455
164,276,55205,1,0,0:0:0:0:
92,180,55382,2,0,P|136:156|256:200,1,180.000006866455
164,276,55911,1,0,0:0:0:0:
92,180,56088,2,0,P|68:124|72:88,1,90.0000034332277
268,92,56441,2,0,P|212:116|176:112,1,90.0000034332277
248,192,56794,2,0,P|183:196|66:142,1,180.000006866455
16,44,57323,1,0,0:0:0:0:
192,16,57500,1,0,0:0:0:0:
170,167,57676,6,0,B|217:223|217:223|235:333|236:333,1,180.000006866455
174,369,58205,1,0,0:0:0:0:
296,246,58382,1,0,0:0:0:0:
160,283,58558,1,0,0:0:0:0:
315,335,58735,1,0,0:0:0:0:
213,200,58911,1,0,0:0:0:0:
377,187,59088,2,0,P|482:177|482:177,1,90.0000034332277
484,280,59441,1,0,0:0:0:0:
427,113,59617,1,0,0:0:0:0:
396,272,59794,1,0,0:0:0:0:
512,176,59970,1,0,0:0:0:0:
336,192,60147,1,0,0:0:0:0:
504,96,60323,1,0,0:0:0:0:
258,103,60500,6,0,B|177:98|177:98|59:119,1,180.000006866455
251,178,61029,2,0,P|296:168|289:35,1,180.000006866455
129,42,61558,1,0,0:0:0:0:
258,103,61735,1,0,0:0:0:0:
110,131,61911,2,0,L|75:217,2,90.0000034332277
8,210,62441,2,0,P|25:261|135:249,1,180.000006866455
201,129,62970,1,0,0:0:0:0:
233,104,63058,1,0,0:0:0:0:
273,97,63147,1,0,0:0:0:0:
311,108,63235,1,0,0:0:0:0:
340,135,63323,6,0,B|381:170|373:229|373:229|416:217|451:238,1,180.000006866455
404,311,63852,1,0,0:0:0:0:
288,206,64029,1,0,0:0:0:0:
435,156,64205,1,0,0:0:0:0:
373,229,64382,1,0,0:0:0:0:
414,68,64558,1,0,0:0:0:0:
446,235,64735,5,0,0:0:0:0:
432,273,64823,1,0,0:0:0:0:
401,299,64911,1,0,0:0:0:0:
360,300,65000,1,0,0:0:0:0:
316,269,65088,5,0,0:0:0:0:
276,260,65176,1,0,0:0:0:0:
237,270,65264,1,0,0:0:0:0:
209,299,65352,1,0,0:0:0:0:
183,331,65441,5,0,0:0:0:0:
143,336,65529,1,0,0:0:0:0:
105,321,65617,1,0,0:0:0:0:
85,285,65705,1,0,0:0:0:0:
90,244,65794,5,0,0:0:0:0:
207,207,65970,2,0,P|294:189|373:229,1,180.000006866455
444,324,66500,1,0,0:0:0:0:
462,183,66676,2,0,B|466:155|444:132|444:132|424:204|364:232,1,180.000006866455
276,320,67205,1,0,0:0:0:0:
168,200,67382,2,0,P|120:184|80:184,1,90.0000034332277
224,128,67735,2,0,P|272:144|312:144,1,90.0000034332277
196,48,68088,2,0,P|148:32|108:32,1,90.0000034332277
280,68,68441,1,0,0:0:0:0:
140,112,68617,1,0,0:0:0:0:
252,192,68794,1,0,0:0:0:0:
441,163,68970,6,0,P|390:144|268:182,1,180.000006866455
195,231,69500,2,0,P|222:186|210:53,1,180.000006866455
100,77,70029,1,0,0:0:0:0:
150,165,70205,1,0,0:0:0:0:
293,40,70382,1,0,0:0:0:0:
170,89,70558,1,0,0:0:0:0:
369,94,70735,1,0,0:0:0:0:
329,215,70911,1,0,0:0:0:0:
293,132,71088,1,0,0:0:0:0:
444,192,71264,1,0,0:0:0:0:
327,320,71441,1,0,0:0:0:0:
329,215,71617,1,0,0:0:0:0:
484,314,71794,6,0,P|427:330|330:244,1,180.000006866455
355,93,72323,2,0,P|356:162|276:256,1,180.000006866455
120,256,72852,1,0,0:0:0:0:
81,243,72941,1,0,0:0:0:0:
53,213,73029,1,0,0:0:0:0:
45,173,73117,1,0,0:0:0:0:
58,135,73205,1,0,0:0:0:0:
224,24,73382,1,0,0:0:0:0:
220,192,73558,1,0,0:0:0:0:
388,164,73735,2,0,P|448:236|464:324,1,180.000006866455
391,294,74264,2,0,P|366:244|329:217,1,90.0000034332277
300,212,74529,1,0,0:0:0:0:
259,209,74617,6,0,B|170:202|170:202|75:230,1,180.000006866455
180,348,75147,1,0,0:0:0:0:
169,202,75323,1,0,0:0:0:0:
165,161,75411,1,0,0:0:0:0:
162,120,75500,1,0,0:0:0:0:
158,79,75588,1,0,0:0:0:0:
156,28,75676,5,0,0:0:0:0:
191,46,75764,1,0,0:0:0:0:
230,54,75852,1,0,0:0:0:0:
359,23,76029,5,0,0:0:0:0:
359,23,76382,1,0,0:0:0:0:
359,23,76558,2,0,P|368:75|393:136,1,90.0000034332277
402,144,76823,1,0,0:0:0:0:
436,164,76911,1,0,0:0:0:0:
476,166,77000,1,0,0:0:0:0:
511,146,77088,1,0,0:0:0:0:
457,85,77264,1,0,0:0:0:0:
288,56,77441,6,0,P|314:138|331:168,1,96
427,225,77794,1,0,0:0:0:0:
210,204,77970,2,0,P|286:243|319:252,1,96
427,225,78323,1,0,0:0:0:0:
259,364,78500,2,0,P|341:338|371:321,1,96
427,225,78853,1,0,0:0:0:0:
210,204,79029,2,0,P|128:230|98:247,1,96
61,328,79382,1,0,0:0:0:0:
210,205,79558,5,0,0:0:0:0:
135,335,79735,1,0,0:0:0:0:
42,220,79911,1,0,0:0:0:0:
213,290,80088,1,0,0:0:0:0:
196,103,80264,6,0,L|204:223,1,96
213,290,80617,1,0,0:0:0:0:
334,146,80794,2,0,L|254:236,1,96
213,290,81147,1,0,0:0:0:0:
401,274,81323,2,0,L|281:282,1,96
213,290,81676,1,0,0:0:0:0:
127,193,81852,5,0,0:0:0:0:
127,193,82029,1,0,0:0:0:0:
271,231,82205,1,0,0:0:0:0:
93,262,82382,2,0,B|40:256|40:256|1:218,1,96
82,93,82735,1,0,0:0:0:0:
176,257,82911,1,0,0:0:0:0:
92,84,83088,6,0,P|155:86|198:116,1,96
41,174,83441,1,0,0:0:0:0:
192,57,83617,2,0,P|235:102|244:154,1,96
92,84,83970,1,0,0:0:0:0:
282,108,84147,2,0,P|279:170|250:214,1,96
192,57,84500,1,0,0:0:0:0:
116,223,84676,1,0,0:0:0:0:
299,280,84852,1,0,0:0:0:0:
248,112,85029,1,0,0:0:0:0:
260,92,85117,1,0,0:0:0:0:
280,76,85205,1,0,0:0:0:0:
307,70,85294,1,0,0:0:0:0:
349,78,85382,1,0,0:0:0:0:
385,100,85470,1,0,0:0:0:0:
401,139,85558,1,0,0:0:0:0:
224,201,85735,1,0,0:0:0:0:
256,192,85911,12,0,89970,0:0:0:0:
