osu file format v14

[General]
AudioFilename: audio.mp3
AudioLeadIn: 0
PreviewTime: 40398
Countdown: 1
SampleSet: Normal
StackLeniency: 0.7
Mode: 0
LetterboxInBreaks: 0
WidescreenStoryboard: 0

[Editor]
DistanceSpacing: 0.9
BeatDivisor: 4
GridSize: 4
TimelineZoom: 1

[Metadata]
Title:Sono Koe wo Oboeteru (TV Size)
TitleUnicode:Sono Koe wo Oboeteru (TV Size)
Artist:Kawano Marina
ArtistUnicode:Kawano Marina
Creator:DylanSan
Version:Insane
Source:〈物語〉シリーズ セカンドシーズン
Tags:Monogatari Series Nekomonogatari Kabukimonogatari Otorimonogatari Onimonogatari Koimonogatari Shiro Mayoi Jianshi Aniplex Shaft ED
BeatmapID:1184290
BeatmapSetID:560016

[Difficulty]
HPDrainRate:6.2
CircleSize:4.5
OverallDifficulty:8
ApproachRate:9
SliderMultiplier:1.1
SliderTickRate:1

[Events]
//Background and Video events
0,0,"rebnam.jpg",0,0
//Break Periods
//Storyboard Layer 0 (Background)
//Storyboard Layer 1 (Fail)
//Storyboard Layer 2 (Pass)
//Storyboard Layer 3 (Foreground)
//Storyboard Layer 4 (Overlay)
//Storyboard Sound Samples

[TimingPoints]
1248,355.029585798817,4,1,0,30,1,0
6853,352.941176470588,4,1,0,30,1,0
8264,-71.4285714285714,4,1,0,30,0,1
16735,-100,4,1,0,30,0,0
29264,-83.3333333333333,4,1,0,30,0,0
41794,-76.9230769230769,4,1,0,30,0,0
54676,-66.6666666666667,4,1,0,30,0,0
77441,-62.5,4,1,0,30,0,1
85911,-100,4,1,0,30,0,0

[Colours]
Combo1 : 196,122,87
Combo2 : 0,213,213
Combo3 : 211,207,118
Combo4 : 245,84,75
Combo5 : 38,167,189
Combo6 : 177,233,63

[HitObjects]
104,188,1248,6,0,P|128:228|240:200,1,165
174,175,1958,2,0,B|162:231|162:231|192:339,1,165
283,253,2668,2,0,B|295:197|295:197|265:89,1,165
197,46,3378,2,0,B|139:35|111:51|87:67|35:48,1,165
17,124,4088,6,0,B|48:134|83:134|83:134|77:173|84:210|101:243,1,165
168,120,4798,2,0,P|158:167|241:260,1,165
259,162,5508,2,0,B|291:147|312:118|309:78|293:48|293:48|338:69|372:34|372:34|371:66|383:111|415:139|460:139,1,357.5
357,186,6853,6,0,L|375:307,2,110
335,55,7911,1,0,0:0:0:0:
357,186,8264,6,0,L|372:281,1,76.9999976501466
453,318,8617,1,0,0:0:0:0:
429,208,8794,2,0,P|367:186|330:188,1,76.9999976501466
242,252,9147,1,0,0:0:0:0:
356,185,9323,2,0,P|378:123|376:86,1,76.9999976501466
229,114,9676,1,0,0:0:0:0:
169,229,9852,2,0,P|231:251|268:249,1,76.9999976501466
296,123,10205,1,0,0:0:0:0:
316,257,10382,1,0,0:0:0:0:
229,114,10558,1,0,0:0:0:0:
379,201,10735,1,0,0:0:0:0:
231,285,10911,1,0,0:0:0:0:
231,285,11088,6,0,P|269:333|300:346,1,76.9999976501466
379,201,11441,1,0,0:0:0:0:
229,114,11617,2,0,P|198:167|198:200,1,76.9999976501466
379,201,11970,1,0,0:0:0:0:
405,29,12147,2,0,P|343:27|313:42,1,76.9999976501466
379,201,12500,1,0,0:0:0:0:
347,368,12676,2,0,P|408:369|438:354,1,76.9999976501466
379,201,13029,1,0,0:0:0:0:
323,294,13205,1,0,0:0:0:0:
443,243,13382,1,0,0:0:0:0:
347,368,13558,1,0,0:0:0:0:
379,201,13735,1,0,0:0:0:0:
225,293,13911,6,0,P|167:309|136:301,1,76.9999976501466
37,214,14264,1,0,0:0:0:0:
116,26,14441,2,0,P|130:61|129:99,1,76.9999976501466
37,214,14794,1,0,0:0:0:0:
128,99,14970,2,0,P|163:84|201:85,1,76.9999976501466
264,269,15323,1,0,0:0:0:0:
88,278,15500,1,0,0:0:0:0:
88,278,15676,1,0,0:0:0:0:
225,196,15852,1,0,0:0:0:0:
211,364,16029,1,0,0:0:0:0:
225,196,16205,1,0,0:0:0:0:
133,328,16382,1,0,0:0:0:0:
289,274,16558,1,0,0:0:0:0:
170,254,16735,6,0,P|144:198|303:212,1,330
225,195,18147,5,0,0:0:0:0:
249,266,18323,1,0,0:0:0:0:
275,336,18500,1,0,0:0:0:0:
358,335,18676,1,0,0:0:0:0:
275,336,18852,2,0,L|201:338,2,55
470,264,19558,5,0,0:0:0:0:
430,326,19735,1,0,0:0:0:0:
358,335,19911,1,0,0:0:0:0:
360,216,20088,1,0,0:0:0:0:
368,136,20264,2,0,L|370:72,2,55
354,291,20970,5,0,0:0:0:0:
290,214,21147,1,0,0:0:0:0:
368,136,21323,1,0,0:0:0:0:
284,72,21500,1,0,0:0:0:0:
206,147,21676,2,0,L|148:190,2,55
342,39,22382,5,0,0:0:0:0:
245,41,22558,1,0,0:0:0:0:
161,86,22735,1,0,0:0:0:0:
275,172,22911,1,0,0:0:0:0:
252,72,23088,2,0,L|239:13,2,55
296,256,23705,6,0,L|300:275,2,13.75
275,172,23970,1,0,0:0:0:0:
223,229,24147,1,0,0:0:0:0:
348,201,24323,2,0,P|354:158|342:131,1,55
211,129,24676,2,0,P|197:181|223:229,1,110
294,262,25205,5,0,0:0:0:0:
395,261,25382,1,0,0:0:0:0:
393,153,25558,1,0,0:0:0:0:
296,149,25735,1,0,0:0:0:0:
343,203,25911,2,0,L|345:277,2,55
343,203,26617,6,0,B|299:257|299:257|259:273,1,110
160,295,27147,1,0,0:0:0:0:
160,295,27323,2,0,P|148:249|80:210,1,110
31,157,28029,2,0,P|101:179|237:101,1,220
256,43,28911,1,0,0:0:0:0:
256,43,29264,6,0,P|269:96|328:150,1,131.99999597168
371,43,29794,1,0,0:0:0:0:
230,40,29970,1,0,0:0:0:0:
399,122,30147,1,0,0:0:0:0:
303,22,30323,2,0,P|308:79|327:99,1,65.9999979858399
399,122,30676,2,0,P|428:166|421:262,1,131.99999597168
399,319,31205,1,0,0:0:0:0:
496,284,31382,1,0,0:0:0:0:
427,383,31558,1,0,0:0:0:0:
429,243,31735,2,0,P|422:211|403:180,1,65.9999979858399
243,182,32088,6,0,P|278:228|373:242,1,131.99999597168
338,147,32617,1,0,0:0:0:0:
432,247,32794,1,0,0:0:0:0:
284,208,32970,1,0,0:0:0:0:
422,160,33147,2,0,P|417:108|406:94,1,65.9999979858399
246,62,33500,2,0,B|183:83|183:83|132:160,1,131.99999597168
110,208,34029,1,0,0:0:0:0:
231,143,34205,1,0,0:0:0:0:
77,142,34382,1,0,0:0:0:0:
204,214,34558,2,0,P|261:213|275:204,1,65.9999979858399
231,143,34911,6,0,P|175:142|127:214,1,131.99999597168
219,299,35441,1,0,0:0:0:0:
204,214,35617,1,0,0:0:0:0:
152,348,35794,1,0,0:0:0:0:
276,244,35970,2,0,P|279:193|272:176,1,65.9999979858399
128,257,36323,2,0,P|96:276|1:243,1,131.99999597168
41,135,36852,2,0,P|60:161|70:193,1,65.9999979858399
38,311,37205,2,0,P|18:284|9:253,1,65.9999979858399
140,185,37558,1,0,0:0:0:0:
140,185,37735,1,0,0:0:0:0:
214,294,37911,6,0,P|256:324|355:313,1,131.99999597168
393,271,38441,1,0,0:0:0:0:
211,289,38617,1,0,0:0:0:0:
296,221,38794,1,0,0:0:0:0:
393,271,38970,1,0,0:0:0:0:
221,209,39147,1,0,0:0:0:0:
410,146,39323,6,0,P|419:211|392:270,1,131.99999597168
288,287,39852,1,0,0:0:0:0:
221,209,40029,1,0,0:0:0:0:
272,113,40205,1,0,0:0:0:0:
376,123,40382,6,0,B|412:143|412:143|446:178,1,65.9999979858399
340,189,40735,2,0,P|305:146|339:63,1,131.99999597168
376,123,41264,1,0,0:0:0:0:
340,189,41441,1,0,0:0:0:0:
272,220,41617,1,0,0:0:0:0:
256,192,41794,12,0,43205,0:0:0:0:
206,233,43382,5,0,0:0:0:0:
206,233,43735,5,0,0:0:0:0:
131,315,43911,1,0,0:0:0:0:
275,263,44088,1,0,0:0:0:0:
121,239,44264,1,0,0:0:0:0:
237,337,44441,1,0,0:0:0:0:
216,169,44617,1,0,0:0:0:0:
121,239,44794,2,0,P|54:227|18:157,1,142.99999345398
145,96,45323,2,0,L|105:155,1,71.4999967269899
11,292,45676,1,0,0:0:0:0:
11,292,45852,1,0,0:0:0:0:
121,239,46029,1,0,0:0:0:0:
126,364,46205,6,0,P|58:343|10:291,1,142.99999345398
121,239,46735,2,0,L|203:252,1,71.4999967269899
340,275,47088,1,0,0:0:0:0:
340,275,47264,1,0,0:0:0:0:
270,167,47441,2,0,P|262:125|265:91,1,71.4999967269899
333,204,47794,6,0,P|341:246|338:280,1,71.4999967269899
196,171,48147,2,0,P|188:129|191:95,1,71.4999967269899
316,24,48500,1,0,0:0:0:0:
330,52,48588,1,0,0:0:0:0:
338,82,48676,1,0,0:0:0:0:
339,114,48764,1,0,0:0:0:0:
335,145,48852,1,0,0:0:0:0:
166,167,49029,6,0,P|216:127|308:130,1,142.99999345398
313,280,49558,2,0,P|283:259|259:234,1,71.4999967269899
381,127,49911,1,0,0:0:0:0:
402,224,50088,1,0,0:0:0:0:
315,282,50264,1,0,0:0:0:0:
229,223,50441,2,0,P|185:206|78:253,1,142.99999345398
169,318,50970,1,0,0:0:0:0:
28,262,51147,1,0,0:0:0:0:
98,347,51323,1,0,0:0:0:0:
36,190,51500,1,0,0:0:0:0:
110,275,51676,1,0,0:0:0:0:
110,275,51852,6,0,L|145:130,1,142.99999345398
249,68,52382,2,0,L|224:169,1,71.4999967269899
62,117,52735,2,0,P|73:92|115:58,1,71.4999967269899
263,95,53088,2,0,L|238:196,1,71.4999967269899
278,286,53441,6,0,P|305:242|334:221,1,71.4999967269899
349,218,53705,1,0,0:0:0:0:
381,217,53794,1,0,0:0:0:0:
410,230,53882,1,0,0:0:0:0:
431,253,53970,1,0,0:0:0:0:
436,284,54058,1,0,0:0:0:0:
426,314,54147,1,0,0:0:0:0:
278,286,54676,6,0,P|320:228|407:228,1,165.000006294251
364,305,55205,1,0,0:0:0:0:
208,264,55382,2,0,P|237:207|264:179,1,82.5000031471254
406,229,55735,1,0,0:0:0:0:
364,305,55911,1,0,0:0:0:0:
366,156,56088,2,0,L|373:48,1,82.5000031471254
406,229,56441,2,0,L|399:337,1,82.5000031471254
233,227,56794,2,0,P|285:166|366:156,1,165.000006294251
484,197,57323,1,0,0:0:0:0:
332,222,57500,1,0,0:0:0:0:
364,47,57676,6,0,P|390:111|360:207,1,165.000006294251
161,203,58205,2,0,P|175:158|291:128,1,165.000006294251
249,205,58735,1,0,0:0:0:0:
59,128,58911,2,0,P|124:95|211:146,1,165.000006294251
249,205,59441,1,0,0:0:0:0:
208,50,59617,1,0,0:0:0:0:
131,182,59794,1,0,0:0:0:0:
279,68,59970,1,0,0:0:0:0:
138,89,60147,1,0,0:0:0:0:
239,187,60323,1,0,0:0:0:0:
239,187,60500,6,0,P|223:242|102:302,1,165.000006294251
29,296,61029,2,0,P|45:241|166:181,1,165.000006294251
137,301,61558,1,0,0:0:0:0:
187,130,61735,1,0,0:0:0:0:
279,229,61911,6,0,B|220:282|220:282|121:304,1,165.000006294251
19,252,62441,2,0,L|193:214,1,165.000006294251
336,180,62970,1,0,0:0:0:0:
370,165,63058,1,0,0:0:0:0:
396,138,63147,1,0,0:0:0:0:
406,102,63235,1,0,0:0:0:0:
401,65,63323,6,0,B|396:33|370:10|370:10|256:22,1,165.000006294251
206,178,63852,2,0,L|239:255,1,82.5000031471254
349,299,64205,2,0,L|316:222,1,82.5000031471254
128,166,64558,1,0,0:0:0:0:
238,253,64735,5,0,0:0:0:0:
271,269,64823,1,0,0:0:0:0:
307,271,64911,1,0,0:0:0:0:
341,257,65000,1,0,0:0:0:0:
367,230,65088,1,0,0:0:0:0:
374,193,65176,1,0,0:0:0:0:
368,156,65264,1,0,0:0:0:0:
343,128,65352,1,0,0:0:0:0:
305,122,65441,1,0,0:0:0:0:
283,152,65529,1,0,0:0:0:0:
296,186,65617,1,0,0:0:0:0:
332,191,65705,1,0,0:0:0:0:
322,154,65794,5,0,0:0:0:0:
210,119,65970,6,0,B|145:117|145:117|36:182,1,165.000006294251
139,295,66500,1,0,0:0:0:0:
230,198,66676,2,0,L|204:99,1,82.5000031471254
59,168,67029,1,0,0:0:0:0:
208,268,67205,1,0,0:0:0:0:
116,114,67382,2,0,P|75:88|33:93,1,82.5000031471254
22,238,67735,2,0,P|57:184|54:136,1,82.5000031471254
62,57,68088,2,0,P|80:93|116:114,1,82.5000031471254
135,43,68441,1,0,0:0:0:0:
116,197,68617,1,0,0:0:0:0:
252,130,68794,1,0,0:0:0:0:
166,122,68970,6,0,B|203:201|203:201|248:224|292:206,1,165.000006294251
334,130,69500,2,0,L|241:130,1,82.5000031471254
148,253,69852,1,0,0:0:0:0:
278,210,70029,1,0,0:0:0:0:
133,176,70205,6,0,P|84:206|96:313,1,165.000006294251
170,349,70735,1,0,0:0:0:0:
270,326,70911,1,0,0:0:0:0:
150,271,71088,1,0,0:0:0:0:
230,382,71264,1,0,0:0:0:0:
263,247,71441,1,0,0:0:0:0:
219,308,71617,1,0,0:0:0:0:
193,194,71794,6,0,L|166:87,1,82.5000031471254
151,34,72147,1,0,0:0:0:0:
266,181,72323,2,0,L|227:18,1,165.000006294251
51,118,72852,1,0,0:0:0:0:
75,146,72941,1,0,0:0:0:0:
110,157,73029,1,0,0:0:0:0:
147,155,73117,1,0,0:0:0:0:
176,132,73205,5,0,0:0:0:0:
227,20,73382,1,0,0:0:0:0:
281,131,73558,1,0,0:0:0:0:
435,122,73735,2,0,P|392:83|282:106,1,165.000006294251
226,226,74264,1,0,0:0:0:0:
206,257,74352,1,0,0:0:0:0:
174,276,74441,1,0,0:0:0:0:
136,276,74529,1,0,0:0:0:0:
104,257,74617,6,0,P|69:212|114:107,1,165.000006294251
190,84,75147,1,0,0:0:0:0:
302,173,75323,1,0,0:0:0:0:
320,204,75411,1,0,0:0:0:0:
310,240,75500,1,0,0:0:0:0:
327,272,75588,1,0,0:0:0:0:
316,307,75676,2,0,B|304:357|304:357|258:381,1,82.5000031471254
175,379,76029,5,0,0:0:0:0:
327,272,76382,5,0,0:0:0:0:
184,342,76558,2,0,P|129:344|75:317,1,82.5000031471254
76,309,76823,1,0,0:0:0:0:
63,274,76911,1,0,0:0:0:0:
66,236,77000,1,0,0:0:0:0:
87,205,77088,1,0,0:0:0:0:
234,185,77264,1,0,0:0:0:0:
164,97,77441,6,0,P|133:134|122:184,1,88
234,185,77794,1,0,0:0:0:0:
348,198,77970,2,0,P|335:239|306:272,1,88
234,185,78323,1,0,0:0:0:0:
247,73,78500,2,0,P|288:85|321:114,1,88
234,185,78852,1,0,0:0:0:0:
144,255,79029,2,0,P|177:284|219:297,1,88
234,185,79382,5,0,0:0:0:0:
239,330,79558,1,0,0:0:0:0:
164,182,79735,1,0,0:0:0:0:
285,263,79911,1,0,0:0:0:0:
201,123,80088,1,0,0:0:0:0:
395,127,80264,6,0,L|286:126,1,88
201,123,80617,1,0,0:0:0:0:
336,264,80794,2,0,L|259:186,1,88
201,123,81147,1,0,0:0:0:0:
197,319,81323,2,0,L|198:210,1,88
201,123,81676,5,0,0:0:0:0:
263,283,81852,1,0,0:0:0:0:
263,283,82029,1,0,0:0:0:0:
272,167,82205,1,0,0:0:0:0:
197,319,82382,1,0,0:0:0:0:
322,231,82558,1,0,0:0:0:0:
175,223,82735,1,0,0:0:0:0:
322,231,82911,1,0,0:0:0:0:
276,79,83088,6,0,L|271:178,1,88
374,287,83441,1,0,0:0:0:0:
343,52,83617,2,0,L|338:151,1,88
441,260,83970,1,0,0:0:0:0:
441,260,84147,2,0,L|446:161,1,88
343,52,84500,5,0,0:0:0:0:
501,120,84676,1,0,0:0:0:0:
501,120,84852,1,0,0:0:0:0:
355,152,85029,1,0,0:0:0:0:
317,163,85117,1,0,0:0:0:0:
286,188,85205,1,0,0:0:0:0:
221,309,85382,1,0,0:0:0:0:
360,238,85558,1,0,0:0:0:0:
168,158,85735,1,0,0:0:0:0:
256,192,85911,12,0,89970,0:0:0:0:
