osu file format v14

[General]
AudioFilename: audio.mp3
AudioLeadIn: 0
PreviewTime: 40398
Countdown: 1
SampleSet: Normal
StackLeniency: 0.7
Mode: 0
LetterboxInBreaks: 0
WidescreenStoryboard: 1

[Editor]
DistanceSpacing: 1.1
BeatDivisor: 4
GridSize: 4
TimelineZoom: 1

[Metadata]
Title:Sono Koe wo Oboeteru (TV Size)
TitleUnicode:Sono Koe wo Oboeteru (TV Size)
Artist:Kawano Marina
ArtistUnicode:Kawano Marina
Creator:DylanSan
Version:Easy
Source:〈物語〉シリーズ セカンドシーズン
Tags:Monogatari Series Nekomonogatari Kabukimonogatari Otorimonogatari Onimonogatari Koimonogatari Shiro Mayoi Jianshi Aniplex Shaft ED
BeatmapID:1184289
BeatmapSetID:560016

[Difficulty]
HPDrainRate:2
CircleSize:2.5
OverallDifficulty:2
ApproachRate:2
SliderMultiplier:0.8
SliderTickRate:1

[Events]
//Background and Video events
0,0,"rebnam.jpg",0,0
//Break Periods
//Storyboard Layer 0 (Background)
//Storyboard Layer 1 (Fail)
//Storyboard Layer 2 (Pass)
//Storyboard Layer 3 (Foreground)
//Storyboard Layer 4 (Overlay)
//Storyboard Sound Samples

[TimingPoints]
1248,355.029585798817,4,1,0,30,1,0
6853,352.941176470588,4,1,0,30,1,0
8264,-100,4,1,0,30,0,1
16735,-100,4,1,0,30,0,0
77441,-100,4,1,0,30,0,1
85911,-100,4,1,0,30,0,0

[Colours]
Combo1 : 196,122,87
Combo2 : 0,213,213
Combo3 : 211,207,118
Combo4 : 245,84,75
Combo5 : 38,167,189
Combo6 : 177,233,63

[HitObjects]
154,274,1248,6,0,P|206:310|307:283,1,160
309,133,2668,2,0,P|257:97|156:124,1,160
73,244,4088,6,0,P|168:249|236:217,1,160
285,75,5508,2,0,B|400:157|400:157|442:311,1,300
368,364,7205,5,0,0:0:0:0:
285,333,7558,2,0,P|253:312|203:300,1,80
127,279,8264,6,0,L|114:147,1,120
207,64,9323,2,0,L|220:196,1,120
240,313,10382,2,0,P|283:330|329:328,2,80
245,180,11617,6,0,P|273:169|370:204,1,120
292,305,12676,2,0,P|264:316|167:281,1,120
160,208,13558,1,0,0:0:0:0:
98,144,13911,6,0,P|72:190|91:263,1,120
165,357,14970,2,0,P|211:383|284:364,1,120
366,276,16029,2,0,P|386:228|382:186,1,80
256,192,16735,12,0,18147,0:0:0:0:
256,191,18676,6,0,P|231:212|181:222,1,80
174,90,19558,2,0,B|245:76|245:76|300:84,1,120
376,109,20441,1,0,0:0:0:0:
382,240,20970,6,0,P|338:270|259:263,1,120
209,208,21852,1,0,0:0:0:0:
128,103,22382,2,0,L|69:214,1,120
26,284,23264,1,0,0:0:0:0:
155,309,23794,6,0,P|191:293|236:220,1,120
241,140,24676,1,0,0:0:0:0:
350,66,25205,2,0,P|379:64|429:88,1,80
367,151,25911,1,0,0:0:0:0:
370,238,26264,1,0,0:0:0:0:
306,299,26617,6,0,P|252:308|216:296,1,80
264,221,27323,1,0,0:0:0:0:
265,132,27676,1,0,0:0:0:0:
211,61,28029,2,0,B|117:53|117:53|118:92|86:123,1,160
58,240,29264,6,0,P|100:280|161:282,1,120
238,243,30147,1,0,0:0:0:0:
331,149,30676,2,0,P|289:109|228:107,1,120
151,146,31559,1,0,0:0:0:0:
235,247,32088,6,0,B|295:274|295:274|352:269,1,120
434,249,32970,1,0,0:0:0:0:
486,127,33500,2,0,B|426:100|426:100|369:105,1,120
287,125,34382,1,0,0:0:0:0:
156,140,34911,6,0,B|159:218|159:218|151:270,1,120
133,345,35794,1,0,0:0:0:0:
264,337,36323,2,0,P|340:306|356:268,1,120
357,187,37205,2,0,L|342:95,1,80
431,98,37911,6,0,L|446:190,1,80
449,265,38617,2,0,P|429:300|379:325,1,80
307,322,39323,2,0,B|251:319|251:319|234:283|191:260|152:270,1,160
84,299,40382,1,0,0:0:0:0:
99,212,40735,6,0,P|118:181|118:97,1,120
248,127,41794,2,0,B|297:142|336:147|375:140|375:140|368:182|376:214|400:249,1,240
502,164,43382,1,0,0:0:0:0:
447,43,43911,6,0,P|401:17|360:20,1,80
301,63,44617,1,0,0:0:0:0:
228,113,44970,2,0,B|177:140|177:140|142:147,2,80
107,57,46205,6,0,P|62:101|55:166,1,120
74,241,47088,2,0,L|122:309,1,80
199,345,47794,2,0,L|283:349,2,80
195,212,49029,6,0,P|216:190|310:203,1,120
373,240,49911,2,0,P|423:262|457:259,1,80
430,174,50617,2,0,L|425:88,1,80
354,40,51323,1,0,0:0:0:0:
245,114,51852,6,0,P|216:132|124:118,1,120
73,60,52735,1,0,0:0:0:0:
30,136,53088,1,0,0:0:0:0:
61,218,53441,2,0,P|110:245|226:250,1,160
297,152,54676,6,0,L|336:270,1,120
371,345,55558,1,0,0:0:0:0:
447,236,56088,2,0,L|407:109,1,120
383,38,56970,1,0,0:0:0:0:
300,69,57323,1,0,0:0:0:0:
213,83,57676,6,0,P|162:90|96:56,1,120
95,193,58735,1,0,0:0:0:0:
75,278,59088,2,0,P|61:316|64:359,1,80
147,330,59794,2,0,P|197:335|238:319,1,80
183,247,60500,6,0,B|215:82|215:83,1,160
231,3,61558,1,0,0:0:0:0:
304,50,61911,2,0,B|369:70|390:55|410:40|473:71,2,160
235,101,63676,5,0,0:0:0:0:
157,142,64029,2,0,L|71:190,1,80
21,239,64735,2,0,B|56:272|91:272|123:259|123:259|171:231,1,160
276,162,65970,6,0,L|326:281,1,120
352,355,66852,1,0,0:0:0:0:
398,231,67382,2,0,L|347:105,1,120
317,39,68264,1,0,0:0:0:0:
160,119,68970,6,0,B|103:150|103:150|70:196,2,120
247,110,70382,2,0,P|291:128|313:155,1,80
236,198,71088,2,0,P|263:226|300:240,1,80
388,237,71794,6,0,P|418:229|465:146,2,120
304,210,73205,2,0,L|251:320,1,120
119,322,74264,1,0,0:0:0:0:
114,234,74617,6,0,L|110:146,1,80
110,65,75323,1,0,0:0:0:0:
274,126,76029,5,0,0:0:0:0:
265,38,76382,2,0,P|222:53|191:158,1,160
236,228,77441,6,0,B|281:248|281:248|361:247,1,120
446,155,78500,2,0,B|401:135|401:135|321:136,1,120
202,170,79558,2,0,P|171:186|114:192,1,80
39,202,80264,6,0,L|73:328,1,120
191,370,81323,2,0,L|157:244,1,120
136,123,82382,2,0,P|141:80|171:47,1,80
223,117,83088,6,0,P|252:128|353:112,1,120
441,36,84147,2,0,L|463:172,1,120
406,274,85205,2,0,B|361:282|361:282|325:271|325:271|287:278,1,120
256,192,85911,12,0,89970,0:0:0:0:
