osu file format v14

[General]
AudioFilename: audio.mp3
AudioLeadIn: 0
PreviewTime: 54235
Countdown: 0
SampleSet: Soft
StackLeniency: 0.3
Mode: 0
LetterboxInBreaks: 0
WidescreenStoryboard: 0

[Editor]
Bookmarks: 29264,89970
DistanceSpacing: 0.5
BeatDivisor: 4
GridSize: 4
TimelineZoom: 3.4

[Metadata]
Title:Sono Koe o Oboeteru (TV Size)
TitleUnicode:その声を覚えてる (TV Size)
Artist:Kawano Marina
ArtistUnicode:河野マリナ
Creator:Alexsander
Version:Insane
Source:<物語>シリーズ セカンドシーズン
Tags:ending monogatari series Nadeko Medusa Ataraxia
BeatmapID:1659377
BeatmapSetID:703034

[Difficulty]
HPDrainRate:6.5
CircleSize:4
OverallDifficulty:8
ApproachRate:9
SliderMultiplier:1.8
SliderTickRate:1

[Events]
//Background and Video events
Video,660,"ED.avi"
0,0,"Sengoku.jpg",0,0
//Break Periods
//Storyboard Layer 0 (Background)
//Storyboard Layer 1 (Fail)
//Storyboard Layer 2 (Pass)
//Storyboard Layer 3 (Foreground)
//Storyboard Sound Samples

[TimingPoints]
1230,355.029585798817,4,2,1,40,1,0
5490,-200,4,2,1,40,0,0
6732,-200,4,2,1,5,0,0
6853,352.941176470588,4,2,13,60,1,0
7911,-100,4,2,10,60,0,0
8264,-100,4,2,12,50,0,0
8794,-100,4,2,10,50,0,0
11088,-100,4,2,12,50,0,0
11617,-100,4,2,10,50,0,0
13911,-100,4,2,12,50,0,0
14441,-100,4,2,10,55,0,0
15500,-100,4,2,12,55,0,0
16382,-100,4,3,50,50,0,0
16735,-133.333333333333,4,2,10,60,0,0
17794,-133.333333333333,4,2,15,20,0,0
18147,-117.647058823529,4,2,14,35,0,0
19382,-117.647058823529,4,2,14,15,0,0
19558,-117.647058823529,4,2,14,35,0,0
20794,-117.647058823529,4,2,14,15,0,0
20970,-117.647058823529,4,2,14,35,0,0
22205,-117.647058823529,4,2,14,15,0,0
22381,-117.647058823529,4,2,14,35,0,0
23617,-117.647058823529,4,2,14,15,0,0
23793,-117.647058823529,4,2,14,35,0,0
26441,-117.647058823529,4,2,14,15,0,0
26617,-117.647058823529,4,2,14,45,0,0
26970,-117.647058823529,4,2,14,35,0,0
27147,-117.647058823529,4,2,14,50,0,0
27323,-100,4,2,14,55,0,0
27588,-100,4,2,14,5,0,0
27676,-100,4,2,14,55,0,0
27941,-100,4,2,14,5,0,0
28029,-100,4,2,14,45,0,0
28558,-117.647058823529,4,2,13,35,0,0
29264,-100,4,2,10,40,0,0
29794,-100,4,2,16,40,0,0
34558,-100,4,2,13,40,0,0
34735,-100,4,2,14,40,0,0
34911,-100,4,2,10,40,0,0
35264,-100,4,2,16,40,0,0
37558,-100,4,2,15,25,0,0
37911,-100,4,2,10,40,0,0
38264,-100,4,2,16,40,0,0
40735,-100,4,2,10,40,0,0
41088,-100,4,2,16,40,0,0
41794,-100,4,2,10,40,0,0
42147,-100,4,2,16,40,0,0
43029,-100,4,2,13,40,0,0
43382,-100,4,2,12,45,0,0
43735,-100,4,2,15,45,0,0
46205,-100,4,2,12,45,0,0
46558,-100,4,2,12,45,0,0
46735,-100,4,2,15,45,0,0
48676,-100,4,2,15,45,0,0
49029,-100,4,2,12,45,0,0
49558,-100,4,2,15,45,0,0
51500,-100,4,2,15,45,0,0
51852,-100,4,2,12,45,0,0
52382,-100,4,2,15,45,0,0
53794,-100,4,2,15,70,0,0
54147,-100,4,2,50,60,0,0
54676,-90.9090909090909,4,2,12,50,0,1
55205,-90.9090909090909,4,2,15,50,0,1
55382,-90.9090909090909,4,2,0,50,0,1
55558,-90.9090909090909,4,2,15,50,0,1
56441,-90.9090909090909,4,2,0,50,0,1
56617,-90.9090909090909,4,2,15,50,0,1
56794,-90.9090909090909,4,2,0,50,0,1
56970,-90.9090909090909,4,2,15,50,0,1
58205,-90.9090909090909,4,2,0,50,0,1
58382,-90.9090909090909,4,2,15,50,0,1
58558,-90.9090909090909,4,2,0,50,0,1
58735,-90.9090909090909,4,2,15,50,0,1
58911,-90.9090909090909,4,2,0,50,0,1
59088,-90.9090909090909,4,2,15,50,0,1
60500,-90.9090909090909,4,2,12,50,0,1
60852,-90.9090909090909,4,2,15,50,0,1
65970,-90.9090909090909,4,2,12,50,0,1
66500,-90.9090909090909,4,2,15,50,0,1
66676,-90.9090909090909,4,2,0,50,0,1
66852,-90.9090909090909,4,2,15,50,0,1
67735,-90.9090909090909,4,2,0,50,0,1
67911,-90.9090909090909,4,2,15,50,0,1
69500,-90.9090909090909,4,2,0,50,0,1
69676,-90.9090909090909,4,2,15,50,0,1
71794,-90.9090909090909,4,2,10,85,0,1
71970,-90.9090909090909,4,2,10,50,0,1
72323,-90.9090909090909,4,2,12,50,0,1
72852,-90.9090909090909,4,2,15,50,0,1
73735,-90.9090909090909,4,2,10,85,0,1
74088,-90.9090909090909,4,2,10,50,0,1
74264,-90.9090909090909,4,2,15,50,0,1
74617,-90.9090909090909,4,2,15,55,0,1
76294,-90.9090909090909,4,2,15,5,0,1
76382,-90.9090909090909,4,2,10,70,0,1
76647,-90.9090909090909,4,2,10,5,0,1
76735,-90.9090909090909,4,2,50,60,0,1
76911,-90.9090909090909,4,2,15,30,0,1
77000,-90.9090909090909,4,2,15,60,0,1
77176,-90.9090909090909,4,2,50,50,0,1
77441,-100,4,2,12,50,0,0
77970,-100,4,2,10,50,0,0
79558,-100,4,2,12,50,0,0
80794,-100,4,2,10,50,0,0
81852,-100,4,2,12,50,0,0
82735,-100,4,2,50,50,0,0
83088,-100,4,2,12,50,0,0
83617,-100,4,2,10,50,0,0
84676,-100,4,2,15,50,0,0
85117,-100,4,2,15,30,0,0
85205,-100,4,2,15,60,0,0
85558,-100,4,2,50,50,0,0
85911,-100,4,2,12,70,0,0
86264,-100,4,2,12,60,0,0
86970,-100,4,2,12,40,0,0
88029,-100,4,2,12,30,0,0
89088,-100,4,2,12,20,0,0
89794,-100,4,2,12,10,0,0
89970,-100,4,2,1,5,0,0

[Colours]
Combo1 : 149,60,96
Combo2 : 222,137,68
Combo3 : 212,44,14
Combo4 : 209,179,36

[HitObjects]
139,301,5490,6,0,P|193:154|68:75,1,315,2|0,0:0|0:0,0:0:0:0:
34,58,6853,6,0,L|234:62,2,180,4|4|4,0:0|0:0|0:0,0:0:0:0:
7,231,7735,1,2,3:0:0:0:
7,231,7823,1,2,3:0:0:0:
7,231,7911,2,0,P|75:251|147:219,1,135,12|0,0:0|0:0,0:0:0:0:
164,216,8264,6,0,P|148:172|160:116,1,90,12|2,0:0|0:0,0:0:0:0:
248,20,8617,1,2,0:0:0:0:
392,167,8794,2,0,P|396:253|399:347,1,180,12|2,0:0|0:0,0:0:0:0:
260,260,9323,2,0,P|259:215|257:158,2,90,12|2|2,0:0|0:0|0:0,0:0:0:0:
166,355,9852,6,0,P|115:362|69:342,2,90,12|2|2,0:0|0:0|0:0,0:0:0:0:
260,260,10382,1,12,0:0:0:0:
166,355,10558,1,2,0:0:0:0:
145,213,10735,1,12,0:0:0:0:
259,353,10911,1,2,0:0:0:0:
98,133,11088,6,0,L|202:129,1,90,12|2,0:0|0:0,0:0:0:0:
49,215,11441,1,2,0:0:0:0:
142,21,11617,2,0,L|322:14,1,180,12|2,0:0|0:0,0:0:0:0:
430,135,12147,6,0,L|339:137,1,90,12|2,0:0|0:0,0:0:0:0:
475,50,12500,1,2,0:0:0:0:
384,245,12676,2,0,L|203:251,1,180,12|2,0:0|0:0,0:0:0:0:
38,293,13205,5,12,0:0:0:0:
38,293,13382,1,2,0:0:0:0:
204,250,13558,1,12,0:0:0:0:
136,378,13735,1,2,0:0:0:0:
207,225,13911,6,0,P|214:180|195:128,1,90,12|2,0:0|0:0,0:0:0:0:
142,25,14264,1,2,0:0:0:0:
10,176,14441,2,0,P|17:266|28:355,1,180,12|2,0:0|0:0,0:0:0:0:
153,243,14970,2,0,P|147:200|143:144,2,90,12|2|2,0:0|0:0|0:0,0:0:0:0:
263,342,15500,5,12,0:0:0:0:
359,204,15676,2,0,L|448:201,1,90,4|2,0:0|0:0,0:0:0:0:
352,343,16029,2,0,L|261:341,1,90,12|0,0:0|0:0,0:0:0:0:
359,204,16382,1,4,0:0:0:0:
262,341,16558,1,0,0:0:0:0:
101,253,16735,6,0,P|116:101|186:236,1,405.000015449525,6|4,0:0|0:0,0:0:0:0:
425,210,18147,6,0,B|385:234|385:234|330:228|266:227,1,153.000002918243,2|4,0:0|0:0,0:0:0:0:
188,236,18676,2,0,P|207:276|236:308,1,76.5000014591217,0|4,0:0|0:0,0:0:0:0:
225,152,19029,2,0,P|180:148|138:157,1,76.5000014591217,2|4,0:0|0:0,0:0:0:0:
48,217,19382,1,2,0:0:0:0:
37,65,19558,6,0,L|50:233,1,153.000002918243,2|4,0:0|0:0,0:0:0:0:
125,331,20088,2,0,L|119:254,1,76.5000014591217,0|4,0:0|0:0,0:0:0:0:
149,153,20441,1,2,0:0:0:0:
252,337,20794,1,2,0:0:0:0:
252,337,20970,6,0,L|340:329,1,76.5000014591217,2|0,0:0|0:0,0:0:0:0:
419,289,21323,1,4,0:0:0:0:
478,219,21500,1,0,0:0:0:0:
461,129,21676,1,4,0:0:0:0:
380,86,21852,1,2,0:0:0:0:
225,212,22205,1,2,0:0:0:0:
205,60,22382,6,0,L|225:219,1,153.000002918243,2|4,0:0|0:0,0:0:0:0:
340,182,22911,2,0,L|326:289,1,76.5000014591217,0|4,0:0|0:0,0:0:0:0:
233,287,23264,2,0,L|219:179,1,76.5000014591217,0|4,0:0|0:0,0:0:0:0:
315,112,23617,1,2,0:0:0:0:
315,112,23794,6,0,P|367:110|403:131,1,76.5000014591217,2|0,0:0|0:0,0:0:0:0:
484,135,24147,1,4,0:0:0:0:
484,135,24323,2,0,P|459:181|423:201,1,76.5000014591217,2|4,0:0|0:0,0:0:0:0:
378,271,24676,2,0,P|350:226|350:185,1,76.5000014591217,2|4,0:0|0:0,0:0:0:0:
360,92,25029,1,2,0:0:0:0:
251,47,25205,6,0,P|209:38|162:48,1,76.5000014591217,2|0,0:0|0:0,0:0:0:0:
117,172,25558,2,0,P|158:180|205:170,1,76.5000014591217,4|0,0:0|0:0,0:0:0:0:
67,39,25911,2,0,P|31:62|5:102,1,76.5000014591217,4|2,0:0|0:0,0:0:0:0:
61,222,26264,2,0,P|93:201|117:171,1,76.5000014591217,4|2,0:0|0:0,0:0:0:0:
67,39,26617,6,0,P|71:120|131:178,1,153.000002918243,2|4,0:0|0:0,0:0:0:0:
201,218,27147,1,0,0:0:0:0:
305,67,27323,6,0,P|238:51|176:85,1,135,4|0,0:0|0:0,0:0:0:0:
176,99,27676,2,0,P|214:164|178:239,1,135,4|0,0:0|0:0,0:0:0:0:
127,265,28029,6,0,L|325:253,1,180,2|0,0:0|0:0,0:0:0:0:
402,338,28558,1,0,0:0:0:0:
276,335,28735,1,0,0:0:0:0:
384,250,28911,2,0,P|387:211|370:158,1,76.5000014591217,4|8,0:0|0:0,0:0:0:0:
227,89,29264,6,0,P|143:65|57:122,1,180,6|2,0:0|0:0,0:0:0:0:
35,222,29794,1,12,0:0:0:0:
157,190,29970,1,0,0:0:0:0:
66,108,30147,1,6,0:0:0:0:
111,260,30323,2,0,P|155:272|224:245,1,90,2|8,0:0|0:0,0:0:0:0:
386,96,30676,6,0,P|308:56|220:95,1,180,2|2,0:0|0:0,0:0:0:0:
149,196,31205,1,12,0:0:0:0:
302,193,31382,1,0,0:0:0:0:
226,87,31558,2,0,P|177:80|119:106,1,90,4|2,0:0|0:0,0:0:0:0:
227,214,31911,1,12,0:0:0:0:
405,84,32088,6,0,L|216:87,1,180,2|2,0:0|0:0,0:0:0:0:
227,214,32617,1,12,0:0:0:0:
128,128,32794,1,0,0:0:0:0:
114,246,32970,1,6,0:0:0:0:
299,240,33147,2,0,P|297:189|265:146,1,90,2|12,0:0|0:0,0:0:0:0:
42,296,33500,6,0,L|221:293,1,180,2|2,0:0|0:0,0:0:0:0:
277,156,34029,1,12,0:0:0:0:
141,182,34205,1,0,0:0:0:0:
222,293,34382,1,6,0:0:0:0:
366,155,34558,2,0,L|276:156,1,90,4|12,0:0|0:0,0:0:0:0:
497,119,34911,6,0,P|496:218|424:274,1,180,6|2,0:0|0:0,0:0:0:0:
302,276,35441,1,12,0:0:0:0:
366,155,35617,1,0,0:0:0:0:
442,270,35794,1,6,0:0:0:0:
366,155,35970,2,0,P|322:142|266:165,1,90,2|12,0:0|0:0,0:0:0:0:
60,318,36323,6,0,L|267:310,1,180,2|2,0:0|0:0,0:0:0:0:
280,153,36852,2,0,L|190:156,1,90,12|0,0:0|0:0,0:0:0:0:
239,311,37205,2,0,L|328:307,1,90,6|2,0:0|0:0,0:0:0:0:
444,226,37558,1,4,0:0:0:0:
414,365,37735,1,8,0:0:0:0:
351,177,37911,6,0,P|428:116|509:152,1,180,6|12,0:0|0:0,0:0:0:0:
444,226,38441,1,0,0:0:0:0:
362,94,38617,1,6,0:0:0:0:
498,139,38794,1,2,0:0:0:0:
364,256,38970,2,0,L|271:256,1,90,12|0,0:0|0:0,0:0:0:0:
71,189,39323,6,0,P|156:186|211:107,1,180,6|12,0:0|0:0,0:0:0:0:
96,69,39852,1,0,0:0:0:0:
139,222,40029,1,4,0:0:0:0:
209,114,40205,1,2,0:0:0:0:
166,299,40382,2,0,P|115:297|73:273,1,90,12|0,0:0|0:0,0:0:0:0:
270,198,40735,6,0,P|362:162|437:207,1,180,6|12,0:0|0:0,0:0:0:0:
251,302,41264,2,0,P|173:240|175:152,1,180,2|2,0:0|0:0,0:0:0:0:
428,196,41794,6,0,L|428:396,1,180,12|4,0:0|0:0,0:0:0:0:
336,318,42323,2,0,L|336:228,1,90,2|12,0:0|0:0,0:0:0:0:
336,228,42852,1,4,0:0:0:0:
310,110,43029,1,6,0:0:0:0:
216,248,43205,1,8,0:0:0:0:
320,95,43382,6,0,P|236:63|141:119,1,180,4|2,0:0|0:0,0:0:0:0:
36,196,43911,2,0,L|32:92,2,90,12|0|6,0:0|0:0|0:0,0:0:0:0:
145,261,44441,1,2,0:0:0:0:
36,324,44617,1,12,0:0:0:0:
179,248,44794,6,0,P|224:237|273:250,1,90,0|6,0:0|0:0,0:0:0:0:
375,326,45147,1,0,0:0:0:0:
407,190,45323,2,0,P|415:142|399:86,1,90,12|0,0:0|0:0,0:0:0:0:
270,10,45676,2,0,P|262:58|278:114,1,90,6|2,0:0|0:0,0:0:0:0:
270,97,45941,1,2,0:0:0:0:
270,97,46029,1,8,0:0:0:0:
487,258,46205,6,0,L|487:70,1,180,4|2,0:0|0:0,0:0:0:0:
468,50,46647,1,2,0:0:0:0:
442,29,46735,2,0,P|393:20|330:44,1,90,12|0,0:0|0:0,0:0:0:0:
283,112,47088,1,6,0:0:0:0:
415,108,47264,1,2,0:0:0:0:
298,189,47441,2,0,P|253:183|215:159,1,90,12|0,0:0|0:0,0:0:0:0:
83,253,47794,6,0,L|99:364,1,90,6|2,0:0|0:0,0:0:0:0:
203,249,48147,2,0,L|216:160,1,90,12|0,0:0|0:0,0:0:0:0:
97,42,48500,2,0,L|113:153,1,90,6|2,0:0|0:0,0:0:0:0:
123,172,48764,1,2,0:0:0:0:
123,172,48852,1,8,0:0:0:0:
244,28,49029,6,0,P|335:0|417:69,1,180,4|2,0:0|0:0,0:0:0:0:
507,132,49558,1,12,0:0:0:0:
497,9,49735,1,0,0:0:0:0:
388,155,49911,2,0,P|388:208|420:268,1,90,6|2,0:0|0:0,0:0:0:0:
499,315,50264,1,12,0:0:0:0:
320,329,50441,6,0,L|507:315,1,180,2|0,0:0|0:0,0:0:0:0:
388,155,50970,2,0,L|298:161,1,90,12|0,0:0|0:0,0:0:0:0:
177,236,51323,1,6,0:0:0:0:
316,253,51500,1,2,0:0:0:0:
202,142,51676,1,8,0:0:0:0:
184,344,51852,6,0,P|96:368|3:320,1,180,4|2,0:0|0:0,0:0:0:0:
104,197,52382,2,0,P|115:247|103:293,1,90,12|0,0:0|0:0,0:0:0:0:
266,205,52735,1,6,0:0:0:0:
108,285,52911,1,2,0:0:0:0:
278,345,53088,1,12,0:0:0:0:
108,285,53264,1,0,0:0:0:0:
352,277,53441,5,12,0:0:0:0:
352,277,53529,1,0,0:0:0:0:
352,277,53617,2,0,L|416:269,1,45,0|8,0:0|0:0,0:0:0:0:
466,204,53794,1,8,0:1:0:0:
472,168,53882,1,8,0:1:0:0:
466,132,53970,1,8,0:1:0:0:
446,102,54058,1,8,0:1:0:0:
417,79,54147,1,4,3:0:0:0:
176,64,54676,6,0,L|184:276,1,198.000006042481,4|2,0:0|0:0,0:0:0:0:
304,348,55205,1,12,0:0:0:0:
183,261,55382,2,0,P|136:252|72:276,1,99.0000030212403,2|12,0:0|0:0,0:0:0:0:
214,360,55735,1,2,0:0:0:0:
252,186,55911,1,12,0:0:0:0:
24,324,56088,6,0,P|4:281|10:225,1,99.0000030212403,2|12,0:0|0:0,0:0:0:0:
121,75,56441,2,0,P|141:118|135:174,1,99.0000030212403,2|12,0:0|0:0,0:0:0:0:
103,339,56794,2,0,P|145:282|266:287,1,198.000006042481,2|2,0:0|0:0,0:0:0:0:
338,353,57323,1,12,0:0:0:0:
196,350,57500,1,2,0:0:0:0:
392,287,57676,6,0,P|415:190|342:110,1,198.000006042481,12|12,0:0|0:0,0:0:0:0:
343,353,58205,2,0,P|396:364|458:338,1,99.0000030212403,2|12,0:0|0:0,0:0:0:0:
312,213,58558,2,0,P|258:201|196:227,1,99.0000030212403,0|12,0:0|0:0,0:0:0:0:
108,363,58911,6,0,P|202:362|264:246,1,198.000006042481,2|0,0:0|0:0,0:0:0:0:
114,182,59441,1,12,0:0:0:0:
7,310,59617,1,2,0:0:0:0:
159,281,59794,1,12,0:0:0:0:
151,98,59970,1,2,0:0:0:0:
262,285,60147,1,12,0:0:0:0:
314,91,60323,1,0,0:0:0:0:
442,275,60500,6,0,P|354:314|262:285,1,198.000006042481,12|12,0:0|0:0,0:0:0:0:
137,170,61029,2,0,P|229:194|261:284,1,198.000006042481,2|2,0:0|0:0,0:0:0:0:
73,295,61558,2,0,P|125:298|167:267,1,99.0000030212403,12|2,0:0|0:0,0:0:0:0:
210,80,61911,6,0,B|170:44|121:37|121:37|64:64|31:124,1,198.000006042481,12|12,0:0|0:0,0:0:0:0:
138,169,62441,2,0,B|178:205|227:212|227:212|284:185|317:125,1,198.000006042481,2|2,0:0|0:0,0:0:0:0:
213,104,62970,1,12,0:0:0:0:
236,249,63147,1,0,0:0:0:0:
328,45,63323,6,0,P|380:36|440:61,1,99.0000030212403,12|0,0:0|0:0,0:0:0:0:
302,162,63676,1,12,0:0:0:0:
201,31,63852,1,0,0:0:0:0:
328,45,64029,1,12,0:0:0:0:
139,181,64205,1,2,0:0:0:0:
105,40,64382,1,12,0:0:0:0:
230,116,64558,1,2,0:0:0:0:
72,279,64735,6,0,P|76:303|78:328,3,49.5000015106202,12|0|0|0,0:0|0:0|0:0|0:0,0:0:0:0:
176,257,65088,2,0,P|179:230|180:184,3,49.5000015106202,12|0|0|0,0:0|0:0|0:0|0:0,0:0:0:0:
275,154,65441,6,0,P|282:185|285:207,1,49.5000015106202,12|0,0:0|0:0,0:0:0:0:
370,292,65617,2,0,P|373:265|374:242,1,49.5000015106202,2|0,0:0|0:0,0:0:0:0:
446,188,65794,2,0,P|443:164|438:140,1,49.5000015106202,12|0,0:0|0:0,0:0:0:0:
285,35,65970,6,0,P|236:24|181:52,1,99.0000030212403,4|0,0:0|0:0,0:0:0:0:
110,166,66323,1,2,0:0:0:0:
243,98,66500,1,12,0:0:0:0:
96,47,66676,2,0,P|47:36|-8:64,1,99.0000030212403,2|12,0:0|0:0,0:0:0:0:
110,166,67029,1,2,0:0:0:0:
192,41,67205,1,12,0:0:0:0:
313,197,67382,6,0,P|310:247|269:292,1,99.0000030212403,2|12,0:0|0:0,0:0:0:0:
248,104,67735,2,0,P|292:81|352:94,1,99.0000030212403,2|12,0:0|0:0,0:0:0:0:
471,162,68088,2,0,L|475:54,1,99.0000030212403,2|12,0:0|0:0,0:0:0:0:
339,87,68441,1,2,0:0:0:0:
409,217,68617,1,12,0:0:0:0:
474,63,68794,1,2,0:0:0:0:
275,36,68970,6,0,P|184:29|108:106,1,198.000006042481,12|12,0:0|0:0,0:0:0:0:
197,211,69500,2,0,P|219:167|213:119,1,99.0000030212403,2|12,0:0|0:0,0:0:0:0:
25,40,69852,2,0,P|2:83|8:131,1,99.0000030212403,2|12,0:0|0:0,0:0:0:0:
143,283,70205,6,0,P|243:282|288:184,1,198.000006042481,2|0,0:0|0:0,0:0:0:0:
303,68,70735,1,12,0:0:0:0:
197,211,70911,1,2,0:0:0:0:
197,211,71000,1,2,0:0:0:0:
197,211,71088,1,12,0:0:0:0:
373,246,71264,1,2,0:0:0:0:
246,132,71441,1,12,0:0:0:0:
198,295,71617,1,2,0:0:0:0:
5,176,71794,6,0,P|70:102|170:123,1,198.000006042481,6|8,0:0|0:0,0:0:0:0:
110,310,72323,1,4,0:0:0:0:
110,310,72676,2,0,L|107:212,1,99.0000030212403,0|12,0:0|0:0,0:0:0:0:
8,265,73029,1,0,0:0:0:0:
160,115,73205,6,0,P|66:103|5:176,1,198.000006042481,2|8,0:0|0:0,0:0:0:0:
110,310,73735,1,4,0:0:0:0:
110,310,74088,1,2,0:0:0:0:
192,226,74264,1,12,0:0:0:0:
222,225,74352,1,0,0:0:0:0:
251,234,74441,1,0,0:0:0:0:
273,254,74529,1,0,0:0:0:0:
286,281,74617,6,0,L|286:153,1,99.0000030212403,12|0,0:0|0:0,0:0:0:0:
273,36,74970,1,12,0:0:0:0:
145,111,75147,1,0,0:0:0:0:
279,179,75323,1,12,0:0:0:0:
279,179,75411,1,0,0:0:0:0:
279,179,75500,2,0,L|351:182,1,49.5000015106202,2|0,0:0|0:0,0:0:0:0:
430,278,75676,1,12,0:0:0:0:
430,278,75764,1,0,0:0:0:0:
430,278,75852,2,0,L|380:275,1,49.5000015106202,2|0,0:0|0:0,0:0:0:0:
263,305,76029,6,0,P|303:227|255:164,1,148.50000453186,8|0,0:0|0:0,0:0:0:0:
263,179,76382,2,0,B|101:179,1,148.50000453186,12|0,0:0|0:0,0:0:0:0:
89,179,76735,5,2,3:0:0:0:
68,359,76911,1,8,0:0:0:0:
68,359,77000,1,8,0:0:0:0:
68,359,77088,1,8,0:0:0:0:
0,233,77264,1,4,3:0:0:0:
207,292,77441,6,0,P|255:300|319:276,1,90,12|2,0:0|0:0,0:0:0:0:
344,174,77794,1,2,0:0:0:0:
140,232,77970,2,0,P|122:318|189:383,1,180,12|2,0:0|0:0,0:0:0:0:
232,210,78500,2,0,P|210:165|165:144,2,90,12|2|2,0:0|0:0|0:0,0:0:0:0:
73,136,79029,6,0,P|90:71|210:47,1,180,12|2,0:0|0:0,0:0:0:0:
322,114,79558,1,12,0:0:0:0:
176,146,79735,1,2,0:0:0:0:
269,12,79911,1,12,0:0:0:0:
363,182,80088,1,2,0:0:0:0:
179,235,80264,6,0,L|175:131,1,90,12|2,0:0|0:0,0:0:0:0:
110,309,80617,1,2,0:0:0:0:
276,192,80794,2,0,L|269:10,1,180,12|2,0:0|0:0,0:0:0:0:
354,160,81323,1,12,0:0:0:0:
189,98,81500,1,2,0:0:0:0:
406,64,81676,5,2,0:0:0:0:
323,267,81852,2,0,P|271:271|207:259,1,90,12|2,0:0|0:0,0:0:0:0:
92,172,82205,1,2,0:0:0:0:
276,192,82382,1,12,0:0:0:0:
121,285,82558,1,2,0:0:0:0:
226,97,82735,1,2,3:0:0:0:
228,265,82911,1,4,3:0:0:0:
48,93,83088,6,0,L|157:92,1,90,12|2,0:0|0:0,0:0:0:0:
0,200,83441,1,2,0:0:0:0:
94,7,83617,2,0,L|308:6,1,180,12|2,0:0|0:0,0:0:0:0:
146,178,84147,2,0,P|131:135|137:91,1,90,12|2,0:0|0:0,0:0:0:0:
237,228,84500,5,2,0:0:0:0:
78,221,84676,1,12,0:0:0:0:
217,125,84852,1,12,0:0:0:0:
269,301,85029,1,2,0:0:0:0:
230,315,85117,1,8,0:0:0:0:
190,318,85205,1,8,0:0:0:0:
151,309,85294,1,0,3:0:0:0:
115,290,85382,1,0,3:0:0:0:
88,260,85470,1,0,3:0:0:0:
78,221,85558,5,4,3:0:0:0:
182,60,85735,1,2,3:0:0:0:
307,234,85911,5,4,0:0:0:0:
256,192,86000,12,0,89970,0:0:0:0:
