osu file format v14

[General]
AudioFilename: audio.mp3
AudioLeadIn: 0
PreviewTime: 54235
Countdown: 0
SampleSet: Soft
StackLeniency: 0.5
Mode: 0
LetterboxInBreaks: 0
WidescreenStoryboard: 0

[Editor]
Bookmarks: 89970
DistanceSpacing: 1.6
BeatDivisor: 4
GridSize: 8
TimelineZoom: 2.8

[Metadata]
Title:Sono Koe o Oboeteru (TV Size)
TitleUnicode:その声を覚えてる (TV Size)
Artist:Kawano Marina
ArtistUnicode:河野マリナ
Creator:Alexsander
Version:Hard
Source:<物語>シリーズ セカンドシーズン
Tags:ending monogatari series Nadeko Medusa Ataraxia
BeatmapID:1659376
BeatmapSetID:703034

[Difficulty]
HPDrainRate:5
CircleSize:4
OverallDifficulty:6
ApproachRate:8
SliderMultiplier:1.4
SliderTickRate:1

[Events]
//Background and Video events
Video,660,"ED.avi"
0,0,"Sengoku.jpg",0,0
//Break Periods
//Storyboard Layer 0 (Background)
//Storyboard Layer 1 (Fail)
//Storyboard Layer 2 (Pass)
//Storyboard Layer 3 (Foreground)
//Storyboard Sound Samples

[TimingPoints]
1230,355.029585798817,4,2,1,40,1,0
6732,-100,4,2,1,5,0,0
6853,352.941176470588,4,2,13,60,1,0
7911,-100,4,2,10,60,0,0
8264,-100,4,2,12,50,0,0
8794,-100,4,2,10,50,0,0
11088,-100,4,2,12,50,0,0
11617,-100,4,2,10,50,0,0
13911,-100,4,2,12,50,0,0
14441,-100,4,2,10,55,0,0
15500,-100,4,2,12,55,0,0
16382,-100,4,3,50,50,0,0
16735,-100,4,2,10,60,0,0
17794,-100,4,2,15,20,0,0
18147,-100,4,2,14,35,0,0
19382,-100,4,2,14,15,0,0
19558,-100,4,2,14,35,0,0
20794,-100,4,2,14,15,0,0
20970,-100,4,2,14,35,0,0
22205,-100,4,2,14,15,0,0
22381,-100,4,2,14,35,0,0
23617,-100,4,2,14,15,0,0
23793,-100,4,2,14,35,0,0
26441,-100,4,2,14,15,0,0
26617,-100,4,2,14,45,0,0
26970,-100,4,2,14,35,0,0
27147,-100,4,2,14,50,0,0
27323,-100,4,2,14,55,0,0
27588,-100,4,2,14,5,0,0
27676,-100,4,2,14,55,0,0
27941,-100,4,2,14,5,0,0
28029,-100,4,2,14,45,0,0
28558,-100,4,2,13,35,0,0
29264,-100,4,2,10,40,0,0
29794,-100,4,2,16,40,0,0
34558,-100,4,2,13,40,0,0
34735,-100,4,2,14,40,0,0
34911,-100,4,2,10,40,0,0
35264,-100,4,2,16,40,0,0
37558,-100,4,2,15,25,0,0
37911,-100,4,2,10,40,0,0
38264,-100,4,2,16,40,0,0
40735,-100,4,2,10,40,0,0
41088,-100,4,2,16,40,0,0
41794,-100,4,2,10,40,0,0
42147,-100,4,2,16,40,0,0
43029,-100,4,2,13,40,0,0
43382,-100,4,2,12,45,0,0
43735,-100,4,2,15,45,0,0
46205,-100,4,2,12,45,0,0
46735,-100,4,2,15,45,0,0
49029,-100,4,2,12,45,0,0
49558,-100,4,2,15,45,0,0
51852,-100,4,2,12,45,0,0
52382,-100,4,2,15,45,0,0
53794,-100,4,2,15,70,0,0
54147,-100,4,2,50,60,0,0
54676,-100,4,2,12,50,0,1
55205,-100,4,2,15,50,0,1
55382,-100,4,2,0,50,0,1
55558,-100,4,2,15,50,0,1
56441,-100,4,2,0,50,0,1
56617,-100,4,2,15,50,0,1
56794,-100,4,2,0,50,0,1
56970,-100,4,2,15,50,0,1
58205,-100,4,2,0,50,0,1
58382,-100,4,2,15,50,0,1
58558,-100,4,2,0,50,0,1
58735,-100,4,2,15,50,0,1
58911,-100,4,2,0,50,0,1
59088,-100,4,2,15,50,0,1
60500,-100,4,2,12,50,0,1
60852,-100,4,2,15,50,0,1
65970,-100,4,2,12,50,0,1
66500,-100,4,2,15,50,0,1
66676,-100,4,2,0,50,0,1
66852,-100,4,2,15,50,0,1
67735,-100,4,2,0,50,0,1
67911,-100,4,2,15,50,0,1
69500,-100,4,2,0,50,0,1
69676,-100,4,2,15,50,0,1
71794,-100,4,2,10,85,0,1
71970,-100,4,2,10,50,0,1
72323,-100,4,2,12,50,0,1
72852,-100,4,2,15,50,0,1
73735,-100,4,2,10,85,0,1
74088,-100,4,2,10,50,0,1
74264,-100,4,2,15,50,0,1
74617,-100,4,2,15,55,0,1
76382,-100,4,2,10,70,0,1
76735,-100,4,2,50,60,0,1
76911,-100,4,2,15,30,0,1
77000,-100,4,2,15,60,0,1
77176,-100,4,2,50,50,0,1
77441,-100,4,2,12,50,0,0
77970,-100,4,2,10,50,0,0
79558,-100,4,2,12,50,0,0
80794,-100,4,2,10,50,0,0
81852,-100,4,2,12,50,0,0
82735,-100,4,2,50,50,0,0
83088,-100,4,2,12,50,0,0
83617,-100,4,2,10,50,0,0
84676,-100,4,2,15,50,0,0
85117,-100,4,2,15,30,0,0
85205,-100,4,2,15,60,0,0
85558,-100,4,2,50,50,0,0
85911,-100,4,2,12,70,0,0
86264,-100,4,2,12,60,0,0
86970,-100,4,2,12,40,0,0
88029,-100,4,2,12,30,0,0
89088,-100,4,2,12,20,0,0
89794,-100,4,2,12,10,0,0
89970,-100,4,2,1,5,0,0

[Colours]
Combo1 : 149,60,96
Combo2 : 222,137,68
Combo3 : 212,44,14
Combo4 : 209,179,36

[HitObjects]
256,192,5490,12,4,6853,0:0:0:0:
338,95,7558,6,0,P|350:135|338:183,1,70,4|2,0:0|3:0,0:0:0:0:
334,187,7823,1,2,3:0:0:0:
314,207,7911,2,0,L|226:203,1,70,12|0,0:0|0:0,0:0:0:0:
155,133,8264,6,0,P|130:197|150:270,1,140,12|2,0:0|0:0,0:0:0:0:
238,282,8794,2,0,P|206:330|122:354,1,140,12|2,0:0|0:0,0:0:0:0:
41,332,9323,2,0,L|33:244,1,70,12|2,0:0|0:0,0:0:0:0:
42,167,9676,1,2,0:0:0:0:
139,114,9852,2,0,L|291:122,1,140,12|2,0:0|0:0,0:0:0:0:
223,209,10382,2,0,L|153:205,1,70,12|2,0:0|0:0,0:0:0:0:
214,299,10735,2,0,L|283:302,1,70,12|2,0:0|0:0,0:0:0:0:
366,374,11088,6,0,P|386:312|359:232,1,140,12|2,0:0|0:0,0:0:0:0:
299,174,11617,2,0,P|280:107|300:41,1,140,12|2,0:0|0:0,0:0:0:0:
365,110,12147,2,0,L|449:106,2,70,12|2|2,0:0|0:0|0:0,0:0:0:0:
450,184,12676,2,0,P|504:143|494:55,1,140,12|2,0:0|0:0,0:0:0:0:
427,38,13205,2,0,L|438:126,1,70,12|2,0:0|0:0,0:0:0:0:
371,181,13558,2,0,P|373:223|403:260,1,70,12|2,0:0|0:0,0:0:0:0:
470,321,13911,6,0,L|311:329,1,140,12|2,0:0|0:0,0:0:0:0:
250,269,14441,2,0,P|266:207|235:133,1,140,12|2,0:0|0:0,0:0:0:0:
146,148,14970,2,0,P|155:184|204:216,2,70,12|2|2,0:0|0:0|0:0,0:0:0:0:
201,54,15500,1,12,0:0:0:0:
104,46,15676,2,0,L|22:48,1,70,4|2,0:0|0:0,0:0:0:0:
76,153,16029,2,0,L|145:148,1,70,12|0,0:0|0:0,0:0:0:0:
211,211,16382,1,4,0:0:0:0:
276,146,16558,1,0,0:0:0:0:
211,82,16735,5,6,0:0:0:0:
387,286,17794,1,4,0:0:0:0:
246,174,18147,6,0,P|177:162|95:189,1,140,2|4,0:0|0:0,0:0:0:0:
31,224,18676,2,0,P|24:190|25:154,1,70,0|4,0:0|0:0,0:0:0:0:
68,74,19029,1,2,0:0:0:0:
243,122,19382,5,2,0:0:0:0:
243,122,19558,2,0,P|312:121|382:120,1,140,2|4,0:0|0:0,0:0:0:0:
382,211,20088,2,0,P|347:211|312:211,1,70,0|4,0:0|0:0,0:0:0:0:
220,211,20441,1,2,0:0:0:0:
76,98,20794,5,2,0:0:0:0:
76,98,20970,2,0,L|75:180,1,70,2|0,0:0|0:0,0:0:0:0:
105,253,21323,1,4,0:0:0:0:
186,294,21500,1,0,0:0:0:0:
268,257,21676,1,4,0:0:0:0:
291,169,21852,1,2,0:0:0:0:
181,23,22205,5,2,0:0:0:0:
181,23,22382,2,0,L|37:21,1,140,2|4,0:0|0:0,0:0:0:0:
41,112,22911,2,0,L|110:112,1,70,0|4,0:0|0:0,0:0:0:0:
202,112,23264,1,0,0:0:0:0:
294,268,23617,5,2,0:0:0:0:
294,268,23794,2,0,P|357:270|417:201,1,140,2|4,0:0|0:0,0:0:0:0:
470,150,24323,2,0,P|442:135|402:130,1,70,2|4,0:0|0:0,0:0:0:0:
326,176,24676,1,2,0:0:0:0:
210,35,25029,5,2,0:0:0:0:
210,35,25205,2,0,P|141:25|66:69,1,140,2|4,0:0|0:0,0:0:0:0:
7,111,25735,2,0,P|40:136|95:144,1,70,0|4,0:0|0:0,0:0:0:0:
157,136,26088,1,2,0:0:0:0:
287,267,26441,5,2,0:0:0:0:
287,267,26617,2,0,P|356:281|432:236,1,140,2|4,0:0|0:0,0:0:0:0:
351,190,27147,1,0,0:0:0:0:
351,190,27323,2,0,L|258:185,1,70,4|0,0:0|0:0,0:0:0:0:
289,95,27676,2,0,L|359:98,1,70,4|0,0:0|0:0,0:0:0:0:
432,164,28029,5,2,0:0:0:0:
237,355,28558,1,0,0:0:0:0:
141,339,28735,2,0,P|132:299|152:250,1,70,0|4,0:0|0:0,0:0:0:0:
222,216,29088,1,8,0:0:0:0:
120,141,29264,6,0,P|51:120|-22:153,1,140,6|2,0:0|0:0,0:0:0:0:
56,209,29794,2,0,L|53:282,2,70,12|0|6,0:0|0:0|0:0,0:0:0:0:
120,141,30323,2,0,P|159:134|205:148,1,70,2|8,0:0|0:0,0:0:0:0:
288,217,30676,6,0,L|282:55,1,140,2|2,0:0|0:0,0:0:0:0:
367,28,31205,1,12,0:0:0:0:
367,126,31382,1,0,0:0:0:0:
282,77,31558,1,4,0:0:0:0:
367,126,31735,2,0,L|369:195,1,70,2|12,0:0|0:0,0:0:0:0:
352,312,32088,6,0,P|288:331|205:303,1,140,2|2,0:0|0:0,0:0:0:0:
155,256,32617,2,0,L|154:182,1,70,12|0,0:0|0:0,0:0:0:0:
213,129,32970,2,0,L|213:59,1,70,6|2,0:0|0:0,0:0:0:0:
128,24,33323,1,12,0:0:0:0:
62,133,33500,6,0,B|98:190|37:221|79:287,1,140,2|2,0:0|0:0,0:0:0:0:
142,335,34029,1,12,0:0:0:0:
228,286,34205,1,0,0:0:0:0:
141,241,34382,1,6,0:0:0:0:
228,286,34558,2,0,P|268:293|316:277,1,70,4|12,0:0|0:0,0:0:0:0:
400,215,34911,6,0,P|420:148|386:72,1,140,6|2,0:0|0:0,0:0:0:0:
298,95,35441,2,0,L|301:179,1,70,12|0,0:0|0:0,0:0:0:0:
214,211,35794,2,0,L|211:141,2,70,6|2|12,0:0|0:0|0:0,0:0:0:0:
258,324,36323,6,0,P|329:343|406:301,1,140,2|2,0:0|0:0,0:0:0:0:
413,231,36852,2,0,L|409:154,1,70,12|0,0:0|0:0,0:0:0:0:
321,187,37205,2,0,L|324:256,1,70,6|2,0:0|0:0,0:0:0:0:
258,324,37558,1,4,0:0:0:0:
258,324,37735,1,8,0:0:0:0:
201,237,37911,6,0,L|50:238,1,140,6|12,0:0|0:0,0:0:0:0:
97,146,38441,2,0,L|166:145,1,70,0|6,0:0|0:0,0:0:0:0:
252,94,38794,1,2,0:0:0:0:
166,45,38970,1,12,0:0:0:0:
166,144,39147,1,0,0:0:0:0:
252,94,39323,6,0,P|318:78|396:104,1,140,6|12,0:0|0:0,0:0:0:0:
447,173,39852,1,0,0:0:0:0:
447,173,39941,1,0,0:0:0:0:
447,173,40029,2,0,L|448:269,1,70,4|2,0:0|0:0,0:0:0:0:
392,324,40382,1,12,0:0:0:0:
323,254,40558,1,0,0:0:0:0:
220,347,40735,6,0,P|159:364|68:326,1,140,6|12,0:0|0:0,0:0:0:0:
154,284,41264,2,0,L|155:185,2,70,2|0|2,0:0|0:0|0:0,0:0:0:0:
225,139,41794,6,0,P|159:117|92:134,1,140,12|4,0:0|0:0,0:0:0:0:
14,186,42323,2,0,P|10:227|33:276,1,70,2|12,0:0|0:0,0:0:0:0:
193,301,42852,2,0,P|177:340|135:372,2,70,4|6|8,0:0|0:0|0:0,0:0:0:0:
146,215,43382,6,0,P|217:209|292:262,1,140,4|2,0:0|0:0,0:0:0:0:
320,329,43911,2,0,P|350:301|368:258,2,70,12|0|6,0:0|0:0|0:0,0:0:0:0:
275,241,44441,1,2,0:0:0:0:
352,187,44617,2,0,P|386:186|419:197,1,70,12|0,0:0|0:0,0:0:0:0:
430,295,44970,6,0,L|352:272,2,70,6|0|12,0:0|0:0|0:0,0:0:0:0:
486,217,45500,2,0,L|408:194,1,70,0|6,0:0|0:0,0:0:0:0:
357,102,45852,1,2,0:0:0:0:
357,102,46029,1,8,0:0:0:0:
467,85,46205,6,0,P|494:144|477:234,1,140,4|2,0:0|0:0,0:0:0:0:
427,287,46735,2,0,L|433:370,1,70,12|0,0:0|0:0,0:0:0:0:
341,367,47088,2,0,L|335:297,1,70,6|2,0:0|0:0,0:0:0:0:
243,297,47441,2,0,L|248:366,1,70,12|0,0:0|0:0,0:0:0:0:
291,232,47794,5,6,0:0:0:0:
181,86,48147,1,12,0:0:0:0:
73,232,48500,2,0,P|68:266|78:301,1,70,6|2,0:0|0:0,0:0:0:0:
78,300,48764,1,2,0:0:0:0:
78,300,48852,1,8,0:0:0:0:
157,364,49029,6,0,L|305:353,1,140,4|2,0:0|0:0,0:0:0:0:
386,340,49558,1,12,0:0:0:0:
328,269,49735,1,0,0:0:0:0:
406,223,49911,2,0,P|410:184|401:147,2,70,6|2|12,0:0|0:0|0:0,0:0:0:0:
322,185,50441,2,0,L|319:107,1,70,2|0,0:0|0:0,0:0:0:0:
316,23,50794,5,0,0:0:0:0:
247,82,50970,2,0,P|242:125|265:176,2,70,12|0|6,0:0|0:0|0:0,0:0:0:0:
322,185,51500,1,2,0:0:0:0:
260,251,51676,1,8,0:0:0:0:
178,210,51852,6,0,B|113:192|113:192|35:211,1,140,4|2,0:0|0:0,0:0:0:0:
33,300,52382,2,0,L|111:300,1,70,12|0,0:0|0:0,0:0:0:0:
145,380,52735,2,0,L|75:380,1,70,6|2,0:0|0:0,0:0:0:0:
187,299,53088,2,0,L|257:299,1,70,12|0,0:0|0:0,0:0:0:0:
347,334,53441,5,12,0:0:0:0:
414,255,53617,1,0,0:0:0:0:
414,255,53705,1,8,0:0:0:0:
414,255,53794,2,0,L|413:220,3,35,8|8|8|8,0:1|0:1|0:1|0:1,0:0:0:0:
430,190,54147,1,4,3:0:0:0:
347,334,54676,6,0,P|283:356|201:319,1,140,4|2,0:0|0:0,0:0:0:0:
154,258,55205,1,12,0:0:0:0:
212,186,55382,2,0,L|304:186,1,70,2|12,0:0|0:0,0:0:0:0:
362,234,55735,1,2,0:0:0:0:
437,167,55911,1,12,0:0:0:0:
369,79,56088,6,0,B|333:81|333:81|271:72,1,70,2|12,0:0|0:0,0:0:0:0:
179,156,56441,2,0,B|213:161|213:161|249:159,1,70,2|12,0:0|0:0,0:0:0:0:
138,70,56794,2,0,P|88:133|105:207,1,140,2|2,0:0|0:0,0:0:0:0:
205,272,57323,1,12,0:0:0:0:
179,156,57500,1,2,0:0:0:0:
213,286,57676,6,0,P|282:308|365:274,1,140,12|12,0:0|0:0,0:0:0:0:
425,237,58205,2,0,L|428:315,1,70,2|12,0:0|0:0,0:0:0:0:
512,237,58558,2,0,L|509:167,1,70,0|12,0:0|0:0,0:0:0:0:
399,86,58911,2,0,P|361:80|309:95,2,70,2|0|0,0:0|0:0|0:0,0:0:0:0:
364,172,59441,5,12,0:0:0:0:
272,153,59617,2,0,P|250:125|238:93,1,70,2|12,0:0|0:0,0:0:0:0:
272,8,59970,2,0,L|187:10,1,70,2|12,0:0|0:0,0:0:0:0:
145,78,60323,1,0,0:0:0:0:
43,15,60500,6,0,L|54:180,1,140,12|12,0:0|0:0,0:0:0:0:
112,232,61029,2,0,P|175:211|260:245,1,140,2|2,0:0|0:0,0:0:0:0:
322,289,61558,2,0,L|321:219,1,70,12|2,0:0|0:0,0:0:0:0:
386,330,61911,6,0,P|334:362|261:334,1,140,12|12,0:0|0:0,0:0:0:0:
243,231,62441,2,0,B|225:169|272:140|228:80,1,140,2|2,0:0|0:0,0:0:0:0:
165,26,62970,2,0,L|89:27,1,70,12|0,0:0|0:0,0:0:0:0:
96,136,63323,6,0,L|165:135,1,70,12|0,0:0|0:0,0:0:0:0:
117,223,63676,1,12,0:0:0:0:
28,177,63852,2,0,P|17:136|31:95,2,70,0|12|2,0:0|0:0|0:0,0:0:0:0:
117,223,64382,2,0,L|186:222,1,70,12|2,0:0|0:0,0:0:0:0:
267,165,64735,6,0,L|262:102,3,35,12|0|0|0,0:0|0:0|0:0|0:0,0:0:0:0:
312,117,65088,2,0,L|307:54,3,35,12|0|0|0,0:0|0:0|0:0|0:0,0:0:0:0:
356,67,65441,2,0,L|351:4,3,35,12|0|2|0,0:0|0:0|0:0|0:0,0:0:0:0:
391,1,65794,1,12,0:0:0:0:
486,103,65970,6,0,P|507:175|482:249,1,140,4|2,0:0|0:0,0:0:0:0:
402,281,66500,1,12,0:0:0:0:
355,195,66676,2,0,P|386:173|430:175,1,70,2|12,0:0|0:0,0:0:0:0:
490,236,67029,2,0,L|490:323,1,70,2|12,0:0|0:0,0:0:0:0:
374,356,67382,6,0,L|304:356,1,70,2|12,0:0|0:0,0:0:0:0:
197,287,67735,2,0,L|267:287,1,70,2|12,0:0|0:0,0:0:0:0:
354,198,68088,2,0,P|374:123|325:53,1,140,2|2,0:0|0:0,0:0:0:0:
257,52,68617,1,12,0:0:0:0:
294,135,68794,1,2,0:0:0:0:
191,173,68970,6,0,P|128:190|48:159,1,140,12|12,0:0|0:0,0:0:0:0:
25,253,69500,2,0,L|28:322,1,70,2|12,0:0|0:0,0:0:0:0:
135,345,69852,2,0,L|132:276,1,70,2|12,0:0|0:0,0:0:0:0:
191,173,70205,6,0,L|277:173,2,70,2|0|0,0:0|0:0|0:0,0:0:0:0:
244,269,70735,2,0,L|330:269,1,70,12|2,0:0|0:0,0:0:0:0:
405,187,71088,1,12,0:0:0:0:
314,269,71264,2,0,L|320:360,2,70,2|12|2,0:0|0:0|0:0,0:0:0:0:
263,112,71794,6,0,P|337:100|394:153,1,140,6|8,0:0|0:0,0:0:0:0:
462,210,72323,2,0,B|470:130|470:130|450:58,1,140,4|0,0:0|0:0,0:0:0:0:
355,34,72852,1,12,0:0:0:0:
385,136,73029,1,0,0:0:0:0:
260,112,73205,6,0,L|180:112,1,70,2|0,0:0|0:0,0:0:0:0:
108,56,73558,1,8,0:0:0:0:
48,132,73735,2,0,P|44:172|56:208,1,70,4|0,0:0|0:0,0:0:0:0:
124,264,74088,1,2,0:0:0:0:
210,214,74264,1,12,0:0:0:0:
124,164,74441,1,0,0:0:0:0:
124,264,74617,6,0,L|128:348,1,70,12|0,0:0|0:0,0:0:0:0:
213,283,74970,2,0,L|209:213,1,70,12|0,0:0|0:0,0:0:0:0:
296,164,75323,2,0,L|299:233,1,70,12|2,0:0|0:0,0:0:0:0:
380,176,75676,2,0,L|376:106,1,70,12|2,0:0|0:0,0:0:0:0:
376,106,75941,1,0,0:0:0:0:
376,106,76029,1,8,0:0:0:0:
181,25,76382,6,0,L|191:115,1,70,12|0,0:0|0:0,0:0:0:0:
85,43,76735,1,2,3:0:0:0:
93,136,76911,2,0,L|101:192,2,35,8|8|8,0:0|0:0|0:0,0:0:0:0:
4,87,77264,1,4,3:0:0:0:
44,242,77441,6,0,P|121:251|180:207,1,140,12|2,0:0|0:0,0:0:0:0:
243,156,77970,2,0,L|244:314,1,140,12|2,0:0|0:0,0:0:0:0:
295,374,78500,2,0,P|330:380|370:366,1,70,12|2,0:0|0:0,0:0:0:0:
447,334,78852,1,2,0:0:0:0:
493,233,79029,2,0,P|499:162|447:82,1,140,12|2,0:0|0:0,0:0:0:0:
383,54,79558,2,0,L|303:58,1,70,12|2,0:0|0:0,0:0:0:0:
272,150,79911,2,0,L|341:146,1,70,12|2,0:0|0:0,0:0:0:0:
258,251,80264,6,0,P|218:255|182:247,1,70,12|2,0:0|0:0,0:0:0:0:
115,187,80617,1,2,0:0:0:0:
153,97,80794,2,0,L|66:94,2,70,12|0|2,0:0|0:0|0:0,0:0:0:0:
218,17,81323,2,0,L|134:18,1,70,12|2,0:0|0:0,0:0:0:0:
50,24,81676,5,2,0:0:0:0:
11,119,81852,2,0,L|19:199,1,70,12|2,0:0|0:0,0:0:0:0:
88,265,82205,1,2,0:0:0:0:
88,265,82382,2,0,P|137:266|172:253,1,70,12|2,0:0|0:0,0:0:0:0:
243,196,82735,1,2,3:0:0:0:
312,272,82911,1,4,3:0:0:0:
220,359,83088,6,0,P|156:375|60:343,1,140,12|2,0:0|0:0,0:0:0:0:
40,271,83617,2,0,P|56:199|16:127,1,140,12|2,0:0|0:0,0:0:0:0:
4,46,84147,2,0,L|80:38,1,70,12|2,0:0|0:0,0:0:0:0:
149,96,84500,5,2,0:0:0:0:
168,9,84676,1,12,0:0:0:0:
73,38,84852,1,12,0:0:0:0:
160,108,85029,2,0,L|216:108,3,35,2|8|8|0,0:0|0:0|0:0|3:0,0:0:0:0:
224,108,85382,1,0,3:0:0:0:
285,175,85558,5,4,3:0:0:0:
204,217,85735,1,2,3:0:0:0:
328,280,85911,5,4,0:0:0:0:
256,192,86000,12,0,89970,0:0:0:0:
