osu file format v14

[General]
AudioFilename: audio.mp3
AudioLeadIn: 1000
PreviewTime: 54235
Countdown: 0
SampleSet: Soft
StackLeniency: 0.7
Mode: 0
LetterboxInBreaks: 0
WidescreenStoryboard: 1

[Editor]
Bookmarks: 8353,18147,29264,43647,54676,71794,77441,85911
DistanceSpacing: 1.2
BeatDivisor: 4
GridSize: 32
TimelineZoom: 2.2

[Metadata]
Title:Sono Koe o Oboeteru
TitleUnicode:その声を覚えてる
Artist:Kawano Marina
ArtistUnicode:河野マリナ
Creator:Milan-
Version:Insane
Source:<物語>シリーズ セカンドシーズン
Tags:Monogatari Series Second Season
BeatmapID:1300870
BeatmapSetID:616886

[Difficulty]
HPDrainRate:7
CircleSize:4
OverallDifficulty:8
ApproachRate:9
SliderMultiplier:1.4
SliderTickRate:2

[Events]
//Background and Video events
0,0,"looii2.jpg",0,0
//Break Periods
//Storyboard Layer 0 (Background)
//Storyboard Layer 1 (Fail)
//Storyboard Layer 2 (Pass)
//Storyboard Layer 3 (Foreground)
//Storyboard Sound Samples

[TimingPoints]
1230.69085656811,355.029585798817,4,2,1,50,1,0
6853,352.941176470588,4,2,1,50,1,0
8264,-83.3333333333333,4,2,1,60,0,0
16735,-200,4,2,1,50,0,0
16823,-200,4,2,1,5,0,0
17794,-200,4,2,1,30,0,0
18147,-125,4,2,1,40,0,0
29264,-100,4,2,1,50,0,0
41794,-83.3333333333333,4,2,1,55,0,0
42500,-100,4,2,1,55,0,0
43382,-90.9090909090909,4,2,1,50,0,0
49029,-83.3333333333333,4,2,1,50,0,0
49205,-90.9090909090909,4,2,1,50,0,0
51852,-83.3333333333333,4,2,1,50,0,0
52029,-90.9090909090909,4,2,1,50,0,0
54676,-83.3333333333333,4,2,1,65,0,1
64735,-76.9230769230769,4,2,1,65,0,1
65441,-71.4285714285714,4,2,1,65,0,1
65970,-83.3333333333333,4,2,1,65,0,1
76029,-83.3333333333333,4,2,1,65,0,0
76382,-71.4285714285714,4,2,1,65,0,1
76647,-83.3333333333333,4,2,1,65,0,1
77441,-83.3333333333333,4,2,1,60,0,0
86617,-83.3333333333333,4,2,1,50,0,0
87323,-83.3333333333333,4,2,1,40,0,0
88029,-83.3333333333333,4,2,1,25,0,0
88735,-83.3333333333333,4,2,1,10,0,0

[Colours]
Combo1 : 168,196,159
Combo2 : 187,198,208
Combo3 : 226,215,173
Combo4 : 208,187,198

[HitObjects]
308,122,6853,5,4,0:0:0:0:
308,122,7205,1,4,0:0:0:0:
308,122,7558,2,0,L|248:129,1,35,4|0,0:0|0:0,0:0:0:0:
207,177,7735,2,0,L|147:170,1,35
60,112,7911,1,10,0:0:0:0:
60,112,8000,1,2,0:0:0:0:
60,112,8088,1,2,0:0:0:0:
60,112,8176,1,2,0:0:0:0:
60,112,8264,6,0,L|81:200,1,83.9999974365235,4|0,0:0|0:0,0:0:0:0:
113,45,8617,1,0,0:0:0:0:
160,259,8794,2,0,L|181:92,1,167.999994873047,8|0,0:0|0:0,0:0:0:0:
285,210,9323,6,0,L|266:129,1,83.9999974365235,4|0,0:0|0:0,0:0:0:0:
319,62,9676,1,0,0:0:0:0:
373,279,9852,2,0,L|395:113,1,167.999994873047,8|0,0:0|0:0,0:0:0:0:
239,9,10382,5,12,0:0:0:0:
319,62,10558,1,0,0:0:0:0:
181,91,10735,5,8,0:0:0:0:
399,25,10911,1,0,0:0:0:0:
436,253,11088,6,0,L|353:235,1,83.9999974365235,4|0,0:0|0:0,0:0:0:0:
506,192,11441,1,0,0:0:0:0:
207,267,11617,2,0,L|263:204,1,83.9999974365235,8|0,0:0|0:0,0:0:0:0:
224,358,11970,1,0,0:0:0:0:
307,63,12147,2,0,L|333:142,1,83.9999974365235,4|0,0:0|0:0,0:0:0:0:
219,32,12500,5,0,0:0:0:0:
30,152,12676,2,0,P|113:154|188:117,1,167.999994873047,12|0,0:0|0:0,0:0:0:0:
49,0,13205,5,8,0:0:0:0:
118,61,13382,1,0,0:0:0:0:
30,152,13558,5,8,0:0:0:0:
209,30,13735,1,0,0:0:0:0:
138,236,13911,6,0,L|120:153,1,83.9999974365235,4|0,0:0|0:0,0:0:0:0:
82,310,14264,1,0,0:0:0:0:
229,181,14441,2,0,L|207:347,1,167.999994873047,8|0,0:0|0:0,0:0:0:0:
373,185,14970,2,0,L|351:18,1,167.999994873047,4|0,0:0|0:0,0:0:0:0:
310,253,15500,1,8,0:0:0:0:
278,86,15676,1,12,0:0:0:0:
278,86,15852,1,0,0:0:0:0:
229,181,16029,5,8,0:0:0:0:
373,185,16205,1,0,0:0:0:0:
142,237,16382,5,8,0:3:0:0:
212,296,16558,1,4,0:3:0:0:
128,328,16735,6,0,P|79:337|25:214,1,210,4|2,0:0|0:0,0:0:0:0:
25,216,18147,6,0,P|77:213|153:201,1,112,4|0,0:0|0:0,0:0:0:0:
42,126,18676,2,0,P|70:125|98:122,1,56
167,17,19029,2,0,P|171:45|172:73,1,56,2|0,0:0|0:0,0:0:0:0:
215,152,19382,1,0,0:0:0:0:
327,164,19558,6,0,P|275:161|199:149,1,112,2|0,0:0|0:0,0:0:0:0:
306,77,20088,2,0,P|358:74|434:62,1,112,0|2,0:0|0:0,0:0:0:0:
417,65,20794,1,0,0:0:0:0:
466,189,20970,6,0,P|470:161|472:134,1,56,2|0,0:0|0:0,0:0:0:0:
323,238,21323,2,0,P|318:210|317:182,1,56
409,262,21676,2,0,P|413:289|414:317,1,56,2|0,0:0|0:0,0:0:0:0:
237,152,22029,2,0,P|232:179|231:207,1,56
83,280,22382,6,0,P|139:282|195:289,1,112,2|0,0:0|0:0,0:0:0:0:
24,201,22911,2,0,P|73:195|147:192,1,112,0|2,0:0|0:0,0:0:0:0:
135,192,23617,1,0,0:0:0:0:
95,9,23794,6,0,P|90:54|82:144,1,112,2|0,0:0|0:0,0:0:0:0:
210,24,24323,2,0,P|215:69|223:159,1,112,0|2,0:0|0:0,0:0:0:0:
221,135,25029,1,0,0:0:0:0:
350,61,25205,6,0,P|344:89|336:141,1,56,2|0,0:0|0:0,0:0:0:0:
512,142,25558,2,0,P|506:170|498:222,1,56
420,158,25911,2,0,P|424:130|430:102,1,56,2|0,0:0|0:0,0:0:0:0:
263,66,26264,2,0,P|267:38|273:10,1,56
191,124,26617,6,0,P|135:121|79:115,1,112,2|0,0:0|0:0,0:0:0:0:
79,115,27147,1,2,0:0:0:0:
175,208,27323,1,2,0:0:0:0:
93,245,27500,1,0,0:0:0:0:
194,220,27676,1,2,0:0:0:0:
87,267,27852,1,0,0:0:0:0:
260,321,28029,6,0,P|315:318|371:312,1,112,2|0,0:0|0:0,0:0:0:0:
371,312,28735,5,2,0:0:0:0:
476,125,28911,2,0,P|449:123|401:117,1,56,2|8,0:3|0:0,0:0:0:0:
308,221,29264,6,0,P|317:151|326:73,1,140,4|0,0:0|0:0,0:0:0:0:
415,200,29794,2,0,P|411:174|408:119,1,70,8|0,0:0|0:0,0:0:0:0:
248,41,30147,1,0,0:0:0:0:
205,189,30323,2,0,P|209:157|209:118,1,70,0|8,0:0|0:0,0:0:0:0:
101,14,30676,6,0,P|110:77|120:158,1,140,2|0,0:0|0:0,0:0:0:0:
70,229,31205,1,8,0:0:0:0:
24,118,31382,1,0,0:0:0:0:
65,252,31558,2,0,P|91:247|139:241,1,70,2|0,0:0|0:0,0:0:0:0:
375,261,31911,1,8,0:0:0:0:
143,330,32088,6,0,P|213:316|295:293,1,140,2|0,0:0|0:0,0:0:0:0:
234,201,32617,2,0,P|271:201|318:207,1,70,8|0,0:0|0:0,0:0:0:0:
383,160,32970,1,0,0:0:0:0:
260,107,33147,2,0,P|293:99|331:83,1,70,0|8,0:0|0:0,0:0:0:0:
186,31,33500,6,0,P|115:17|33:-5,1,140,2|0,0:0|0:0,0:0:0:0:
0,132,34029,1,8,0:0:0:0:
125,101,34205,1,0,0:0:0:0:
38,13,34382,1,0,0:0:0:0:
18,137,34558,2,0,P|26:168|37:223,1,70,2|8,0:0|0:0,0:0:0:0:
205,333,34911,6,0,P|211:272|214:185,1,140,4|0,0:0|0:0,0:0:0:0:
60,290,35441,2,0,P|91:279|140:255,1,70,8|0,0:0|0:0,0:0:0:0:
173,95,35794,1,2,0:0:0:0:
106,181,35970,1,2,0:0:0:0:
228,189,36147,1,10,0:0:0:0:
175,66,36323,6,0,P|243:79|313:86,1,140,2|0,0:0|0:0,0:0:0:0:
435,12,36852,2,0,P|413:59|409:90,1,70,8|0,0:0|0:0,0:0:0:0:
336,179,37205,2,0,P|358:226|362:257,1,70,2|0,0:0|0:0,0:0:0:0:
496,108,37558,1,8,0:0:0:0:
306,173,37735,1,8,0:0:0:0:
439,341,37911,6,0,P|453:277|457:176,1,140,4|8,0:0|0:0,0:0:0:0:
196,207,38441,2,0,P|182:271|178:372,1,140,2|0,0:0|0:0,0:0:0:0:
348,345,38970,2,0,P|315:349|253:361,1,70,8|0,0:0|0:0,0:0:0:0:
108,212,39323,6,0,P|94:148|90:47,1,140,2|8,0:0|0:0,0:0:0:0:
171,21,39852,1,2,0:0:0:0:
65,78,40029,1,2,0:0:0:0:
183,142,40205,1,2,0:0:0:0:
185,0,40382,1,8,0:0:0:0:
185,0,40735,6,0,P|254:8|342:17,1,140,4|8,0:0|0:0,0:0:0:0:
487,172,41264,2,0,P|418:180|330:189,1,140,2|0,0:0|0:0,0:0:0:0:
108,133,41794,6,0,P|174:103|232:173,1,167.999994873047,4|2,0:0|0:0,0:0:0:0:
229,250,42235,1,2,0:0:0:0:
227,267,42323,2,0,L|206:347,1,41.9999987182618,2|0,0:0|0:0,0:0:0:0:
139,370,42500,6,0,L|-3:358,1,140,10|0,0:0|0:0,0:0:0:0:
130,217,43029,1,2,0:0:0:0:
162,382,43205,1,8,0:0:0:0:
47,271,43382,6,0,P|35:200|26:90,1,154.000004699707,4|0,0:0|0:0,0:0:0:0:
147,13,43911,2,0,P|140:46|133:109,1,77.0000023498536,8|0,0:0|0:0,0:0:0:0:
254,206,44264,2,0,P|247:172|240:110,1,77.0000023498536,2|0,0:0|0:0,0:0:0:0:
385,34,44617,1,8,0:0:0:0:
345,148,44794,6,0,P|423:130|504:120,1,154.000004699707,2|0,0:0|0:0,0:0:0:0:
467,306,45323,2,0,P|389:288|308:278,1,154.000004699707,8|0,0:0|0:0,0:0:0:0:
178,320,45852,1,0,0:0:0:0:
295,298,46029,1,8,0:0:0:0:
185,217,46205,6,0,P|94:243|16:255,1,154.000004699707,4|0,0:0|0:0,0:0:0:0:
0,39,46735,2,0,P|91:65|169:77,1,154.000004699707,8|0,0:0|0:0,0:0:0:0:
281,43,47264,1,0,0:0:0:0:
149,98,47441,1,8,0:0:0:0:
149,98,47794,6,0,P|223:121|239:143,1,77.0000023498536,2|0,0:0|0:0,0:0:0:0:
286,174,48058,1,0,0:0:0:0:
301,177,48147,2,0,P|331:167|361:158,1,38.5000011749268,10|0,0:0|0:0,0:0:0:0:
418,177,48323,2,0,L|461:152,1,38.5000011749268,2|0,0:0|0:0,0:0:0:0:
504,86,48500,5,8,0:0:0:0:
479,292,48676,1,8,0:0:0:0:
496,62,48852,1,8,0:0:0:0:
335,319,49029,6,0,P|273:333|216:237,1,167.999994873047,4|0,0:0|0:0,0:0:0:0:
77,241,49558,2,0,P|102:212|135:193,1,77.0000023498536,8|0,0:0|0:0,0:0:0:0:
193,39,49911,1,2,0:0:0:0:
142,169,50088,1,2,0:0:0:0:
270,140,50264,1,10,0:0:0:0:
170,52,50441,6,0,P|105:57|15:42,1,154.000004699707,2|0,0:0|0:0,0:0:0:0:
285,54,50970,2,0,P|325:40|374:23,1,77.0000023498536,8|0,0:0|0:0,0:0:0:0:
250,159,51323,1,2,0:0:0:0:
370,41,51500,1,2,0:0:0:0:
194,18,51676,1,10,0:0:0:0:
338,227,51852,6,0,P|381:166|473:176,1,167.999994873047,4|0,0:0|0:0,0:0:0:0:
500,342,52382,2,0,P|457:337|378:329,1,115.50000352478,8|0,0:0|0:0,0:0:0:0:
307,304,52735,2,0,L|256:313,1,38.5000011749268,2|0,0:0|0:0,0:0:0:0:
193,347,52911,1,2,0:0:0:0:
217,165,53088,1,8,0:0:0:0:
315,283,53264,1,0,0:0:0:0:
136,274,53441,5,2,0:0:0:0:
126,269,53529,1,0,0:0:0:0:
115,264,53617,1,0,0:0:0:0:
103,258,53705,1,0,0:0:0:0:
90,252,53794,5,10,0:0:0:0:
111,207,53882,1,8,0:0:0:0:
115,157,53970,1,8,0:0:0:0:
89,114,54058,1,8,0:0:0:0:
42,93,54147,1,8,0:0:0:0:
185,20,54676,6,0,P|226:83|236:176,1,167.999994873047,4|0,0:0|0:0,0:0:0:0:
94,280,55205,1,8,0:0:0:0:
177,267,55382,2,0,L|93:279,1,83.9999974365235,2|8,0:0|0:0,0:0:0:0:
149,178,55735,1,2,0:0:0:0:
207,357,55911,1,10,0:2:0:0:
121,177,56088,6,0,P|86:148|64:94,1,83.9999974365235,2|8,0:0|0:0,0:0:0:0:
277,27,56441,2,0,P|242:56|220:110,1,83.9999974365235,2|8,0:0|0:0,0:0:0:0:
352,230,56794,2,0,P|434:223|510:155,1,167.999994873047,2|0,0:0|0:0,0:0:0:0:
235,205,57323,2,0,L|249:311,1,83.9999974365235,8|0,0:0|0:0,0:0:0:0:
438,327,57676,6,0,P|433:254|323:250,1,167.999994873047,10|8,0:2|0:0,0:0:0:0:
357,62,58205,2,0,P|351:107|316:156,1,83.9999974365235,2|8,0:0|0:0,0:0:0:0:
191,135,58558,2,0,P|187:91|173:53,1,83.9999974365235,2|8,0:0|0:0,0:0:0:0:
0,185,58911,2,0,P|82:191|158:260,1,167.999994873047,2|0,0:0|0:0,0:0:0:0:
366,214,59441,5,10,0:2:0:0:
318,323,59617,1,0,0:0:0:0:
224,189,59794,5,10,0:2:0:0:
235,271,59970,1,0,0:0:0:0:
418,303,60147,5,10,0:2:0:0:
147,242,60323,1,0,0:0:0:0:
441,299,60500,6,0,P|483:214|420:162,1,167.999994873047,4|8,0:0|0:0,0:0:0:0:
274,134,61029,2,0,P|283:201|300:319,1,167.999994873047,2|0,0:0|0:0,0:0:0:0:
373,102,61558,2,0,P|376:53|383:-6,1,83.9999974365235,8|0,0:0|0:0,0:0:0:0:
164,49,61911,6,0,P|155:116|138:234,1,167.999994873047,10|8,0:2|0:0,0:0:0:0:
29,348,62441,2,0,P|-13:263|50:211,1,167.999994873047,2|0,0:0|0:0,0:0:0:0:
201,291,62970,1,8,0:0:0:0:
36,187,63147,1,0,0:0:0:0:
179,302,63323,6,0,P|148:359|146:400,1,83.9999974365235,10|0,0:2|0:0,0:0:0:0:
343,222,63676,2,0,P|374:279|376:320,1,83.9999974365235,10|0,0:2|0:0,0:0:0:0:
148,116,64029,2,0,P|117:173|115:214,1,83.9999974365235,10|0,0:2|0:0,0:0:0:0:
384,30,64382,2,0,P|415:87|417:128,1,83.9999974365235,10|0,0:2|0:0,0:0:0:0:
227,57,64735,6,0,P|251:49|281:40,3,45.4999979171754,10|0|0|0,0:2|0:0|0:0|0:0,0:0:0:0:
334,136,65088,2,0,P|310:128|281:118,3,45.4999979171754,10|0|0|0,0:2|0:0|0:0|0:0,0:0:0:0:
228,183,65441,6,0,P|216:199|202:236,1,48.9999985046387,10|0,0:2|0:2,0:0:0:0:
314,282,65617,2,0,P|306:263|279:234,1,48.9999985046387,2|0,0:2|0:2,0:0:0:0:
182,310,65794,2,0,P|201:312|239:304,1,48.9999985046387,10|0,0:2|0:2,0:0:0:0:
392,328,65970,6,0,P|431:251|434:169,1,167.999994873047,4|0,0:0|0:0,0:0:0:0:
391,47,66500,1,8,0:0:0:0:
473,33,66676,2,0,L|378:48,1,83.9999974365235,2|8,0:0|0:0,0:0:0:0:
187,41,67029,1,0,0:0:0:0:
329,133,67205,1,8,0:0:0:0:
247,119,67381,6,0,L|342:134,1,83.9999974365235,2|8,0:0|0:0,0:0:0:0:
180,207,67735,2,0,P|156:252|148:299,1,83.9999974365235,2|8,0:0|0:0,0:0:0:0:
80,157,68088,2,0,P|84:100|29:-14,1,167.999994873047,2|0,0:0|0:0,0:0:0:0:
0,232,68617,1,8,0:0:0:0:
105,148,68794,1,0,0:0:0:0:
139,303,68970,6,0,P|186:350|275:302,1,167.999994873047,14|8,0:2|0:0,0:0:0:0:
411,314,69500,2,0,P|387:255|351:231,1,83.9999974365235,2|8,0:0|0:0,0:0:0:0:
415,114,69852,2,0,P|456:111|492:90,1,83.9999974365235,2|8,0:0|0:0,0:0:0:0:
318,23,70205,2,0,P|278:51|146:57,1,167.999994873047,2|0,0:0|0:0,0:0:0:0:
18,193,70735,5,10,0:2:0:0:
162,150,70911,1,0,0:0:0:0:
11,61,71088,5,10,0:2:0:0:
92,101,71264,1,0,0:0:0:0:
82,247,71441,5,10,0:2:0:0:
88,14,71617,1,0,0:0:0:0:
99,260,71794,6,0,P|181:285|225:225,1,167.999994873047,4|8,0:0|0:0,0:0:0:0:
497,96,72323,2,0,P|445:36|371:63,1,167.999994873047,4|0,0:0|0:0,0:0:0:0:
259,3,72852,1,10,0:0:0:0:
267,44,72941,1,0,0:0:0:0:
274,85,73029,1,0,0:0:0:0:
283,125,73117,1,0,0:0:0:0:
291,165,73205,5,2,0:0:0:0:
389,81,73382,1,0,0:0:0:0:
185,80,73558,1,8,0:0:0:0:
407,99,73735,2,0,P|432:152|339:228,1,167.999994873047,4|0,0:0|0:0,0:0:0:0:
319,340,74264,2,0,L|229:328,1,83.9999974365235,8|0,0:0|0:0,0:0:0:0:
157,339,74529,1,0,0:0:0:0:
137,344,74617,6,0,P|102:322|133:202,1,167.999994873047,4|8,0:0|0:0,0:0:0:0:
213,117,75147,1,0,0:0:0:0:
129,37,75323,2,0,L|137:90,1,41.9999987182618,10|0,0:2|0:0,0:0:0:0:
203,127,75500,2,0,L|198:193,1,41.9999987182618,2|0,0:0|0:0,0:0:0:0:
129,223,75676,1,10,0:2:0:0:
298,159,75852,1,0,0:0:0:0:
432,282,76029,5,4,0:0:0:0:
432,282,76382,6,0,P|392:226|306:258,1,146.999995513916,4|0,0:0|0:0,0:0:0:0:
290,317,76735,1,0,1:0:0:0:
244,312,76823,1,0,1:0:0:0:
210,280,76911,1,0,1:0:0:0:
199,234,77000,1,0,1:0:0:0:
213,190,77088,1,0,1:0:0:0:
298,333,77264,1,0,0:0:0:0:
452,272,77441,6,0,L|431:184,1,83.9999974365235,4|0,0:0|0:0,0:0:0:0:
399,339,77794,1,0,0:0:0:0:
352,125,77971,2,0,L|331:292,1,167.999994873047,8|0,0:0|0:0,0:0:0:0:
227,174,78500,6,0,L|246:255,1,83.9999974365235,4|0,0:0|0:0,0:0:0:0:
193,322,78853,1,0,0:0:0:0:
139,105,79029,2,0,L|117:271,1,167.999994873047,8|0,0:0|0:0,0:0:0:0:
273,375,79559,5,12,0:0:0:0:
193,322,79735,1,0,0:0:0:0:
331,293,79912,5,8,0:0:0:0:
113,359,80088,1,0,0:0:0:0:
76,131,80265,6,0,L|159:149,1,83.9999974365235,4|0,0:0|0:0,0:0:0:0:
6,192,80618,1,0,0:0:0:0:
305,117,80794,2,0,L|249:180,1,83.9999974365235,8|0,0:0|0:0,0:0:0:0:
288,26,81147,1,0,0:0:0:0:
205,321,81324,2,0,L|179:242,1,83.9999974365235,4|0,0:0|0:0,0:0:0:0:
293,352,81677,5,0,0:0:0:0:
482,232,81852,1,4,0:0:0:0:
312,248,82029,2,0,P|349:230|391:229,1,83.9999974365235,12|0,0:0|0:0,0:0:0:0:
504,351,82382,5,10,0:0:0:0:
486,142,82559,1,2,0:0:0:0:
430,309,82735,5,2,0:0:0:0:
391,230,82912,1,2,0:0:0:0:
232,292,83088,6,0,L|315:310,1,83.9999974365235,4|0,0:0|0:0,0:0:0:0:
158,348,83441,1,0,0:0:0:0:
287,201,83617,2,0,L|121:223,1,167.999994873047,8|0,0:0|0:0,0:0:0:0:
241,50,84147,2,0,L|407:72,1,167.999994873047,4|0,0:0|0:0,0:0:0:0:
370,258,84677,1,8,0:0:0:0:
203,127,84853,1,12,0:0:0:0:
287,201,85029,1,8,0:0:0:0:
278,206,85117,1,8,0:0:0:0:
269,213,85205,5,8,0:0:0:0:
220,226,85294,1,8,0:0:0:0:
170,216,85382,1,8,0:0:0:0:
123,196,85470,1,8,0:3:0:0:
74,208,85558,1,8,0:3:0:0:
54,254,85647,1,8,0:3:0:0:
79,297,85735,1,4,0:3:0:0:
203,127,85911,5,4,0:0:0:0:
256,192,86000,12,0,88735,0:0:0:0:
