osu file format v14

[General]
AudioFilename: audio.mp3
AudioLeadIn: 0
PreviewTime: 67912
Countdown: 0
SampleSet: Soft
StackLeniency: 0.7
Mode: 0
LetterboxInBreaks: 0
WidescreenStoryboard: 0

[Editor]
Bookmarks: 105824
DistanceSpacing: 1.7
BeatDivisor: 4
GridSize: 4
TimelineZoom: 2.799999

[Metadata]
Title:Sekai no Hate
TitleUnicode:世界の果て
Artist:Kawano Marina
ArtistUnicode:河野万里奈
Creator:Nao Tomori
Version:Horizon
Source:グリザイア:ファントムトリガー
Tags:grisaia phantom trigger frontwing short version elements garden eroge visual novel lon log off now yaleufeu kyuukai arche-kun -arche pro_mapper77 lasse
BeatmapID:1865005
BeatmapSetID:892145

[Difficulty]
HPDrainRate:5.5
CircleSize:4.2
OverallDifficulty:8
ApproachRate:9
SliderMultiplier:1.76
SliderTickRate:1

[Events]
//Background and Video events
0,0,"902550.jpg",0,0
//Break Periods
//Storyboard Layer 0 (Background)
//Storyboard Layer 1 (Fail)
//Storyboard Layer 2 (Pass)
//Storyboard Layer 3 (Foreground)
//Storyboard Sound Samples

[TimingPoints]
-4,329.67032967033,4,2,1,31,1,0
1314,-333.333333333333,4,2,1,31,0,0
9226,-222.222222222222,4,2,1,31,0,0
10875,-500,4,2,1,31,0,0
12028,-500,4,2,1,41,0,0
12523,-100,4,2,1,51,0,0
13182,-100,4,2,1,51,0,0
23732,-114.285714285714,4,2,1,35,0,0
44831,-133.333333333333,4,2,1,40,0,0
54556,-100,4,2,1,40,0,0
55380,-100,4,2,1,35,0,0
55875,-114.285714285714,4,2,1,35,0,0
58017,-100,4,2,1,35,0,0
58512,-114.285714285714,4,2,1,35,0,0
60655,-107.52688172043,4,2,1,45,0,0
68402,-86.9565217391304,4,2,1,60,0,1
92303,-100,4,2,1,51,0,0

[Colours]
Combo1 : 153,210,249
Combo2 : 253,149,190
Combo3 : 153,216,253
Combo4 : 248,143,190

[HitObjects]
123,145,1314,6,0,P|147:234|67:310,1,211.199993554688,2|0,0:2|0:2,0:2:0:0:
56,209,3292,1,0,0:2:0:0:
162,245,3952,2,0,B|269:228|263:305|364:284,1,211.199993554688,2|0,0:2|0:2,0:2:0:0:
390,276,6589,6,0,P|420:236|384:133,1,158.399995166016,2|0,0:2|0:2,0:2:0:0:
176,202,7908,2,0,P|276:207|342:205,1,158.399995166016,2|0,0:2|0:2,0:2:0:0:
109,144,9226,6,0,P|93:187|88:234,1,79.1999975830079,2|0,0:2|0:2,0:2:0:0:
156,286,9721,1,0,0:2:0:0:
282,240,10050,1,0,0:2:0:0:
378,333,10380,1,2,0:2:0:0:
426,262,10710,1,0,0:2:0:0:
426,262,10875,2,0,P|433:217|435:156,1,105.6,2|0,0:2|0:2,0:2:0:0:
359,69,12028,5,2,0:2:0:0:
359,69,12111,1,2,0:2:0:0:
359,69,12193,1,8,0:2:0:0:
315,251,12358,1,8,0:2:0:0:
507,192,12523,5,2,3:2:0:0:
467,173,12605,1,2,3:2:0:0:
423,167,12687,1,2,3:2:0:0:
381,176,12770,1,2,3:2:0:0:
342,197,12852,1,8,0:2:0:0:
303,217,12935,1,8,0:2:0:0:
260,227,13017,1,8,0:2:0:0:
217,221,13099,1,8,0:2:0:0:
177,204,13182,6,0,P|149:262|172:348,1,132,6|0,3:2|0:2,0:2:0:0:
190,356,13512,2,0,P|261:346|304:344,1,88,8|0,0:2|0:2,0:2:0:0:
423,224,13842,1,2,3:2:0:0:
263,172,14006,1,0,3:2:0:0:
375,317,14171,1,8,0:2:0:0:
365,142,14336,1,0,0:2:0:0:
275,265,14501,6,0,B|186:248|188:309|99:286,1,176,2|8,3:2|0:2,0:2:0:0:
25,148,14996,2,0,P|89:121|122:224,1,176,2|0,0:2|3:2,0:2:0:0:
20,354,15490,2,0,P|11:310|0:268,1,88,10|0,0:2|0:2,0:2:0:0:
223,81,15820,5,2,3:2:0:0:
128,46,15985,1,0,0:2:0:0:
237,191,16149,1,10,0:2:0:0:
336,134,16314,1,0,0:2:0:0:
136,145,16479,2,0,P|125:207|125:262,1,88,2|0,3:2|0:2,0:2:0:0:
306,349,16809,5,10,0:2:0:0:
411,277,16974,2,0,P|476:272|514:278,1,88,2|0,0:2|3:2,0:2:0:0:
301,369,17303,1,2,0:2:0:0:
226,265,17468,2,0,P|166:238|128:230,1,88,10|0,0:2|3:2,0:2:0:0:
324,242,17798,5,2,3:2:0:0:
335,199,17880,1,0,3:2:0:0:
326,157,17962,1,0,3:2:0:0:
300,122,18045,1,0,3:2:0:0:
278,84,18127,1,0,3:2:0:0:
276,40,18210,1,0,3:2:0:0:
289,0,18292,6,0,P|355:46|359:131,1,132,6|0,3:2|0:2,0:2:0:0:
360,129,18622,1,2,0:2:0:0:
212,227,18787,2,0,P|122:216|30:211,1,176,10|0,0:2|3:2,0:2:0:0:
200,122,19281,1,0,3:2:0:0:
299,279,19446,1,10,0:2:0:0:
397,101,19611,6,0,P|394:159|390:310,1,176,6|0,3:2|3:2,0:2:0:0:
486,134,20105,2,0,P|487:68|493:19,1,88,10|0,0:2|0:2,0:2:0:0:
299,242,20435,2,0,P|299:285|295:329,1,88,2|0,3:2|0:2,0:2:0:0:
112,134,20765,2,0,P|111:68|105:19,1,88,10|0,0:2|0:2,0:2:0:0:
184,4,21012,1,2,0:2:0:0:
184,4,21094,6,0,P|233:37|318:26,1,132,2|0,3:2|0:2,0:2:0:0:
336,14,21424,1,10,0:2:0:0:
484,192,21589,5,2,3:2:0:0:
28,192,21919,5,2,3:2:0:0:
484,192,22248,6,0,P|497:278|491:389,1,176,6|0,3:2|0:2,0:2:0:0:
380,219,22743,1,10,0:2:0:0:
380,219,22908,2,0,P|377:131|391:45,1,176,14|8,2:2|0:3,0:2:0:0:
298,288,23402,1,4,0:3:0:0:
298,288,23567,1,4,0:3:0:0:
200,217,23732,6,0,P|198:168|199:136,1,77.0000007343292,6|0,0:2|0:2,0:2:0:0:
283,63,24061,1,8,0:2:0:0:
349,157,24226,2,0,P|417:186|501:144,1,154.000001468658,2|0,0:2|0:2,0:2:0:0:
416,18,24721,2,0,P|414:56|416:94,1,77.0000007343292,10|0,0:2|0:2,0:2:0:0:
278,213,25050,6,0,P|209:220|109:215,1,154.000001468658,2|8,0:2|0:2,0:2:0:0:
21,314,25545,2,0,P|97:310|174:317,1,154.000001468658,2|0,0:2|3:2,0:2:0:0:
270,360,26039,1,8,0:2:0:0:
472,150,26369,6,0,P|490:95|435:17,2,154.000001468658,2|8|2,0:2|0:2|0:2,0:2:0:0:
297,117,27193,1,0,0:2:0:0:
402,98,27358,1,10,0:2:0:0:
297,229,27523,1,2,3:2:0:0:
297,229,27605,1,0,3:2:0:0:
297,229,27688,6,0,P|284:288|295:385,1,154.000001468658,0|8,3:2|0:2,0:2:0:0:
178,311,28182,2,0,P|188:235|175:160,1,154.000001468658,0|0,3:2|3:2,0:2:0:0:
72,121,28677,1,10,0:2:0:0:
72,121,28842,1,0,0:2:0:0:
286,132,29006,6,0,B|368:127|354:203|452:176,1,154.000001468658,2|8,3:2|0:2,0:2:0:0:
509,88,29501,1,2,0:2:0:0:
424,26,29666,2,0,P|419:64|420:102,2,77.0000007343292,2|0|8,3:2|3:2|0:2,0:2:0:0:
292,220,30325,6,0,P|200:204|147:204,1,115.500001101494,0|0,3:2|0:2,0:2:0:0:
165,220,30655,2,0,P|150:273|155:314,1,77.0000007343292,10|0,0:2|0:2,0:2:0:0:
229,109,30985,2,0,P|204:79|171:59,1,77.0000007343292,2|0,3:2|0:2,0:2:0:0:
292,220,31314,2,0,P|329:213|363:195,1,77.0000007343292,10|0,0:2|0:2,0:2:0:0:
445,55,31644,6,0,P|456:143|469:230,1,154.000001468658,2|8,3:2|0:2,0:2:0:0:
486,318,32138,1,0,0:2:0:0:
362,89,32303,6,0,P|371:158|380:230,1,115.500001101494,6|0,3:2|0:2,0:2:0:0:
367,236,32633,1,8,0:2:0:0:
243,170,32798,2,0,P|183:153|139:159,1,77.0000007343292,2|0,0:2|3:2,0:2:0:0:
47,224,33127,1,0,3:2:0:0:
146,283,33292,1,8,0:2:0:0:
147,180,33457,5,6,0:2:0:0:
46,337,33622,1,4,0:3:0:0:
256,289,33787,1,0,3:2:0:0:
283,285,33869,1,0,3:2:0:0:
305,291,33952,1,0,3:2:0:0:
320,302,34034,1,0,3:2:0:0:
328,312,34116,1,4,0:3:0:0:
333,320,34199,1,4,0:3:0:0:
338,325,34281,6,0,P|359:261|388:225,1,77.0000007343292,6|0,3:2|0:2,0:2:0:0:
474,198,34611,1,10,0:2:0:0:
327,340,34776,2,0,P|294:266|212:208,1,154.000001468658,2|0,0:2|0:2,0:2:0:0:
306,71,35270,2,0,P|313:108|320:147,1,77.0000007343292,10|0,0:2|0:2,0:2:0:0:
129,274,35600,6,0,P|140:217|159:105,1,154.000001468658,2|8,3:2|0:2,0:2:0:0:
65,33,36094,2,0,P|54:90|35:202,1,154.000001468658,2|0,0:2|3:2,0:2:0:0:
19,302,36589,1,8,0:2:0:0:
246,228,36919,6,0,P|290:194|386:210,2,154.000001468658,2|8|2,0:2|0:2|0:2,0:2:0:0:
326,287,37743,1,0,0:2:0:0:
414,122,37908,1,10,0:2:0:0:
301,172,38072,6,0,P|229:170|139:158,1,154.000001468658,2|0,3:2|3:2,0:2:0:0:
282,277,38567,2,0,P|370:269|386:270,1,77.0000007343292,8|0,0:2|0:2,0:2:0:0:
240,75,38897,2,0,P|201:72|163:67,1,77.0000007343292,2|0,3:2|0:2,0:2:0:0:
348,9,39226,1,10,0:2:0:0:
287,185,39391,1,0,0:2:0:0:
459,364,39556,6,0,P|460:287|464:236,1,115.500001101494,6|0,3:2|0:2,0:2:0:0:
479,218,39886,2,0,P|481:172|478:130,1,77.0000007343292,8|0,0:2|0:2,0:2:0:0:
293,56,40215,1,2,3:2:0:0:
367,146,40380,1,0,3:2:0:0:
435,56,40545,2,0,P|493:52|534:52,1,77.0000007343292,10|0,0:2|0:2,0:2:0:0:
262,165,40875,6,0,P|191:170|82:159,1,154.000001468658,2|8,3:2|0:2,0:2:0:0:
196,336,41369,2,0,P|267:331|376:342,1,154.000001468658,2|0,3:2|0:2,0:2:0:0:
222,253,41864,2,0,P|135:252|131:252,1,77.0000007343292,14|0,0:2|0:2,0:2:0:0:
301,25,42193,6,0,P|321:94|311:196,1,154.000001468658,2|8,3:2|0:2,0:2:0:0:
232,110,42688,1,0,0:2:0:0:
400,30,42853,2,0,P|408:95|416:133,1,77.0000007343292,2|0,3:2|3:2,0:2:0:0:
491,265,43182,1,10,0:2:0:0:
220,224,43347,6,0,P|228:166|231:109,1,115.500001101494,6|0,3:2|0:2,0:2:0:0:
194,37,43677,5,4,0:3:0:0:
288,356,44006,5,4,0:3:0:0:
382,37,44336,5,0,3:2:0:0:
443,126,44501,5,0,3:2:0:0:
443,126,44583,1,8,0:2:0:0:
345,213,44748,1,8,0:2:0:0:
345,213,44831,6,0,P|280:213|235:214,1,99.0000037765504,6|0,3:2|0:2,0:2:0:0:
214,229,45160,2,0,P|198:274|187:318,1,66.0000025177003,2|4,3:2|0:3,0:2:0:0:
100,145,45490,2,0,P|116:190|127:234,2,66.0000025177003,8|0|8,0:3|0:2|0:3,0:2:0:0:
192,92,45985,6,0,P|228:115|317:93,1,132.000005035401,2|8,3:2|0:3,0:2:0:0:
257,30,46479,1,4,0:3:0:0:
334,100,46644,2,0,P|338:151|340:184,1,66.0000025177003,2|8,3:2|0:3,0:2:0:0:
429,45,46974,2,0,P|425:96|423:129,2,66.0000025177003,2|8|4,0:2|0:3|0:3,0:2:0:0:
500,171,47468,5,6,3:2:0:0:
503,191,47798,2,0,P|502:238|507:281,1,66.0000025177003,8|4,0:3|0:3,0:2:0:0:
418,355,48127,2,0,P|420:322|419:290,2,66.0000025177003,2|8|8,3:2|0:3|0:3,0:2:0:0:
344,225,48622,6,0,P|339:191|340:142,1,66.0000025177003,2|0,3:2|3:2,0:2:0:0:
433,185,48952,1,8,0:3:0:0:
393,312,49116,1,8,3:3:0:0:
260,264,49281,2,0,P|206:254|183:253,1,66.0000025177003,4|0,0:3|3:2,0:2:0:0:
61,289,49611,1,0,3:2:0:0:
61,289,49693,1,0,3:2:0:0:
61,289,49776,1,8,0:2:0:0:
148,340,49941,1,8,0:2:0:0:
115,202,50105,5,6,3:2:0:0:
128,182,50435,1,2,3:2:0:0:
245,101,50600,2,0,P|235:146|221:171,1,66.0000025177003,4|0,0:3|3:2,0:2:0:0:
338,57,50930,1,8,0:3:0:0:
338,57,51094,1,8,0:3:0:0:
377,231,51259,6,0,P|349:197|330:123,1,99.0000037765504,2|0,3:2|0:2,0:2:0:0:
332,127,51589,2,0,P|375:118|412:125,1,66.0000025177003,4|0,0:3|3:2,0:2:0:0:
280,246,51919,2,0,P|247:247|215:239,1,66.0000025177003,2|8,3:2|0:3,0:2:0:0:
134,167,52248,1,8,0:3:0:0:
214,98,52413,2,0,P|213:42|202:16,1,66.0000025177003,4|4,0:3|0:3,0:2:0:0:
285,167,52743,6,0,P|358:165|440:159,1,132.000005035401,6|0,3:2|3:2,0:2:0:0:
341,75,53237,1,4,0:3:0:0:
258,180,53402,2,0,P|251:225|249:271,1,66.0000025177003,2|0,3:2|3:2,0:2:0:0:
333,377,53732,2,0,P|330:344|325:312,1,66.0000025177003,8|0,0:3|3:2,0:2:0:0:
161,179,54061,5,14,0:2:0:0:
244,352,54226,1,8,0:3:0:0:
244,352,54309,1,8,0:3:0:0:
244,352,54391,1,4,0:3:0:0:
422,209,54556,6,0,B|345:192|327:255|251:236,1,176,14|0,2:2|3:2,0:2:0:0:
141,130,55050,1,10,0:2:0:0:
290,66,55215,1,0,3:2:0:0:
284,109,55298,1,0,3:2:0:0:
281,157,55380,6,0,P|287:267|291:300,1,132,14|0,0:2|0:2,0:2:0:0:
307,319,55710,1,10,0:2:0:0:
419,361,55875,2,0,P|425:295|427:203,1,154.000001468658,2|0,3:2|0:2,0:2:0:0:
340,100,56369,1,2,0:2:0:0:
416,36,56534,6,0,P|471:32|524:39,1,77.0000007343292,10|0,0:2|0:2,0:2:0:0:
343,127,56864,2,0,P|304:128|266:124,1,77.0000007343292,8|0,3:2|3:2,0:2:0:0:
128,99,57193,2,0,P|148:131|164:166,1,77.0000007343292,2|0,0:2|3:2,0:2:0:0:
212,300,57523,1,2,0:2:0:0:
212,300,57688,2,0,P|229:265|252:234,1,77.0000007343292,8|0,0:2|0:2,0:2:0:0:
328,214,57935,1,2,0:2:0:0:
328,214,58017,6,0,P|358:273|384:341,1,132,2|0,3:2|0:2,0:2:0:0:
378,373,58347,1,10,0:2:0:0:
416,178,58512,2,0,P|429:125|442:88,1,77.0000007343292,2|0,3:2|0:2,0:2:0:0:
366,34,58842,1,2,0:2:0:0:
366,34,59006,2,0,P|329:45|291:53,1,77.0000007343292,2|8,3:2|0:2,0:2:0:0:
339,240,59336,2,0,P|285:172|241:145,1,115.500001101494,2|0,3:2|0:2,0:2:0:0:
231,144,59666,1,10,2:2:0:0:
48,155,59831,5,2,3:2:0:0:
352,356,60160,5,4,0:3:0:0:
451,311,60325,2,0,P|462:267|456:212,1,77.0000007343292,10|0,0:2|0:2,0:2:0:0:
448,206,60572,1,0,3:2:0:0:
448,206,60655,2,0,P|362:223|267:201,1,163.680005119995,6|8,3:2|0:2,0:2:0:0:
366,127,61149,5,2,3:2:0:0:
85,352,61479,5,2,3:2:0:0:
30,26,61809,6,0,P|81:48|107:159,1,163.680005119995,14|0,0:2|3:2,0:2:0:0:
209,213,62303,6,0,P|263:187|307:188,1,81.8400025599976,10|0,0:2|0:2,0:2:0:0:
388,121,62633,1,2,0:2:0:0:
388,121,62798,2,0,P|437:154|458:193,1,81.8400025599976,0|8,3:2|0:2,0:2:0:0:
499,300,63127,6,0,P|462:347|360:369,1,163.680005119995,6|0,3:2|0:2,0:2:0:0:
194,292,63622,1,10,0:2:0:0:
311,218,63787,1,0,3:2:0:0:
252,382,63952,1,0,0:2:0:0:
124,190,64116,1,2,3:2:0:0:
59,293,64281,1,8,0:2:0:0:
142,166,64446,6,0,P|146:69|139:-2,1,163.680005119995,6|0,3:2|3:2,0:2:0:0:
237,226,64941,2,0,P|234:295|240:340,1,81.8400025599976,14|0,0:2|0:2,0:2:0:0:
418,188,65270,1,8,0:2:0:0:
246,118,65435,1,8,0:2:0:0:
124,258,65600,1,8,0:2:0:0:
344,368,65765,6,0,P|339:300|314:184,1,163.680005119995,6|4,3:2|0:3,0:2:0:0:
177,43,66259,1,4,0:3:0:0:
177,66,66754,5,4,0:3:0:0:
307,230,66919,1,4,0:3:0:0:
291,239,67248,5,0,3:2:0:0:
56,354,67413,1,0,3:2:0:0:
63,324,67495,1,0,3:2:0:0:
85,305,67577,1,0,3:2:0:0:
115,302,67660,1,0,3:2:0:0:
141,318,67742,5,14,0:2:0:0:
160,337,68402,6,0,P|221:355|340:273,1,202.400003860474,6|2,3:2|3:2,0:2:0:0:
349,96,68897,1,10,0:2:0:0:
224,232,69061,1,2,0:2:0:0:
439,256,69226,1,0,3:2:0:0:
214,217,69391,1,0,3:2:0:0:
434,161,69556,1,10,0:2:0:0:
294,346,69721,6,0,B|193:320|183:392|87:350,1,202.400003860474,2|0,3:2|3:2,0:2:0:0:
17,204,70215,2,0,P|11:132|34:85,1,101.200001930237,8|0,0:2|0:2,0:2:0:0:
224,19,70545,1,2,3:2:0:0:
112,158,70710,1,0,3:2:0:0:
11,5,70875,1,10,0:2:0:0:
240,150,71039,6,0,P|308:142|460:136,1,202.400003860474,6|0,3:2|3:2,0:2:0:0:
326,56,71534,1,10,0:2:0:0:
267,241,71699,1,2,0:2:0:0:
148,141,71864,1,0,3:2:0:0:
198,336,72028,1,0,3:2:0:0:
347,165,72193,1,10,0:2:0:0:
120,61,72358,6,0,P|123:164|117:285,1,202.400003860474,2|0,3:2|3:2,0:2:0:0:
324,368,72853,2,0,P|319:266|322:165,1,202.400003860474,8|0,0:2|3:2,0:2:0:0:
494,59,73347,1,2,3:2:0:0:
413,253,73512,1,8,0:2:0:0:
275,74,73677,1,2,3:2:0:0:
69,214,73842,5,10,0:2:0:0:
85,243,73924,1,0,3:2:0:0:
111,264,74006,1,0,3:2:0:0:
142,276,74089,1,0,3:2:0:0:
176,275,74171,1,8,2:2:0:0:
207,264,74254,1,0,3:2:0:0:
233,242,74336,5,2,3:2:0:0:
256,272,74418,1,0,3:2:0:0:
267,308,74500,1,8,0:2:0:0:
265,345,74583,1,0,3:2:0:0:
249,380,74666,6,0,L|192:347,1,50.6000009651184,2|0,3:2|3:2,0:2:0:0:
356,271,74831,2,0,L|356:337,1,50.6000009651184,10|0,2:2|3:2,3:2:0:0:
158,245,74996,6,0,P|214:253|297:126,1,202.400003860474,6|0,3:2|3:2,0:2:0:0:
221,19,75490,1,10,0:2:0:0:
197,148,75655,1,0,0:2:0:0:
372,46,75820,1,4,0:3:0:0:
433,36,75902,1,0,3:2:0:0:
486,67,75984,1,0,3:2:0:0:
508,126,76067,1,0,3:2:0:0:
487,184,76149,1,14,0:2:0:0:
307,295,76314,1,0,3:2:0:0:
307,295,76397,1,0,3:2:0:0:
307,295,76479,6,0,B|203:265|210:339|109:309,1,202.400003860474,6|8,3:2|0:2,0:2:0:0:
41,179,76974,1,2,3:2:0:0:
41,179,77056,1,0,3:2:0:0:
41,179,77138,1,0,3:2:0:0:
151,228,77303,1,0,3:2:0:0:
33,377,77468,2,0,L|27:326,1,50.6000009651184,10|0,0:2|0:2,0:2:0:0:
123,88,77633,6,0,B|159:57|159:57|230:146|136:234,1,202.400003860474,6|0,3:2|3:2,0:2:0:0:
18,232,78127,1,8,0:2:0:0:
58,210,78210,1,8,0:2:0:0:
97,205,78292,1,8,0:2:0:0:
127,212,78375,1,8,0:2:0:0:
147,223,78457,1,8,0:3:0:0:
161,238,78539,1,8,0:3:0:0:
181,255,78622,1,8,0:3:0:0:
212,271,78704,1,8,0:3:0:0:
246,279,78787,2,0,L|321:263,1,50.6000009651184,4|0,3:3|3:2,0:2:0:0:
452,44,78952,6,0,P|436:113|438:281,1,202.400003860474,6|0,3:2|3:2,0:2:0:0:
280,384,79446,2,0,P|289:313|263:201,1,151.800002895355,14|0,0:2|0:2,0:2:0:0:
249,197,79776,1,2,3:2:0:0:
180,358,79941,1,0,3:2:0:0:
409,307,80105,1,10,0:2:0:0:
217,185,80270,6,0,P|141:180|14:185,1,202.400003860474,2|0,3:2|3:2,0:2:0:0:
312,244,80765,2,0,P|323:184|310:129,1,101.200001930237,8|0,0:2|0:2,0:2:0:0:
210,298,81094,1,2,3:2:0:0:
407,282,81259,1,0,3:2:0:0:
301,117,81424,1,10,0:2:0:0:
322,344,81589,6,0,P|412:319|500:329,1,151.800002895355,6|0,3:2|0:2,0:2:0:0:
511,338,81919,1,0,3:2:0:0:
324,207,82083,1,10,0:2:0:0:
148,384,82248,6,0,P|136:310|120:205,1,151.800002895355,6|0,3:2|0:2,0:2:0:0:
105,202,82578,1,0,3:2:0:0:
272,56,82743,1,10,0:2:0:0:
386,185,82908,6,0,P|450:195|477:78,1,202.400003860474,6|0,3:2|3:2,0:2:0:0:
297,133,83402,1,8,0:2:0:0:
473,280,83567,2,0,P|474:250|470:219,1,50.6000009651184,0|0,3:0|3:0,0:0:0:0:
398,24,83732,5,8,0:3:0:0:
60,350,84061,5,4,0:3:0:0:
300,26,84391,5,14,2:2:0:0:
339,96,84556,1,0,3:2:0:0:
161,198,84721,5,8,0:2:0:0:
183,128,84886,1,0,3:2:0:0:
419,234,85050,5,8,0:2:0:0:
391,351,85215,1,2,3:2:0:0:
270,148,85380,5,8,0:2:0:0:
298,265,85545,1,2,3:2:0:0:
465,74,85710,5,8,0:2:0:0:
305,14,85875,1,0,3:2:0:0:
133,233,86039,5,8,0:2:0:0:
293,173,86204,1,0,3:2:0:0:
43,57,86369,5,8,0:2:0:0:
117,253,86534,1,8,0:2:0:0:
306,151,86699,1,8,0:2:0:0:
397,340,86864,1,0,3:2:0:0:
397,340,86946,1,0,3:2:0:0:
397,340,87028,6,0,L|409:227,1,101.200001930237,6|0,3:2|0:2,0:2:0:0:
341,148,87276,1,8,0:3:0:0:
341,148,87358,1,4,0:3:0:0:
473,52,87523,5,10,0:2:0:0:
256,360,87852,5,6,3:2:0:0:
39,52,88182,5,6,3:2:0:0:
256,180,88512,5,2,0:2:0:0:
182,259,88677,2,0,P|116:266|77:249,1,101.200001930237,10|0,0:2|0:2,0:2:0:0:
330,125,89006,1,0,3:2:0:0:
354,117,89088,1,0,3:2:0:0:
379,115,89170,1,0,3:2:0:0:
404,120,89253,1,0,3:2:0:0:
427,130,89336,5,8,0:2:0:0:
403,72,89418,1,8,0:2:0:0:
354,33,89500,1,8,0:2:0:0:
292,24,89583,1,8,0:2:0:0:
234,46,89665,5,6,3:2:0:0:
277,337,90160,5,14,0:2:0:0:
16,163,90490,5,0,3:2:0:0:
459,254,90820,5,6,3:2:0:0:
116,37,91149,5,2,3:2:0:0:
184,165,91314,2,0,L|249:160,1,50.6000009651184,10|0,0:2|0:2,0:2:0:0:
408,115,91479,5,0,3:2:0:0:
385,94,91561,1,0,3:2:0:0:
357,83,91643,1,0,3:2:0:0:
327,81,91726,1,0,3:2:0:0:
298,90,91808,1,0,3:2:0:0:
274,108,91891,1,0,3:2:0:0:
257,133,91974,5,4,0:3:0:0:
287,187,92056,1,4,0:3:0:0:
295,250,92138,1,4,0:3:0:0:
279,311,92221,1,4,0:3:0:0:
241,361,92303,6,0,P|204:301|205:215,1,132,6|0,3:2|0:2,0:2:0:0:
209,208,92633,2,0,P|265:208|311:202,1,88,8|0,0:2|0:2,0:2:0:0:
486,87,92963,1,2,3:2:0:0:
398,29,93127,1,0,0:2:0:0:
270,59,93292,1,10,0:2:0:0:
358,117,93456,1,0,0:2:0:0:
217,259,93622,6,0,P|131:295|48:253,1,176,2|8,3:2|0:2,0:2:0:0:
198,166,94116,2,0,B|298:159|267:230|378:217,1,176,2|0,3:2|0:2,0:2:0:0:
214,342,94611,2,0,P|204:299|217:258,1,88,10|0,0:2|0:2,0:2:0:0:
367,126,94941,5,2,3:2:0:0:
284,26,95105,1,0,0:2:0:0:
369,161,95270,1,10,0:2:0:0:
477,75,95435,1,0,0:2:0:0:
291,113,95600,2,0,P|284:170|289:219,1,88,2|0,3:2|0:2,0:2:0:0:
434,330,95930,6,0,P|367:307|246:347,1,176,10|0,0:2|3:2,0:2:0:0:
134,277,96424,2,0,P|119:185|113:161,1,88,2|0,0:2|2:2,0:2:0:0:
66,364,96754,1,2,0:2:0:0:
235,225,96919,1,8,0:2:0:0:
39,121,97083,1,2,0:2:0:0:
9,153,97165,1,2,0:2:0:0:
0,195,97247,1,4,0:3:0:0:
13,236,97330,1,4,0:3:0:0:
45,266,97413,6,0,B|140:251|109:324|222:312,1,176,6|0,3:2|0:2,0:2:0:0:
352,191,97908,2,0,P|348:255|349:378,1,176,10|0,0:2|3:2,0:2:0:0:
441,274,98402,1,2,3:2:0:0:
252,216,98567,1,8,0:2:0:0:
336,28,98732,6,0,P|393:27|417:152,1,176,6|0,3:2|0:2,0:2:0:0:
240,120,99226,2,0,P|222:64|212:24,1,88,10|0,0:2|0:2,0:2:0:0:
81,186,99556,2,0,P|138:198|178:209,1,88,2|0,3:2|0:2,0:2:0:0:
103,15,99886,2,0,P|63:58|33:87,1,88,10|0,0:2|0:2,0:2:0:0:
14,104,100133,1,2,0:2:0:0:
14,104,100215,6,0,P|43:147|28:299,1,176,6|8,3:2|0:2,0:2:0:0:
148,370,100710,5,2,3:2:0:0:
313,38,101039,5,2,3:2:0:0:
466,350,101369,6,0,P|403:309|297:358,1,176,6|0,3:2|3:2,2:2:0:0:
189,230,101864,1,10,0:2:0:0:
376,202,102028,1,8,0:2:0:0:
376,202,102111,1,8,0:2:0:0:
376,202,102193,2,0,L|384:132,1,44,8|0,0:2|0:2,0:2:0:0:
254,21,102358,5,0,3:2:0:0:
226,54,102440,1,0,3:2:0:0:
221,97,102523,2,0,L|289:113,1,44,4|0,2:3|0:2,0:2:0:0:
407,49,102688,2,0,L|450:40,1,44,4|0,0:3|0:2,0:2:0:0:
283,234,102853,5,8,0:2:0:0:
101,145,103017,1,8,0:3:0:0:
114,331,103182,1,8,0:3:0:0:
171,237,103347,5,14,2:2:0:0:
256,192,103430,12,0,105820,0:2:0:0:
