osu file format v14

[General]
AudioFilename: audio.mp3
AudioLeadIn: 0
PreviewTime: 57857
Countdown: 0
SampleSet: Soft
StackLeniency: 0.7
Mode: 0
LetterboxInBreaks: 0
WidescreenStoryboard: 0

[Editor]
DistanceSpacing: 1.3
BeatDivisor: 4
GridSize: 32
TimelineZoom: 1.6

[Metadata]
Title:Morning Arch (TV Size)
TitleUnicode:Morning Arch (TV Size)
Artist:Kawano Marina
ArtistUnicode:河野マリナ
Creator:Garden
Version:Hard
Source:Aチャンネル
Tags:a channel opening 神前暁 MONACA
BeatmapID:1700900
BeatmapSetID:810739

[Difficulty]
HPDrainRate:5
CircleSize:4
OverallDifficulty:6
ApproachRate:7
SliderMultiplier:1.3
SliderTickRate:1

[Events]
//Background and Video events
0,0,"728650.jpg",0,0
//Break Periods
//Storyboard Layer 0 (Background)
//Storyboard Layer 1 (Fail)
//Storyboard Layer 2 (Pass)
//Storyboard Layer 3 (Foreground)
//Storyboard Sound Samples

[TimingPoints]
320,365.853658536585,4,2,1,50,1,0
23734,-100,4,2,1,60,0,0
28353,340.909090909091,4,2,1,60,1,0
28856,365.853658536585,4,2,1,60,1,0
29587,370.37037037037,4,2,1,60,1,0
30135,365.853658536585,4,2,1,60,1,0
31049,365.853658536585,4,2,1,60,1,0
46780,-83.3333333333333,4,2,1,60,0,0
47146,-100,4,2,1,60,0,0
56458,359.281437125748,4,2,1,60,1,0
57391,365.853658536585,4,2,1,60,1,0
58854,-100,4,2,1,70,0,1
78244,-100,4,2,1,70,0,0
78976,-100,4,2,1,60,0,0
79342,-100,4,2,1,50,0,0
85195,-100,4,2,1,60,0,0
85561,-100,4,2,1,50,0,0
85927,-100,4,2,1,40,0,0
86293,-100,4,2,1,30,0,0
86659,-100,4,2,1,20,0,0
87390,-100,4,2,1,10,0,0
88122,-100,4,2,1,5,0,0

[Colours]
Combo1 : 255,232,159
Combo2 : 184,255,113
Combo3 : 255,162,208
Combo4 : 170,255,255

[HitObjects]
426,159,320,6,0,L|434:239,1,65,12|0,0:0|0:0,0:0:0:0:
495,279,685,2,0,P|433:262|375:287,1,130,10|8,0:0|0:0,0:0:0:0:
315,347,1234,2,0,P|253:363|195:338,1,130,2|0,0:0|0:0,0:0:0:0:
109,333,1783,2,0,P|115:282|122:189,1,130,10|8,0:0|0:0,0:0:0:0:
190,152,2332,1,2,0:0:0:0:
6,85,2698,2,0,P|38:90|70:93,1,65,2|8,0:0|0:0,0:0:0:0:
152,70,3063,2,0,L|158:24,2,32.5,2|0|8,0:0|0:0|0:0,0:0:0:0:
190,152,3429,5,0,0:0:0:0:
190,152,3612,2,0,P|247:115|310:127,1,130,10|8,0:0|0:0,0:0:0:0:
372,72,4161,2,0,P|353:134|340:197,1,130,2|0,0:0|0:0,0:0:0:0:
422,219,4710,2,0,P|440:156|453:93,1,130,10|8,0:0|0:0,0:0:0:0:
439,9,5259,1,2,0:0:0:0:
439,9,5350,1,0,0:0:0:0:
439,9,5441,2,0,P|401:25|369:37,1,65,8|2,0:0|0:0,0:0:0:0:
296,56,5807,2,0,P|272:36|237:28,2,65,8|2|8,0:0|0:0|0:0,0:0:0:0:
268,136,6356,5,0,0:0:0:0:
268,136,6539,2,0,P|204:136|142:180,1,130,10|8,0:0|0:0,0:0:0:0:
74,209,7088,2,0,P|138:209|200:253,1,130,2|0,0:0|0:0,0:0:0:0:
275,225,7637,2,0,P|263:288|254:353,1,130,10|8,0:0|0:0,0:0:0:0:
170,358,8185,2,0,L|180:306,2,32.5,2|0|8,0:0|3:0|0:0,0:0:0:0:
87,379,8551,1,2,0:0:0:0:
87,379,8734,1,8,0:0:0:0:
31,314,8917,2,0,L|-2:318,2,32.5,2|0|8,0:0|0:0|0:0,0:0:0:0:
91,254,9283,5,0,0:0:0:0:
91,254,9466,2,0,P|167:248|204:204,1,130,10|8,0:0|0:0,0:0:0:0:
286,212,10015,2,0,P|277:180|268:133,1,65,2|8,0:0|0:0,0:0:0:0:
345,110,10380,1,0,0:0:0:0:
345,110,10472,1,0,0:0:0:0:
345,110,10563,2,0,P|281:110|234:66,1,130,10|8,0:0|0:0,0:0:0:0:
150,75,11112,2,0,P|153:50|161:-1,1,65,2|8,0:0|0:0,0:0:0:0:
98,144,11478,1,2,0:0:0:0:
98,144,11661,2,0,P|76:130|30:131,1,65,8|2,3:2|0:0,0:0:0:0:
111,229,12027,6,0,P|145:283|136:357,1,130,12|8,0:0|0:0,0:0:0:0:
69,306,12576,1,2,0:0:0:0:
69,306,12759,2,0,L|207:272,1,130,8|8,0:0|0:0,0:0:0:0:
277,256,13307,1,2,0:0:0:0:
347,303,13490,2,0,P|410:306|466:262,1,130,8|8,0:0|0:0,0:0:0:0:
387,228,14039,1,2,0:0:0:0:
387,228,14222,2,0,P|378:168|371:86,1,130,8|8,0:0|0:0,0:0:0:0:
424,32,14771,1,2,0:0:0:0:
371,98,14954,6,0,P|308:107|254:72,1,130,8|8,0:0|0:0,0:0:0:0:
203,10,15502,1,2,0:0:0:0:
203,10,15685,2,0,P|140:0|86:35,1,130,8|8,0:0|0:0,0:0:0:0:
44,108,16234,1,2,0:0:0:0:
101,170,16417,2,0,P|126:231|136:306,1,130,8|8,0:0|0:0,0:0:0:0:
172,376,16966,1,2,0:0:0:0:
172,376,17149,2,0,P|182:311|206:251,1,130,8|10,0:0|0:0,0:0:0:0:
269,194,17698,5,0,0:0:0:0:
269,194,17789,1,0,0:0:0:0:
269,194,17880,2,0,P|286:220|303:256,1,65,10|0,0:0|0:0,0:0:0:0:
256,323,18246,2,0,P|194:336|140:303,1,130,10|8,0:0|0:0,0:0:0:0:
96,230,18795,2,0,P|64:225|28:223,1,65,2|8,0:0|0:0,0:0:0:0:
11,140,19161,1,0,0:0:0:0:
11,140,19344,2,0,P|70:149|154:157,1,130,10|8,0:0|0:0,0:0:0:0:
177,79,19893,2,0,P|225:36|293:42,1,130,2|0,0:0|0:0,0:0:0:0:
371,25,20441,2,0,P|362:62|357:96,1,65,10|0,0:0|0:0,0:0:0:0:
439,111,20807,6,0,P|473:164|464:227,1,130,10|8,0:0|0:0,0:0:0:0:
329,330,21539,2,0,P|294:276|303:213,1,130,10|8,0:0|0:0,0:0:0:0:
379,263,22088,1,2,0:0:0:0:
379,263,22271,2,0,L|222:296,1,130,8|8,0:0|0:0,0:0:0:0:
167,289,22819,2,0,P|155:319|146:350,1,65,2|8,0:0|3:2,0:0:0:0:
115,224,23185,1,0,0:0:0:0:
115,224,23368,2,0,P|80:227|43:237,1,65,10|0,1:2|0:0,0:0:0:0:
177,164,23734,6,0,P|209:114|188:32,1,130,12|0,0:0|1:0,0:0:0:0:
65,82,24283,2,0,L|129:95,1,65,2|10,0:0|0:0,0:0:0:0:
288,130,24649,1,8,0:0:0:0:
288,130,25015,2,0,L|273:200,1,65,2|2,0:0|0:0,0:0:0:0:
320,264,25380,2,0,P|381:230|444:240,1,130,0|2,1:0|0:0,0:0:0:0:
488,306,25929,2,0,L|473:376,2,65,2|8|0,0:0|0:0|1:0,0:0:0:0:
438,237,26478,1,10,0:0:0:0:
492,172,26661,6,0,P|500:101|457:46,1,130,10|0,0:0|1:0,0:0:0:0:
396,9,27210,2,0,P|385:48|376:84,1,65,2|10,0:0|0:0,0:0:0:0:
366,155,27576,1,8,0:0:0:0:
366,155,27941,2,0,P|332:144|279:135,1,65,10|2,0:0|0:0,0:0:0:0:
236,189,28353,2,0,P|173:193|120:144,1,130,0|10,1:0|0:0,0:0:0:0:
57,100,28856,2,0,P|65:68|73:16,1,65,2|8,0:0|0:0,0:0:0:0:
5,167,29221,1,2,1:2:0:0:
5,167,29404,1,8,0:0:0:0:
70,220,29587,6,0,P|104:271|97:345,1,130,10|0,0:0|1:0,0:0:0:0:
100,337,30135,1,0,0:0:0:0:
190,361,30317,2,0,L|260:352,1,65,8|8,0:0|0:0,0:0:0:0:
254,352,30866,2,0,P|242:319|244:281,1,65,8|0,0:0|0:0,0:0:0:0:
306,234,31231,2,0,P|317:203|317:171,2,65,0|0|8,1:0|0:0|0:0,0:0:0:0:
306,234,31963,1,8,0:0:0:0:
237,184,32146,2,0,L|172:173,1,65,2|8,1:2|0:0,0:0:0:0:
263,103,32512,6,0,P|322:132|385:113,1,130,10|0,0:0|1:0,0:0:0:0:
464,96,33061,2,0,P|456:64|451:32,1,65,0|10,0:0|0:0,0:0:0:0:
443,182,33427,1,8,0:0:0:0:
443,182,33792,2,0,L|507:185,1,65,8|2,0:0|0:0,0:0:0:0:
361,204,34158,2,0,P|334:262|352:323,1,130,0|8,1:0|0:0,0:0:0:0:
431,355,34707,2,0,L|495:358,1,65,2|8,0:0|0:0,0:0:0:0:
352,323,35073,1,0,1:0:0:0:
194,382,35439,6,0,L|201:310,1,65,6|0,1:2|0:0,0:0:0:0:
127,223,35805,2,0,L|120:288,1,65,2|0,1:2|3:0,0:0:0:0:
206,189,36170,1,2,1:2:0:0:
206,189,36353,1,8,0:0:0:0:
154,122,36536,2,0,L|89:115,1,65,2|8,1:2|0:0,0:0:0:0:
27,23,36902,2,0,L|92:30,1,65,2|0,1:2|0:0,0:0:0:0:
220,68,37268,2,0,P|193:126|206:189,1,130,2|2,1:2|1:2,0:0:0:0:
291,214,37817,1,8,0:0:0:0:
291,214,38000,2,0,L|374:200,1,65,2|8,1:2|0:0,0:0:0:0:
496,239,38366,6,0,B|475:289|475:289|440:288|402:273,2,130,2|2|2,1:2|1:2|1:2,0:0:0:0:
436,179,39280,1,8,0:0:0:0:
436,179,39463,2,0,P|438:146|442:114,1,65,2|8,1:2|0:0,0:0:0:0:
382,54,39829,2,0,B|430:73|430:73|468:61|491:13,2,130,2|2|2,1:2|1:2|1:2,0:0:0:0:
307,14,40744,1,8,0:0:0:0:
307,14,40927,2,0,L|242:23,1,65,2|8,1:2|0:0,0:0:0:0:
170,67,41292,6,0,P|162:98|169:129,1,65,2|0,1:2|0:0,0:0:0:0:
148,252,41658,2,0,P|126:228|116:197,1,65,2|0,1:2|3:0,0:0:0:0:
233,247,42024,1,2,1:2:0:0:
233,247,42207,1,8,0:0:0:0:
194,322,42390,2,0,P|179:364|180:391,1,65,2|8,1:2|0:0,0:0:0:0:
290,274,42756,2,0,P|264:256|229:246,1,65,2|0,1:2|0:0,0:0:0:0:
101,324,43122,2,0,P|38:316|-3:269,1,130,2|2,1:2|1:2,0:0:0:0:
44,200,43670,1,8,0:0:0:0:
44,200,43853,2,0,P|50:168|54:135,1,65,2|8,1:2|0:0,0:0:0:0:
115,0,44219,6,0,P|125:64|139:127,1,130,2|2,1:2|1:2,0:0:0:0:
213,180,44768,1,0,0:0:0:0:
213,180,44951,2,0,P|249:178|288:148,1,65,2|8,1:2|0:0,0:0:0:0:
323,95,45317,1,2,1:2:0:0:
323,95,45500,2,0,L|312:30,1,65,10|0,0:0|1:0,0:0:0:0:
403,123,45866,2,0,L|413:187,1,65,2|0,0:0|1:0,0:0:0:0:
494,237,46231,1,2,3:2:0:0:
494,237,46323,1,0,3:0:0:0:
494,237,46414,2,0,B|501:273|501:273|490:299,1,65,0|10,1:0|0:0,0:0:0:0:
291,353,46780,2,0,P|331:312|388:301,1,116.999996429443,4|0,1:2|0:0,0:0:0:0:
401,271,47146,6,0,P|363:268|323:260,1,65,6|0,1:2|0:0,0:0:0:0:
254,171,47512,2,0,P|286:173|319:179,1,65,2|0,1:2|3:0,0:0:0:0:
214,247,47878,1,2,1:2:0:0:
214,247,48061,1,8,0:0:0:0:
165,317,48244,2,0,P|159:348|156:381,1,65,2|8,1:2|0:0,0:0:0:0:
27,264,48609,2,0,P|59:270|92:274,1,65,2|0,1:2|0:0,0:0:0:0:
214,247,48975,2,0,P|174:197|178:133,1,130,2|2,1:2|1:2,0:0:0:0:
246,82,49524,1,8,0:0:0:0:
246,82,49707,2,0,P|246:50|250:4,1,65,2|8,1:2|0:0,0:0:0:0:
254,171,50073,5,2,1:2:0:0:
178,133,50256,2,0,P|141:130|90:130,1,65,8|2,0:0|1:2,0:0:0:0:
246,82,50622,2,0,P|278:82|310:83,1,65,0|2,0:0|1:2,0:0:0:0:
169,45,50988,1,8,0:0:0:0:
254,171,51170,6,0,L|394:176,1,130,6|2,1:2|1:2,0:0:0:0:
507,291,51902,2,0,P|474:292|445:305,1,65,2|0,1:2|3:0,0:0:0:0:
418,319,52177,1,0,3:0:0:0:
418,319,52268,2,0,P|433:285|435:247,1,65,10|8,0:0|0:0,0:0:0:0:
475,182,52634,2,0,P|470:145|453:111,1,65,2|0,1:2|3:0,0:0:0:0:
444,97,52908,5,0,3:0:0:0:
444,97,53000,2,0,P|383:102|321:57,1,130,6|0,1:2|1:0,0:0:0:0:
273,0,53548,2,0,P|219:35|156:31,1,130,2|8,3:2|0:0,0:0:0:0:
61,95,54097,2,0,P|67:63|71:30,1,65,2|0,1:2|0:0,0:0:0:0:
143,132,54463,5,10,0:0:0:0:
143,132,54646,1,8,0:0:0:0:
73,180,54829,2,0,P|43:236|53:299,1,130,0|10,1:0|0:0,0:0:0:0:
112,359,55378,1,8,0:0:0:0:
187,321,55561,2,0,L|252:315,1,65,2|0,1:2|3:0,0:0:0:0:
342,227,55927,6,0,L|278:234,1,65,12|8,0:0|0:0,0:0:0:0:
207,186,56292,1,0,1:0:0:0:
255,116,56458,1,0,3:0:0:0:
255,116,56547,1,0,3:0:0:0:
255,116,56637,2,0,L|279:71,4,32.5,10|0|10|0|0,0:0|0:0|0:0|0:0|1:0,0:0:0:0:
3,53,57391,5,4,1:3:0:0:
100,89,57573,1,4,1:3:0:0:
185,29,57756,1,4,1:3:0:0:
185,29,58122,6,0,P|242:57|305:48,1,130,12|4,0:3|1:3,0:0:0:0:
483,91,58854,6,0,P|419:81|362:110,1,130,12|0,0:0|1:0,0:0:0:0:
296,173,59403,1,0,0:0:0:0:
296,173,59586,2,0,P|286:250|282:325,1,130,8|0,0:0|1:0,0:0:0:0:
208,355,60134,1,2,0:0:0:0:
282,302,60317,6,0,P|345:291|402:320,1,130,8|0,0:0|1:0,0:0:0:0:
496,306,60866,1,8,0:0:0:0:
496,306,61049,2,0,P|488:337|483:369,1,65,10|8,0:0|0:0,0:0:0:0:
438,234,61415,2,0,P|432:201|425:170,1,65,2|8,1:2|0:0,0:0:0:0:
339,139,61781,6,0,P|341:75|384:28,2,130,10|0|10,0:0|1:0|0:0,0:0:0:0:
274,204,62695,1,8,0:0:0:0:
274,204,62878,2,0,P|242:197|209:194,1,65,0|2,1:2|0:0,0:0:0:0:
57,155,63244,6,0,P|120:153|169:111,1,130,8|0,0:0|1:0,0:0:0:0:
209,194,63793,1,2,0:0:0:0:
134,246,63976,2,0,P|115:284|119:325,1,65,8|10,0:0|0:0,0:0:0:0:
160,384,64342,1,0,1:0:0:0:
243,341,64525,5,0,1:0:0:0:
243,341,64616,1,0,1:0:0:0:
243,341,64708,2,0,L|378:331,1,130,4|0,1:2|1:0,0:0:0:0:
466,356,65256,1,8,0:0:0:0:
466,356,65439,2,0,L|458:271,1,65,8|8,0:0|0:0,0:0:0:0:
499,207,65805,2,0,P|447:244|384:239,1,130,2|10,1:2|0:0,0:0:0:0:
311,183,66354,5,0,0:0:0:0:
373,117,66537,2,0,L|366:52,1,65,2|0,1:2|0:0,0:0:0:0:
290,2,66903,1,10,0:0:0:0:
290,2,67086,1,8,0:0:0:0:
228,69,67269,2,0,L|234:133,1,65,2|0,1:2|0:0,0:0:0:0:
311,183,67634,6,0,P|247:177|195:214,1,130,12|0,0:0|1:0,0:0:0:0:
149,292,68183,1,0,0:0:0:0:
49,209,68366,2,0,L|59:274,1,65,12|8,0:0|0:0,0:0:0:0:
123,156,68732,1,0,1:0:0:0:
0,33,68915,6,0,P|51:70|115:64,1,130,12|8,0:0|0:0,0:0:0:0:
259,87,69464,2,0,P|227:89|198:101,1,65,0|0,1:0|3:0,0:0:0:0:
123,156,69830,1,2,1:2:0:0:
213,202,70012,1,0,1:0:0:0:
213,202,70104,1,0,0:0:0:0:
213,202,70195,2,0,L|215:247,3,32.5,2|0|0|0,1:2|1:0|1:0|1:0,0:0:0:0:
243,250,70561,6,0,P|205:301|210:364,1,130,12|0,1:2|1:0,0:0:0:0:
296,329,71110,1,0,0:0:0:0:
296,329,71293,2,0,P|359:315|423:303,1,130,8|0,0:0|1:0,0:0:0:0:
501,255,71842,1,10,0:0:0:0:
510,164,72025,6,0,P|458:127|395:137,1,130,8|0,0:0|1:0,0:0:0:0:
304,131,72573,1,8,0:0:0:0:
304,131,72756,2,0,P|312:165|318:207,1,65,10|8,0:0|0:0,0:0:0:0:
275,331,73122,2,0,P|270:299|263:268,1,65,2|8,1:2|0:0,0:0:0:0:
174,244,73488,6,0,P|147:263|116:269,2,65,10|8|0,0:0|0:0|1:0,0:0:0:0:
117,180,74037,1,0,3:0:0:0:
117,180,74128,1,0,3:0:0:0:
117,180,74220,2,0,P|84:183|54:173,2,65,10|8|2,0:0|0:0|1:2,0:0:0:0:
30,263,74769,6,0,P|-7:314|1:381,1,130,12|8,0:0|0:0,0:0:0:0:
81,338,75317,1,0,1:0:0:0:
165,372,75500,2,0,P|234:364|294:356,1,130,2|8,0:0|0:0,0:0:0:0:
369,256,76049,2,0,P|337:260|305:265,1,65,2|0,1:2|0:0,0:0:0:0:
227,216,76415,5,8,0:0:0:0:
227,216,76598,1,8,0:0:0:0:
307,174,76781,2,0,P|316:142|312:110,1,65,0|8,1:0|0:0,0:0:0:0:
240,54,77147,1,4,1:3:0:0:
331,24,77330,1,8,0:0:0:0:
331,24,77421,1,8,0:0:0:0:
331,24,77512,2,0,L|415:30,1,65,2|8,1:2|0:0,0:0:0:0:
312,110,77878,5,4,1:3:0:0:
240,54,78061,1,4,1:3:0:0:
156,90,78244,1,4,1:3:0:0:
484,344,78976,5,12,0:3:0:0:
484,344,79342,6,0,P|488:311|493:279,1,65,12|0,0:0|0:0,0:0:0:0:
445,209,79708,2,0,P|381:208|331:248,1,130,10|8,0:0|0:0,0:0:0:0:
298,326,80256,2,0,P|234:326|184:286,1,130,2|0,0:0|0:0,0:0:0:0:
100,293,80805,2,0,P|113:229|123:165,1,130,10|8,0:0|0:0,0:0:0:0:
97,84,81354,2,0,P|69:67|26:65,1,65,2|8,0:0|0:0,0:0:0:0:
123,165,81720,2,0,P|150:181|182:185,1,65,2|8,0:0|0:0,0:0:0:0:
259,144,82086,5,2,0:0:0:0:
259,144,82177,1,0,0:0:0:0:
259,144,82269,2,0,L|250:60,1,65,8|0,0:0|0:0,0:0:0:0:
326,38,82634,2,0,L|342:178,1,130,10|8,0:0|0:0,0:0:0:0:
423,186,83183,2,0,P|450:244|430:308,1,130,2|8,0:0|0:0,0:0:0:0:
255,273,83732,6,0,B|287:236|287:236|367:249,1,130,4|0,1:2|1:0,0:0:0:0:
357,340,84281,1,10,0:0:0:0:
357,340,84372,1,10,0:0:0:0:
357,340,84464,2,0,L|302:326,3,32.5,10|2|10|2,0:0|0:0|0:0|0:0,0:0:0:0:
297,348,84830,1,0,1:0:0:0:
255,273,85012,1,0,1:0:0:0:
219,384,85195,1,4,1:0:0:0:
256,192,85378,12,0,88854,0:0:0:0:
