osu file format v14

[General]
AudioFilename: audio.mp3
AudioLeadIn: 0
PreviewTime: 75064
Countdown: 0
SampleSet: Drum
StackLeniency: 0.4
Mode: 0
LetterboxInBreaks: 0
WidescreenStoryboard: 0

[Editor]
Bookmarks: 6064,12064,24064,36064,48157,60064,75064,78064
DistanceSpacing: 2.2
BeatDivisor: 16
GridSize: 8
TimelineZoom: 3.199999

[Metadata]
Title:Ugh
TitleUnicode:Ugh
Artist:Kawai Sprite
ArtistUnicode:Kawai Sprite
Creator:jast shafer
Version:Ugh'sane
Source:Friday Night Funkin'
Tags:Friday Night Funkin tankman man tank black orange newground newgrounds paulthebest
BeatmapID:2878165
BeatmapSetID:1388156

[Difficulty]
HPDrainRate:6.2
CircleSize:4.7
OverallDifficulty:6
ApproachRate:8.7
SliderMultiplier:2
SliderTickRate:1

[Events]
//Background and Video events
0,0,"BG.jpg",0,0
//Break Periods
//Storyboard Layer 0 (Background)
//Storyboard Layer 1 (Fail)
//Storyboard Layer 2 (Pass)
//Storyboard Layer 3 (Foreground)
//Storyboard Layer 4 (Overlay)
//Storyboard Sound Samples

[TimingPoints]
64,375,4,3,1,64,1,0
1751,-66.6666666666667,4,3,1,64,0,0
1939,-50,4,3,1,64,0,0
2126,-125,4,3,1,64,0,0
7189,-100,4,3,1,64,0,0
7751,-66.6666666666667,4,3,1,64,0,0
7939,-50,4,3,1,64,0,0
8126,-125,4,3,1,64,0,0
12064,-125,4,3,1,78,0,0
24064,-125,4,3,1,84,0,1
30064,-86.9565217391304,4,3,1,84,0,1
33064,-104.166666666667,4,3,1,84,0,1
36064,-100,4,3,1,78,0,0
48157,-100,4,3,1,78,0,0
60064,-71.4285714285714,4,3,1,84,0,1
72064,-100,4,3,1,64,0,0
73751,-66.6666666666667,4,3,1,64,0,0
73939,-50,4,3,1,64,0,0
74126,-100,4,3,1,64,0,0
79751,-66.6666666666667,4,3,1,64,0,0
79939,-50,4,3,1,64,0,0
80126,-100,4,3,1,64,0,0
84064,-100,4,3,1,5,0,0

[Colours]
Combo1 : 208,6,6
Combo2 : 255,139,23
Combo3 : 41,185,239
Combo4 : 0,0,147

[HitObjects]
16,40,64,5,8,0:0:0:0:
40,128,251,1,0,0:0:0:0:
152,152,439,1,8,0:0:0:0:
128,240,626,1,0,0:0:0:0:
24,272,814,1,8,0:0:0:0:
48,360,1001,1,0,0:0:0:0:
160,328,1189,2,0,B|176:336|176:336|216:328,1,50,8|0,0:0|0:0,0:0:0:0:
160,240,1376,2,0,B|144:232|144:232|104:240,1,50
240,264,1564,22,0,P|248:234|245:203,1,50,8|0,0:0|0:0,0:0:0:0:
330,209,1751,2,0,P|309:176|278:147,1,75.0000028610231
379,118,1939,2,0,P|337:90|268:83,1,100,8|0,0:0|0:0,0:0:0:0:
200,104,2126,2,0,P|185:141|160:171,3,80,0|8|0|8,0:0|0:0|0:0|0:0,0:0:0:0:
400,352,3064,21,8,0:0:0:0:
448,192,3251,1,0,0:0:0:0:
496,296,3439,1,8,0:0:0:0:
352,240,3626,1,0,0:0:0:0:
464,128,3814,1,8,0:0:0:0:
512,264,4001,1,0,0:0:0:0:
272,216,4189,2,0,B|264:176|248:139|248:139|288:128|321:104,1,160,8|0,0:0|0:0,0:0:0:0:
344,184,4751,21,0,0:0:0:0:
176,136,4939,1,8,0:0:0:0:
176,296,5126,1,0,0:0:0:0:
48,176,5314,2,8,B|45:151|49:136|49:136|27:123|19:88|19:88|54:79|65:51,1,160,8|10,0:0|0:0,0:0:0:0:
48,176,6064,5,0,0:0:0:0:
80,320,6251,1,0,0:0:0:0:
168,224,6439,1,8,0:0:0:0:
256,336,6626,1,0,0:0:0:0:
320,224,6814,1,8,0:0:0:0:
416,328,7001,1,0,0:0:0:0:
448,200,7189,2,0,P|456:168|479:144,1,50,8|0,0:0|0:0,0:0:0:0:
416,64,7376,2,0,P|407:95|384:119,1,50
296,184,7564,22,0,P|320:205|332:236,1,50,8|0,0:0|0:0,0:0:0:0:
253,246,7751,2,0,P|251:283|237:317,1,75.0000028610231
176,264,7939,2,0,P|137:307|83:325,1,100,8|0,0:0|0:0,0:0:0:0:
88,240,8126,2,0,P|48:236|18:211,3,80,0|8|0|8,0:0|0:0|0:0|0:0,0:0:0:0:
48,96,9064,21,8,0:0:0:0:
160,72,9251,1,0,0:0:0:0:
152,168,9439,1,8,0:0:0:0:
240,200,9626,1,0,0:0:0:0:
280,112,9814,1,8,0:0:0:0:
384,80,10001,1,0,0:0:0:0:
336,168,10190,2,8,B|368:200|427:178|427:178|416:208|431:238,1,160
344,264,10751,1,0,0:0:0:0:
424,80,10939,1,8,0:0:0:0:
224,24,11126,1,0,0:0:0:0:
144,176,11314,2,12,B|98:178|72:213|72:213|45:183|2:189,2,160
64,128,12251,37,0,0:0:0:0:
80,280,12439,1,0,0:0:0:0:
232,248,12626,1,0,0:0:0:0:
352,320,12814,1,0,0:0:0:0:
352,320,12907,1,0,0:0:0:0:
352,320,13001,1,0,0:0:0:0:
482,368,13189,21,0,0:0:0:0:
352,320,13377,1,0,0:0:0:0:
450,225,13564,1,0,0:0:0:0:
343,135,13751,2,0,B|314:105|314:105|299:67,1,80,0|4,0:0|0:0,0:0:0:0:
198,29,14126,21,0,0:0:0:0:
198,29,14314,1,0,0:0:0:0:
56,176,14501,1,0,0:0:0:0:
272,224,14689,1,0,0:0:0:0:
192,112,14876,1,0,0:0:0:0:
144,256,15064,2,0,P|122:289|112:328,1,80,4|0,0:0|0:0,0:0:0:0:
208,320,15439,1,0,0:0:0:0:
238,177,15626,21,0,0:0:0:0:
313,224,15814,2,0,B|331:172|331:172|325:145,1,80
153,143,16095,2,0,B|148:161|148:161|150:183,1,40
256,280,16376,2,0,B|217:282|217:282|184:252,1,80
88,112,16751,1,0,0:0:0:0:
186,254,16939,1,0,0:0:0:0:
24,256,17126,1,0,0:0:0:0:
88,112,17314,1,0,0:0:0:0:
216,152,17501,1,0,0:0:0:0:
304,48,17689,1,0,0:0:0:0:
416,152,17876,1,0,0:0:0:0:
512,48,18064,37,4,0:0:0:0:
512,248,18251,1,0,0:0:0:0:
272,168,18439,1,0,0:0:0:0:
424,128,18626,1,0,0:0:0:0:
376,280,18814,1,0,0:0:0:0:
376,280,18907,1,0,0:0:0:0:
376,280,19001,1,0,0:0:0:0:
49,269,19189,21,0,0:0:0:0:
190,347,19376,1,0,0:0:0:0:
173,190,19564,1,0,0:0:0:0:
256,112,19751,2,0,B|236:76|236:76|194:38,1,80,0|4,0:0|0:0,0:0:0:0:
48,88,20126,21,0,0:0:0:0:
250,109,20314,1,0,0:0:0:0:
400,200,20501,1,0,0:0:0:0:
240,264,20689,1,0,0:0:0:0:
250,109,20876,1,0,0:0:0:0:
344,120,21064,22,0,P|392:112|435:89,1,80,4|0,0:0|0:0,0:0:0:0:
360,48,21439,1,0,0:0:0:0:
400,192,21626,1,0,0:0:0:0:
488,272,21814,2,0,P|448:288|416:320,1,80
313,254,22095,2,0,P|341:254|377:246,1,40
272,336,22376,2,0,P|237:343|189:362,1,80
104,296,22751,1,0,0:0:0:0:
8,352,22939,1,0,0:0:0:0:
0,240,23126,1,0,0:0:0:0:
72,160,23314,1,0,0:0:0:0:
152,240,23501,1,0,0:0:0:0:
208,112,23689,1,0,0:0:0:0:
320,208,23876,1,0,0:0:0:0:
472,48,24064,5,4,0:0:0:0:
472,48,24157,1,0,0:0:0:0:
472,48,24251,1,0,0:0:0:0:
472,48,24345,1,4,0:0:0:0:
472,48,24439,2,0,B|449:81|449:81|436:137,1,80
352,128,24720,21,0,0:0:0:0:
352,128,24814,1,0,0:0:0:0:
352,128,24907,1,4,0:0:0:0:
352,128,25002,2,0,B|371:164|371:164|410:204,1,80
336,264,25282,21,4,0:0:0:0:
336,264,25375,1,0,0:0:0:0:
336,264,25469,1,0,0:0:0:0:
336,264,25564,2,0,B|371:273|371:273|431:258,1,80
464,360,25845,21,4,0:0:0:0:
464,360,25938,1,0,0:0:0:0:
464,360,26032,1,0,0:0:0:0:
464,360,26127,2,0,B|483:326|483:326|498:270,1,80,0|4,0:0|0:0,0:0:0:0:
248,224,26689,21,4,0:0:0:0:
248,224,26876,1,4,0:0:0:0:
33,358,27064,21,4,0:0:0:0:
33,358,27157,1,8,0:0:0:0:
33,358,27251,1,0,0:0:0:0:
33,358,27344,1,4,0:0:0:0:
33,358,27439,2,0,P|50:331|67:268,1,80
145,278,27720,21,0,0:0:0:0:
145,278,27814,1,8,0:0:0:0:
145,278,27907,1,4,0:0:0:0:
145,278,28002,2,0,P|135:244|93:195,1,80
161,150,28282,21,0,0:0:0:0:
161,150,28376,1,8,0:0:0:0:
161,150,28469,1,4,0:0:0:0:
161,150,28564,2,0,P|135:135|70:117,1,80
93,42,28845,21,0,0:0:0:0:
93,42,28939,1,8,0:0:0:0:
93,42,29032,1,4,0:0:0:0:
93,42,29127,2,0,P|69:42|2:73,1,80
259,64,29689,21,4,0:0:0:0:
259,64,29876,1,4,0:0:0:0:
480,112,30064,6,0,B|432:168|422:218|422:218|376:208|304:231,1,230.000004386902
272,160,30626,2,0,B|302:103|310:53|310:53|367:47|436:20,1,230.000004386902
88,352,31189,22,0,B|96:240|96:240|0:160,1,230.000004386902
177,223,31751,2,0,B|224:192|224:192|272:224,2,115.000002193451
376,352,32314,2,0,B|368:240|368:240|464:160,1,230.000004386902
24,96,33064,6,0,P|91:152|120:264,1,192.0000046875,12|0,0:0|0:0,0:0:0:0:
248,177,33626,2,0,P|176:114|151:23,1,192.0000046875
376,232,34189,22,0,P|484:312|501:363,1,192.0000046875
338,315,34751,2,0,P|288:312|246:282,2,96.0000023437501
240,208,35314,2,0,P|147:228|80:304,1,192.0000046875
344,352,36064,5,0,0:0:0:0:
480,312,36251,1,0,0:0:0:0:
352,248,36439,1,0,0:0:0:0:
480,208,36626,1,0,0:0:0:0:
390,128,36813,1,0,0:0:0:0:
344,263,37001,1,0,0:0:0:0:
240,208,37189,2,0,B|227:183|227:183|232:144,1,50
160,304,37376,2,0,B|173:329|173:329|160:374,1,50
79,321,37564,21,8,0:0:0:0:
31,329,37657,1,8,0:0:0:0:
51,285,37751,1,8,0:0:0:0:
88,324,37845,1,8,0:0:0:0:
23,335,37939,1,8,0:0:0:0:
50,274,38033,1,8,0:0:0:0:
50,274,38126,2,0,B|45:234|45:234|57:202|57:202|50:166,1,100
17,0,38689,1,0,0:0:0:0:
270,29,39064,21,0,0:0:0:0:
216,144,39251,1,0,0:0:0:0:
352,128,39439,1,0,0:0:0:0:
432,32,39626,1,0,0:0:0:0:
496,144,39813,1,0,0:0:0:0:
352,128,40001,1,0,0:0:0:0:
432,216,40189,2,0,B|414:263|332:255|332:255|294:364,1,200
289,374,40657,21,8,0:0:0:0:
304,334,40750,1,8,0:0:0:0:
320,295,40844,1,8,0:0:0:0:
338,257,40938,1,8,0:0:0:0:
353,218,41032,1,8,0:0:0:0:
369,180,41125,1,8,0:0:0:0:
386,141,41219,1,8,0:0:0:0:
408,96,41314,2,0,B|356:69|334:21|334:21|301:58|232:54,2,200
488,216,42251,37,0,0:0:0:0:
392,328,42439,1,0,0:0:0:0:
312,208,42626,1,0,0:0:0:0:
184,200,42813,1,0,0:0:0:0:
248,328,43001,1,0,0:0:0:0:
72,280,43189,22,0,P|44:275|17:279,1,50
152,192,43376,2,0,P|180:197|207:193,1,50
88,120,43564,21,8,0:0:0:0:
40,112,43657,1,8,0:0:0:0:
60,156,43751,1,8,0:0:0:0:
97,117,43845,1,8,0:0:0:0:
32,106,43939,1,8,0:0:0:0:
59,167,44033,1,8,0:0:0:0:
59,167,44126,2,0,B|83:215|27:215|58:270,3,100
280,328,45064,21,0,0:0:0:0:
216,184,45251,1,0,0:0:0:0:
368,216,45439,1,0,0:0:0:0:
512,192,45626,1,0,0:0:0:0:
424,104,45813,1,0,0:0:0:0:
456,304,46001,1,0,0:0:0:0:
296,352,46189,2,0,B|269:286|301:239|301:239|262:165,1,200
240,120,46657,21,8,0:0:0:0:
208,80,46750,1,8,0:0:0:0:
176,40,46844,1,8,0:0:0:0:
144,0,46938,1,8,0:0:0:0:
112,40,47032,1,8,0:0:0:0:
88,88,47126,1,8,0:0:0:0:
72,136,47220,1,8,0:0:0:0:
56,192,47314,2,0,P|150:200|240:144,2,200
64,280,48157,5,0,0:0:0:0:
64,280,48251,1,0,0:0:0:0:
64,280,48345,1,0,0:0:0:0:
64,280,48439,1,0,0:0:0:0:
210,344,48626,21,0,0:0:0:0:
210,344,48720,1,0,0:0:0:0:
210,344,48814,1,0,0:0:0:0:
210,344,48908,1,0,0:0:0:0:
210,344,49001,1,0,0:0:0:0:
384,376,49189,22,0,B|423:359|412:325|412:325|458:330|485:319|485:319|470:280|485:240,1,200,0|10,0:0|0:0,0:0:0:0:
368,240,49751,1,0,0:0:0:0:
448,144,49939,1,0,0:0:0:0:
336,112,50126,1,0,0:0:0:0:
416,24,50314,1,0,0:0:0:0:
246,15,50501,1,0,0:0:0:0:
187,128,50689,2,0,P|203:155|208:180,2,50
96,193,51064,21,0,0:0:0:0:
27,294,51251,1,0,0:0:0:0:
242,258,51439,1,0,0:0:0:0:
176,352,51626,1,0,0:0:0:0:
345,365,51814,22,0,P|385:341|417:293,1,100
466,215,52095,2,0,B|454:200|454:200|422:198,1,50
237,234,52376,2,0,B|261:266|261:266|323:277,1,100
408,336,52751,1,0,0:0:0:0:
392,192,52939,1,0,0:0:0:0:
512,280,53126,1,0,0:0:0:0:
408,336,53314,1,0,0:0:0:0:
296,320,53501,1,0,0:0:0:0:
208,224,53689,1,0,0:0:0:0:
160,352,53876,1,0,0:0:0:0:
48,288,54064,37,0,0:0:0:0:
48,288,54157,1,0,0:0:0:0:
48,288,54251,1,0,0:0:0:0:
48,288,54345,1,0,0:0:0:0:
48,288,54439,1,0,0:0:0:0:
120,160,54626,21,0,0:0:0:0:
120,160,54720,1,0,0:0:0:0:
120,160,54814,1,0,0:0:0:0:
120,160,54908,1,0,0:0:0:0:
120,160,55001,1,0,0:0:0:0:
426,188,55189,22,0,P|396:261|283:240,1,200
350,204,55751,1,0,0:0:0:0:
391,89,55939,1,0,0:0:0:0:
246,140,56126,1,0,0:0:0:0:
293,20,56314,1,0,0:0:0:0:
161,62,56501,1,0,0:0:0:0:
67,164,56689,21,0,0:0:0:0:
67,164,56876,1,0,0:0:0:0:
16,40,57064,1,0,0:0:0:0:
67,164,57251,1,0,0:0:0:0:
200,216,57439,1,0,0:0:0:0:
168,352,57626,1,0,0:0:0:0:
48,296,57814,2,0,P|86:265|140:249,1,100
247,214,58095,2,0,P|231:190|186:156,1,50
328,152,58376,2,0,P|374:132|414:100,1,100
320,40,58751,21,0,0:0:0:0:
224,128,58939,1,0,0:0:0:0:
140,15,59126,1,0,0:0:0:0:
32,88,59314,1,0,0:0:0:0:
120,176,59501,1,0,0:0:0:0:
27,277,59689,1,0,0:0:0:0:
120,176,59876,1,0,0:0:0:0:
200,320,60064,38,0,B|264:272|264:272|275:186,1,139.999995727539
192,208,60439,2,0,B|136:224|136:224|40:168,1,139.999995727539
152,120,60814,1,0,0:0:0:0:
152,120,60907,1,0,0:0:0:0:
152,120,61001,1,0,0:0:0:0:
73,18,61189,2,0,B|86:55|86:55|27:91|27:91|46:132,2,139.999995727539
382,59,61751,22,0,B|336:82|336:82|292:172,1,139.999995727539
208,240,62126,2,0,B|271:273|271:273|339:269,1,139.999995727539
456,288,62501,2,0,B|456:215|456:215|408:167,2,139.999995727539
344,296,63064,21,12,0:0:0:0:
199,198,63251,1,0,0:0:0:0:
184,384,63439,21,0,0:0:0:0:
199,198,63626,1,12,0:0:0:0:
184,384,63814,1,0,0:0:0:0:
16,233,64002,21,0,0:0:0:0:
199,198,64189,1,12,0:0:0:0:
16,233,64376,1,0,0:0:0:0:
199,198,64564,2,0,B|247:174|247:174|232:88,1,139.999995727539
409,10,64939,2,0,B|361:34|361:34|376:120,1,139.999995727539
409,10,65314,1,0,0:0:0:0:
440,208,65501,22,0,B|379:246|379:246|347:310,1,139.999995727539
168,352,65876,2,0,B|229:314|229:314|261:250,1,139.999995727539
138,194,66251,37,0,0:0:0:0:
48,320,66439,2,0,B|35:294|2:291|2:291|24:250|-8:195,1,139.999995727539
104,224,66814,1,0,0:0:0:0:
112,176,66907,1,0,0:0:0:0:
152,208,67001,1,0,0:0:0:0:
240,272,67189,2,0,P|260:207|240:136,1,139.999995727539
167,51,67564,1,0,0:0:0:0:
336,136,67751,2,0,P|360:93|454:45,1,139.999995727539
512,128,68126,2,0,P|487:170|393:218,1,139.999995727539
289,240,68501,2,0,B|262:233|241:240|241:240|225:256|225:256|209:240|209:240|188:233|161:240,2,139.999995727539
224,163,69064,21,0,0:0:0:0:
228,334,69251,1,0,0:0:0:0:
64,264,69439,1,0,0:0:0:0:
92,149,69626,1,0,0:0:0:0:
140,158,69719,1,0,0:0:0:0:
121,113,69814,1,0,0:0:0:0:
182,56,70001,22,0,B|220:49|242:56|242:56|241:30|241:30|270:39|313:31,1,139.999995727539
424,32,70376,1,0,0:0:0:0:
479,162,70564,1,0,0:0:0:0:
374,250,70751,1,0,0:0:0:0:
450,353,70939,1,0,0:0:0:0:
288,376,71126,1,0,0:0:0:0:
204,263,71314,1,0,0:0:0:0:
88,320,71501,1,0,0:0:0:0:
74,274,71596,1,0,0:0:0:0:
95,227,71689,1,0,0:0:0:0:
32,80,71876,2,0,P|33:149|4:212,1,139.999995727539,0|12,0:0|0:0,0:0:0:0:
320,112,72251,37,0,0:0:0:0:
368,208,72439,1,0,0:0:0:0:
264,208,72626,1,0,0:0:0:0:
200,320,72814,1,0,0:0:0:0:
336,328,73001,1,0,0:0:0:0:
200,320,73189,22,0,L|144:314,1,50
264,208,73376,2,0,L|327:214,1,50
56,280,73564,22,0,B|72:256|72:256|70:228,1,50
155,231,73751,2,0,B|152:192|152:192|127:161,1,75.0000028610231
213,120,73939,2,0,B|184:80|184:80|125:66,1,100
56,104,74126,2,0,B|42:150|42:150|0:183,3,100
72,8,75064,21,0,0:0:0:0:
128,128,75251,1,0,0:0:0:0:
240,32,75439,1,0,0:0:0:0:
328,144,75626,1,0,0:0:0:0:
440,72,75814,1,0,0:0:0:0:
488,200,76001,1,0,0:0:0:0:
352,280,76189,22,0,B|265:327|265:327|153:319,1,200
72,312,76751,1,0,0:0:0:0:
48,176,76939,1,0,0:0:0:0:
72,312,77126,1,0,0:0:0:0:
188,251,77314,2,0,B|208:234|195:201|195:201|218:169|280:194|280:194|263:157|276:124,1,200,0|10,0:0|0:0,0:0:0:0:
376,144,78064,5,0,0:0:0:0:
472,256,78274,1,0,0:0:0:0:
320,256,78439,1,0,0:0:0:0:
232,352,78626,1,0,0:0:0:0:
152,248,78813,1,0,0:0:0:0:
232,352,79001,1,0,0:0:0:0:
320,200,79189,2,0,B|328:172|328:172|320:144,1,50
136,152,79376,2,0,B|130:172|130:172|138:200,1,50
200,272,79564,22,0,P|224:264|254:276,1,50
264,192,79751,2,0,P|228:183|192:192,1,75.0000028610231
176,96,79939,2,0,P|223:83|270:98,1,100
352,160,80126,2,0,B|392:120|392:120|448:120,3,100
283,52,81064,21,0,0:0:0:0:
112,168,81251,1,0,0:0:0:0:
312,144,81439,1,0,0:0:0:0:
144,40,81626,1,0,0:0:0:0:
221,217,81813,1,0,0:0:0:0:
221,217,82001,1,0,0:0:0:0:
133,327,82189,2,0,P|230:299|332:313,1,200
384,360,82751,1,0,0:0:0:0:
512,384,82939,1,0,0:0:0:0:
512,256,83126,1,0,0:0:0:0:
384,240,83314,2,0,B|328:262|309:185|296:205|289:108|240:126,2,200
