osu file format v14

[General]
AudioFilename: audio.mp3
AudioLeadIn: 0
PreviewTime: 730
Countdown: 0
SampleSet: Soft
StackLeniency: 0.3
Mode: 0
LetterboxInBreaks: 0
WidescreenStoryboard: 0

[Editor]
Bookmarks: 730,6730,12730,18730,24730,27730,30730,33730,36730,42730,48730,54730,60730,66730,72730,78730,84730
DistanceSpacing: 0.7
BeatDivisor: 4
GridSize: 32
TimelineZoom: 1.7

[Metadata]
Title:Ugh
TitleUnicode:Ugh
Artist:Kawai Sprite
ArtistUnicode:Kawai Sprite
Creator:Altai
Version:TAG 2
Source:Friday Night Funkin'
Tags:ughh uggh agh tag tag2 two Boyfriend Boy friend Tankman Tank Man FNF kieg enri Heatwave -_Heatwave_- undeadphoneguy OST Original Soundtrack vol 2 two v2 VideoGame Video Game VGM Instrumental Newgrounds Electronic ninjamuffin99 PhantomArcade evilsk8r
BeatmapID:3100560
BeatmapSetID:1514399

[Difficulty]
HPDrainRate:5.5
CircleSize:5
OverallDifficulty:8.5
ApproachRate:9.3
SliderMultiplier:2.6
SliderTickRate:1

[Events]
//Background and Video events
0,0,"luiz-felipe-bozzi-da-silva-funkinfanart.jpg",0,0
//Break Periods
//Storyboard Layer 0 (Background)
//Storyboard Layer 1 (Fail)
//Storyboard Layer 2 (Pass)
//Storyboard Layer 3 (Foreground)
//Storyboard Layer 4 (Overlay)
//Storyboard Sound Samples

[TimingPoints]
730,375,4,2,1,50,1,0
730,-133.333333333333,4,2,1,50,0,0
1105,-80,4,2,1,50,0,0
1292,-133.333333333333,4,2,1,50,0,0
1480,-80,4,2,1,50,0,0
1667,-133.333333333333,4,2,1,50,0,0
3261,-133.333333333333,4,2,1,5,0,0
3355,-133.333333333333,4,2,1,50,0,0
3730,-133.333333333333,4,2,1,50,0,0
4105,-80,4,2,1,50,0,0
4292,-133.333333333333,4,2,1,50,0,0
4480,-80,4,2,1,50,0,0
4667,-133.333333333333,4,2,1,50,0,0
4855,-200,4,2,1,50,0,0
5136,-200,4,2,1,5,0,0
5230,-133.333333333333,4,2,1,50,0,0
5980,-200,4,2,1,50,0,0
6261,-200,4,2,1,5,0,0
6355,-66.6666666666667,4,2,1,50,0,0
6730,-133.333333333333,4,2,1,50,0,0
7105,-80,4,2,1,50,0,0
7292,-133.333333333333,4,2,1,50,0,0
7480,-80,4,2,1,50,0,0
7667,-133.333333333333,4,2,1,50,0,0
9636,-133.333333333333,4,2,1,5,0,0
9730,-133.333333333333,4,2,1,50,0,0
10105,-80,4,2,1,50,0,0
10292,-133.333333333333,4,2,1,50,0,0
10480,-80,4,2,1,50,0,0
10667,-133.333333333333,4,2,1,50,0,0
12167,-100,4,2,1,55,0,0
12355,-80,4,2,1,60,0,0
12542,-66.6666666666667,4,2,1,65,0,0
12730,-50,4,2,1,70,0,0
12870,-66.6666666666667,4,2,1,5,0,0
12917,-66.6666666666667,4,2,1,70,0,0
14230,-133.333333333333,4,2,1,70,0,0
14605,-50,4,2,1,70,0,0
14745,-50,4,2,1,5,0,0
14792,-66.6666666666667,4,2,1,70,0,0
15730,-50,4,2,1,70,0,0
15870,-50,4,2,1,5,0,0
15917,-66.6666666666667,4,2,1,70,0,0
17605,-50,4,2,1,70,0,0
17745,-50,4,2,1,5,0,0
17792,-66.6666666666667,4,2,1,70,0,0
18730,-50,4,2,1,70,0,0
18870,-50,4,2,1,5,0,0
18917,-66.6666666666667,4,2,1,70,0,0
19105,-100,4,2,1,70,0,0
20230,-133.333333333333,4,2,1,70,0,0
20605,-50,4,2,1,70,0,0
20745,-50,4,2,1,5,0,0
20792,-66.6666666666667,4,2,1,70,0,0
21730,-50,4,2,1,70,0,0
21870,-50,4,2,1,5,0,0
21917,-66.6666666666667,4,2,1,70,0,0
22855,-133.333333333333,4,2,1,70,0,0
23605,-50,4,2,1,70,0,0
23792,-66.6666666666667,4,2,1,70,0,0
24730,-100,4,2,1,75,0,0
26980,-66.6666666666667,4,2,1,75,0,0
27355,-500,4,2,1,75,0,0
27730,-100,4,2,1,75,0,1
29980,-66.6666666666667,4,2,1,75,0,1
30730,-50,4,2,1,75,0,0
31292,-66.6666666666667,4,2,1,75,0,0
33730,-50,4,2,1,75,0,1
34855,-66.6666666666667,4,2,1,75,0,1
35980,-66.6666666666667,4,2,1,75,0,1
36167,-133.333333333333,4,2,1,75,0,1
36730,-100,4,2,1,60,0,0
37105,-71.4285714285714,4,2,1,60,0,0
37292,-100,4,2,1,60,0,0
37480,-71.4285714285714,4,2,1,60,0,0
37667,-100,4,2,1,60,0,0
39730,-100,4,2,1,60,0,0
40105,-71.4285714285714,4,2,1,60,0,0
40292,-100,4,2,1,60,0,0
40480,-71.4285714285714,4,2,1,60,0,0
40667,-100,4,2,1,60,0,0
42355,-66.6666666666667,4,2,1,60,0,0
42730,-100,4,2,1,60,0,0
48730,-100,4,2,1,70,0,0
50230,-133.333333333333,4,2,1,70,0,0
50605,-50,4,2,1,70,0,0
50745,-100,4,2,1,5,0,0
50792,-66.6666666666667,4,2,1,70,0,0
51355,-66.6666666666667,4,2,2,70,0,0
51542,-66.6666666666667,4,2,1,70,0,0
51730,-50,4,2,1,70,0,0
51870,-50,4,2,1,5,0,0
51917,-66.6666666666667,4,2,1,70,0,0
53605,-50,4,2,1,70,0,0
53745,-100,4,2,1,5,0,0
53792,-66.6666666666667,4,2,1,70,0,0
54730,-100,4,2,1,70,0,0
56230,-133.333333333333,4,2,1,70,0,0
56605,-50,4,2,1,70,0,0
56745,-50,4,2,1,5,0,0
56792,-66.6666666666667,4,2,1,70,0,0
57730,-50,4,2,1,70,0,0
57870,-50,4,2,1,5,0,0
57917,-66.6666666666667,4,2,1,70,0,0
58855,-133.333333333333,4,2,1,70,0,0
59605,-50,4,2,1,70,0,0
59745,-50,4,2,1,5,0,0
59792,-66.6666666666667,4,2,1,70,0,0
60730,-50,4,2,1,70,0,0
60870,-50,4,2,1,5,0,0
60917,-66.6666666666667,4,2,1,70,0,0
62230,-133.333333333333,4,2,1,70,0,0
62605,-50,4,2,1,70,0,0
62745,-50,4,2,1,5,0,0
62792,-66.6666666666667,4,2,1,70,0,0
63167,-100,4,2,1,70,0,0
63730,-50,4,2,1,70,0,0
63870,-100,4,2,1,5,0,0
63917,-66.6666666666667,4,2,1,70,0,0
65230,-133.333333333333,4,2,1,70,0,0
65605,-50,4,2,1,70,0,0
65745,-50,4,2,1,5,0,0
65792,-66.6666666666667,4,2,1,70,0,0
66730,-50,4,2,1,70,0,0
66870,-50,4,2,1,5,0,0
66917,-66.6666666666667,4,2,1,70,0,0
68230,-133.333333333333,4,2,1,70,0,0
68605,-50,4,2,1,70,0,0
68745,-50,4,2,1,5,0,0
68792,-66.6666666666667,4,2,1,70,0,0
69167,-100,4,2,1,70,0,0
69730,-50,4,2,1,70,0,0
69870,-50,4,2,1,5,0,0
69917,-66.6666666666667,4,2,1,70,0,0
70855,-133.333333333333,4,2,1,70,0,0
71605,-50,4,2,1,70,0,0
71745,-50,4,2,1,5,0,0
71792,-66.6666666666667,4,2,1,70,0,0
72730,-133.333333333333,4,2,1,50,0,0
73105,-80,4,2,1,50,0,0
73292,-133.333333333333,4,2,1,50,0,0
73480,-80,4,2,1,50,0,0
73667,-133.333333333333,4,2,1,50,0,0
75261,-133.333333333333,4,2,1,5,0,0
75355,-133.333333333333,4,2,1,50,0,0
76105,-80,4,2,1,50,0,0
76292,-133.333333333333,4,2,1,50,0,0
76480,-80,4,2,1,50,0,0
76667,-133.333333333333,4,2,1,50,0,0
76855,-200,4,2,1,50,0,0
77230,-133.333333333333,4,2,1,50,0,0
78261,-133.333333333333,4,2,1,5,0,0
78355,-57.1428571428571,4,2,1,50,0,0
78730,-133.333333333333,4,2,1,50,0,0
79105,-80,4,2,1,50,0,0
79292,-133.333333333333,4,2,1,50,0,0
79480,-80,4,2,1,50,0,0
79667,-133.333333333333,4,2,1,50,0,0
81636,-133.333333333333,4,2,1,5,0,0
81730,-133.333333333333,4,2,1,50,0,0
82105,-80,4,2,1,50,0,0
82292,-133.333333333333,4,2,1,50,0,0
82480,-80,4,2,1,50,0,0
82667,-133.333333333333,4,2,1,50,0,0
83230,-133.333333333333,4,2,1,45,0,0
84261,-133.333333333333,4,2,1,5,0,0
84355,-133.333333333333,4,2,1,45,0,0
84730,-133.333333333333,4,2,1,15,0,0

[Colours]
Combo1 : 74,210,255
Combo2 : 34,84,255

[HitObjects]
36,365,730,6,0,L|27:313,1,48.750001859665,6|0,1:2|0:2,0:2:0:0:
36,365,917,2,0,L|27:313,1,48.750001859665,2|0,0:2|0:2,0:2:0:0:
118,315,1105,2,0,B|145:284|145:284|127:246,1,81.25,2|0,1:2|0:2,0:2:0:0:
48,242,1292,2,0,L|-3:234,1,48.750001859665,2|0,0:2|0:2,0:2:0:0:
135,251,1480,2,0,B|152:287|152:287|125:318,1,81.25,2|0,1:2|0:2,0:2:0:0:
51,251,1667,2,0,L|0:243,1,48.750001859665,2|0,0:2|0:2,0:2:0:0:
40,358,1855,1,2,1:2:0:0:
207,238,2042,1,2,0:2:0:0:
211,233,2136,1,2,0:2:0:0:
216,228,2230,2,0,P|210:204|190:178,1,48.750001859665,2|2,1:2|0:2,0:2:0:0:
212,96,2417,2,0,P|188:89|155:93,1,48.750001859665,2|2,0:2|0:2,0:2:0:0:
101,156,2605,1,2,1:2:0:0:
114,153,2698,1,2,0:2:0:0:
127,151,2792,1,2,0:2:0:0:
2,66,2980,2,0,B|47:81|66:37|62:34|55:32|70:-10|115:4,1,146.250005578995,2|0,1:2|0:0,0:0:0:0:
123,0,3355,1,2,1:2:0:0:
168,371,3730,2,0,L|177:319,1,48.750001859665,2|0,1:2|0:2,0:2:0:0:
168,371,3917,2,0,L|177:319,1,48.750001859665,2|0,0:2|0:2,0:2:0:0:
95,306,4105,2,0,B|68:275|68:275|86:237,1,81.25,2|0,1:2|0:2,0:2:0:0:
167,235,4292,2,0,L|218:227,1,48.750001859665,2|0,0:2|0:2,0:2:0:0:
78,242,4480,2,0,B|61:278|61:278|87:309,1,81.25,2|0,1:2|0:2,0:2:0:0:
164,244,4667,2,0,L|215:236,1,48.750001859665,2|0,0:2|0:2,0:2:0:0:
217,151,4855,2,0,B|181:145|181:145|172:125|172:125|130:118,1,97.5,2|0,1:2|0:0,0:0:0:0:
80,159,5230,2,0,L|29:167,1,48.750001859665,2|0,1:2|0:2,0:2:0:0:
164,244,5417,1,2,0:0:0:0:
9,96,5605,1,2,1:2:0:0:
157,14,5792,1,2,0:0:0:0:
23,167,5980,2,0,B|29:210|29:210|32:214|32:214|39:271,1,97.5,2|0,1:2|0:0,0:0:0:0:
50,358,6355,2,2,P|132:359|104:280,1,195.00000743866,4|0,1:1|0:0,0:1:0:0:
459,21,6730,6,0,L|468:81,1,48.750001859665,6|0,1:2|0:0,0:0:0:0:
459,21,6917,2,0,L|468:81,1,48.750001859665,2|0,0:0|0:0,0:0:0:0:
324,115,7105,2,0,B|297:84|297:84|315:46,1,81.25,2|0,1:2|0:2,0:2:0:0:
420,146,7292,2,0,L|428:197,1,48.750001859665,2|0,0:2|0:2,0:2:0:0:
307,51,7480,2,0,B|290:87|290:87|317:118,1,81.25,2|0,1:2|0:2,0:2:0:0:
429,151,7667,2,0,L|436:199,1,48.750001859665,2|0,0:2|0:2,0:2:0:0:
300,309,7855,1,2,1:2:0:0:
300,309,8042,1,2,0:0:0:0:
311,224,8230,1,2,1:2:0:0:
327,223,8323,1,2,0:0:0:0:
340,228,8417,1,2,0:0:0:0:
352,239,8511,1,2,0:0:0:0:
396,252,8605,1,2,1:2:0:0:
404,265,8698,1,2,0:0:0:0:
407,279,8792,1,2,0:0:0:0:
417,358,8980,2,0,B|460:364|460:364|464:367|464:367|514:375,1,97.50000371933,2|2,1:2|0:0,0:0:0:0:
425,159,9355,2,0,B|380:144|361:188|365:191|372:193|352:235|309:223,1,146.250005578995,2|0,1:2|0:0,0:0:0:0:
313,216,9730,2,0,L|303:168,1,48.750001859665,2|0,1:2|0:0,0:0:0:0:
313,216,9917,2,0,L|303:168,1,48.750001859665,2|0,0:0|0:0,0:0:0:0:
480,250,10105,2,0,B|494:211|494:211|464:182,1,81.25,2|0,1:2|0:2,0:2:0:0:
360,285,10292,2,0,L|369:335,1,48.750001859665,2|0,0:2|0:2,0:2:0:0:
474,184,10480,2,0,B|502:212|502:212|487:250,1,81.25,2|0,1:2|0:2,0:2:0:0:
353,292,10667,2,0,L|362:339,1,48.750001859665,2|0,0:2|0:2,0:2:0:0:
325,116,10855,1,2,1:2:0:0:
325,116,11042,1,2,0:2:0:0:
446,370,11230,1,2,1:2:0:0:
509,350,11417,1,2,1:2:0:0:
358,198,11605,1,2,1:2:0:0:
295,218,11792,1,2,1:2:0:0:
490,84,11980,2,0,P|503:48|497:33,1,48.750001859665,2|2,1:1|0:2,0:2:0:0:
389,12,12167,2,0,P|373:54|380:70,1,65,0|2,1:2|0:2,0:2:0:0:
492,233,12355,2,0,P|500:190|514:143,1,81.25,2|2,1:1|0:2,0:2:0:0:
315,0,12542,2,0,P|305:52|289:111,1,97.50000371933,0|0,1:2|0:2,0:2:0:0:
0,374,12730,6,2,B|100:358|100:358|104:355|104:355|191:340,1,195,4|0,1:3|0:1,0:1:0:0:
198,347,12917,2,0,B|228:308|228:308|193:269,1,97.50000371933,2|0,0:0|0:0,0:0:0:0:
105,278,13105,1,2,0:0:0:0:
105,278,13292,1,2,0:0:0:0:
213,25,13480,1,10,0:1:0:0:
176,78,13573,1,2,0:0:0:0:
117,62,13667,1,2,0:0:0:0:
95,105,13761,1,2,0:0:0:0:
53,96,13855,1,2,0:0:0:0:
53,96,14042,1,2,0:0:0:0:
213,185,14230,2,0,B|225:163|225:163|221:135,1,48.750001859665,2|0,0:0|0:0,0:0:0:0:
203,184,14417,2,0,B|199:160|199:160|211:138,1,48.750001859665,2|0,0:0|0:0,0:0:0:0:
0,374,14605,2,2,B|72:358|72:358|92:320|92:320|180:302,1,195,4|0,1:3|0:0,0:1:0:0:
175,298,14792,2,0,B|215:331|215:331|195:375,1,97.50000371933,2|0,0:0|0:0,0:0:0:0:
52,153,14980,2,0,L|62:91,1,48.750001859665,10|0,0:1|0:0,0:0:0:0:
0,194,15167,1,2,0:0:0:0:
105,278,15355,1,2,0:0:0:0:
213,25,15542,1,8,0:3:0:0:
213,25,15636,1,8,0:3:0:0:
213,25,15730,2,2,B|197:125|197:125|194:129|194:129|179:216,1,195,4|0,1:3|0:1,0:1:0:0:
185,223,15917,1,2,0:0:0:0:
221,201,16011,1,2,0:0:0:0:
209,156,16105,1,2,0:0:0:0:
80,348,16292,1,2,0:0:0:0:
28,315,16386,1,2,0:0:0:0:
47,257,16480,1,10,0:1:0:0:
196,372,16667,1,2,0:0:0:0:
198,360,16761,1,2,0:0:0:0:
200,348,16855,1,2,0:0:0:0:
139,313,17042,1,10,3:1:0:0:
221,201,17230,1,2,0:0:0:0:
221,201,17417,1,2,0:0:0:0:
0,13,17605,2,2,B|65:27|65:27|84:89|84:89|149:102,1,195,4|0,1:3|0:0,0:1:0:0:
153,110,17792,2,0,B|193:76|193:76|170:31,1,97.50000371933,2|0,0:0|0:0,0:0:0:0:
0,194,17980,2,0,L|14:246,1,48.750001859665,10|0,0:1|0:0,0:0:0:0:
103,161,18167,1,2,0:0:0:0:
94,160,18261,1,2,0:0:0:0:
86,159,18355,1,2,0:0:0:0:
203,336,18542,1,2,0:0:0:0:
511,34,18730,6,2,B|494:24|494:24|314:56,1,195,4|0,1:3|0:0,0:1:0:0:
315,50,18917,2,0,B|288:97|288:97|328:132,1,97.50000371933,2|0,0:0|0:0,0:0:0:0:
458,115,19105,2,0,L|447:184,1,65,2|0,0:0|0:0,0:0:0:0:
458,115,19292,2,0,L|447:184,1,65,2|0,0:0|0:0,0:0:0:0:
346,375,19480,1,10,0:1:0:0:
383,322,19573,1,2,0:0:0:0:
442,338,19667,1,2,0:0:0:0:
464,295,19761,1,2,0:0:0:0:
506,304,19855,1,2,0:0:0:0:
506,304,20042,1,2,0:0:0:0:
357,190,20230,2,0,B|353:214|353:214|365:236,1,48.750001859665,2|0,0:0|0:0,0:0:0:0:
367,189,20418,2,0,B|379:211|379:211|375:239,1,48.750001859665,2|0,0:0|0:0,0:0:0:0:
511,34,20605,2,2,B|439:50|439:50|419:87|419:87|331:106,1,195,4|0,1:3|0:0,0:1:0:0:
335,111,20792,2,0,B|295:78|295:78|315:34,1,97.50000371933,2|0,0:0|0:0,0:0:0:0:
512,190,20980,2,0,L|503:254,1,48.750001859665,10|0,0:1|0:0,0:0:0:0:
480,129,21167,1,2,0:0:0:0:
367,189,21355,1,2,0:0:0:0:
483,380,21542,1,8,3:0:0:0:
483,380,21636,1,8,3:0:0:0:
483,380,21730,2,2,B|473:362|473:362|505:182,1,195,4|0,1:3|0:0,0:1:0:0:
512,190,21917,1,2,0:0:0:0:
512,154,22011,1,2,0:0:0:0:
480,129,22105,1,2,0:0:0:0:
343,255,22292,1,2,0:0:0:0:
288,225,22386,1,2,0:0:0:0:
303,166,22480,1,10,0:1:0:0:
313,366,22667,1,2,0:0:0:0:
377,335,22761,1,2,0:0:0:0:
441,303,22855,2,0,L|450:253,1,48.750001859665,2|0,0:0|3:0,0:0:0:0:
483,380,23042,1,10,3:1:0:0:
307,359,23230,1,2,0:0:0:0:
307,359,23417,1,2,0:0:0:0:
481,71,23605,2,2,B|416:85|416:85|397:147|397:147|332:160,1,195,4|0,1:3|0:0,0:1:0:0:
328,168,23792,2,0,B|288:134|288:134|311:89,1,97.50000371933,2|0,0:0|0:0,0:0:0:0:
506,1,23980,2,0,L|457:8,1,48.750001859665,10|0,0:1|0:0,0:0:0:0:
396,117,24167,1,2,0:0:0:0:
405,118,24261,1,2,0:0:0:0:
413,119,24355,1,2,0:2:0:0:
503,210,24542,1,2,0:0:0:0:
15,381,24730,5,4,1:3:0:0:
52,328,24823,1,2,0:0:0:0:
111,344,24917,1,2,0:0:0:0:
133,301,25011,1,2,0:0:0:0:
175,310,25105,1,2,0:0:0:0:
0,146,25292,1,2,0:2:0:0:
32,147,25385,1,2,0:0:0:0:
60,203,25479,1,10,0:1:0:0:
104,197,25573,1,2,0:0:0:0:
118,230,25667,1,2,0:0:0:0:
201,20,25855,1,2,0:2:0:0:
224,69,25948,1,2,0:0:0:0:
187,107,26042,1,2,0:0:0:0:
209,142,26136,1,2,0:0:0:0:
184,169,26230,1,2,0:0:0:0:
50,75,26417,2,0,B|29:53|29:53|42:19,1,65,2|2,1:2|0:0,0:0:0:0:
108,192,26605,1,4,1:3:0:0:
48,218,26698,1,2,0:0:0:0:
14,275,26792,1,2,0:0:0:0:
117,48,26980,2,0,L|126:-4,1,48.750001859665,10|0,0:1|0:0,0:0:0:0:
122,53,27355,1,2,0:0:0:0:
18,142,27542,1,2,1:2:0:0:
296,375,27730,5,4,1:3:0:0:
349,338,27823,1,2,0:0:0:0:
333,279,27917,1,2,0:0:0:0:
376,257,28011,1,2,0:0:0:0:
367,215,28105,1,2,0:2:0:0:
222,378,28292,5,4,1:3:0:0:
169,341,28385,1,2,0:0:0:0:
185,282,28479,1,10,0:1:0:0:
142,260,28573,1,2,0:0:0:0:
151,218,28667,1,2,0:0:0:0:
298,154,28855,5,4,1:3:0:0:
362,148,28948,1,2,0:0:0:0:
378,89,29042,1,10,0:1:0:0:
426,91,29136,1,2,0:0:0:0:
439,50,29230,1,2,0:2:0:0:
214,154,29417,5,2,1:2:0:0:
150,148,29510,1,2,0:0:0:0:
134,89,29604,1,4,1:3:0:0:
86,91,29698,1,2,0:0:0:0:
73,50,29792,1,2,0:0:0:0:
296,326,29980,6,0,L|296:387,1,48.750001859665,10|0,0:1|0:0,0:0:0:0:
296,326,30355,1,2,0:0:0:0:
404,233,30542,1,2,1:2:0:0:
10,60,30730,6,0,B|32:67|46:110|46:110|43:65|68:42,1,130,4|0,1:3|0:0,0:0:0:0:
135,100,30917,1,2,0:0:0:0:
75,77,31011,1,2,0:0:0:0:
15,54,31105,1,2,0:0:0:0:
212,118,31292,1,2,0:0:0:0:
0,277,31480,1,10,0:1:0:0:
50,237,31574,1,2,0:0:0:0:
100,197,31668,1,2,0:2:0:0:
178,319,31855,1,2,0:0:0:0:
13,129,32042,1,2,0:0:0:0:
25,133,32136,1,2,0:0:0:0:
37,137,32230,1,2,0:0:0:0:
143,96,32417,2,0,B|182:128|182:128|160:171,1,97.50000371933,2|0,1:2|0:0,0:0:0:0:
188,383,32605,1,4,1:3:0:0:
178,319,32699,1,2,0:0:0:0:
168,256,32793,1,2,0:2:0:0:
2,371,32980,2,0,L|66:358,1,48.750001859665,10|0,0:1|0:0,0:0:0:0:
10,378,33355,1,2,0:0:0:0:
38,260,33542,1,2,1:2:0:0:
469,324,33730,6,0,B|447:331|433:374|433:374|436:329|411:306,1,130,4|0,1:3|0:0,0:0:0:0:
298,378,33917,1,2,0:2:0:0:
334,322,34010,1,2,0:0:0:0:
405,308,34104,1,2,0:2:0:0:
149,175,34292,5,2,0:0:0:0:
214,378,34480,1,10,0:1:0:0:
178,322,34573,1,2,0:0:0:0:
107,308,34667,1,2,0:2:0:0:
422,106,34855,6,0,B|460:134|460:134|444:181,1,97.50000371933,4|0,1:3|0:0,0:0:0:0:
405,308,35042,1,10,0:1:0:0:
385,239,35136,1,2,0:0:0:0:
367,166,35230,1,2,0:0:0:0:
90,106,35417,5,2,1:2:0:0:
107,308,35605,1,4,1:3:0:0:
127,239,35699,1,2,0:0:0:0:
145,166,35793,1,2,0:0:0:0:
304,379,35980,6,0,B|303:337|303:337|306:332|306:332|305:283,1,97.50000371933,10|0,0:1|0:0,0:0:0:0:
385,239,36167,2,0,B|417:275|417:275|379:322,1,97.50000371933,4|2,1:3|0:0,0:0:0:0:
9,14,36730,6,0,L|21:83,1,65,6|0,1:2|0:0,0:0:0:0:
9,14,36917,2,0,L|21:83,1,65,2|0,0:0|0:0,0:0:0:0:
96,127,37105,2,0,B|128:93|128:93|105:49,1,90.9999972229005,2|0,1:2|0:0,0:0:0:0:
0,146,37292,2,0,L|14:223,1,65,2|0,0:0|0:0,0:0:0:0:
175,244,37480,2,0,B|185:198|185:198|148:174,1,90.9999972229005,10|0,0:1|0:0,0:0:0:0:
8,150,37667,2,0,L|22:227,1,65,2|0,0:0|0:0,0:0:0:0:
156,176,37855,1,2,1:2:0:0:
164,174,37948,1,0,0:3:0:0:
171,169,38042,1,2,0:2:0:0:
171,160,38136,1,2,0:2:0:0:
168,149,38230,1,2,1:2:0:0:
125,174,38323,1,2,1:2:0:0:
119,221,38417,1,2,1:2:0:0:
139,264,38511,1,2,1:2:0:0:
79,287,38605,1,2,1:2:0:0:
79,336,38698,1,2,1:2:0:0:
116,365,38792,1,2,1:2:0:0:
164,369,38886,1,2,1:2:0:0:
107,370,38980,1,10,0:1:0:0:
107,370,39355,1,2,1:2:0:0:
175,15,39730,2,0,L|163:84,1,65,2|0,1:2|0:0,0:0:0:0:
175,15,39917,2,0,L|163:84,1,65,2|0,0:0|0:0,0:0:0:0:
44,126,40105,2,0,P|16:94|37:50,1,90.9999972229005,2|0,1:2|0:0,0:0:0:0:
175,161,40292,2,0,B|169:190|169:190|171:194|171:194|161:237,1,65,2|0,0:0|0:0,0:0:0:0:
0,259,40480,2,0,B|-10:213|-10:213|27:189,1,90.9999972229005,10|0,0:1|0:0,0:0:0:0:
167,165,40667,2,0,L|153:242,1,65,2|0,0:0|0:0,0:0:0:0:
202,303,40855,1,2,1:2:0:0:
107,17,41042,1,10,0:1:0:0:
44,126,41230,1,2,1:2:0:0:
81,143,41323,1,0,1:0:0:0:
93,184,41417,1,2,1:2:0:0:
83,220,41511,1,0,1:0:0:0:
103,286,41605,1,2,1:2:0:0:
85,322,41698,1,0,1:0:0:0:
44,334,41792,1,2,1:2:0:0:
9,324,41886,1,0,1:0:0:0:
61,376,41980,1,10,0:1:0:0:
61,376,42355,2,2,B|96:347|86:289|86:289|103:347|157:363,1,195.00000743866,6|0,0:1|0:1,0:1:0:0:
484,19,42730,6,0,B|498:50|498:50|478:78,1,65,6|0,1:2|0:0,0:0:0:0:
423,142,42917,2,0,L|358:131,1,65,2|0,0:0|0:0,0:0:0:0:
299,269,43105,1,6,1:2:0:0:
362,258,43198,1,0,1:0:0:0:
425,247,43292,1,2,1:2:0:0:
484,365,43480,2,0,B|498:333|498:333|478:305,1,65,6|0,1:2|0:0,0:0:0:0:
466,193,43667,1,2,0:0:0:0:
484,19,43855,2,0,B|498:50|498:50|478:78,1,65,6|0,1:2|0:0,0:0:0:0:
466,193,44042,1,2,0:0:0:0:
415,55,44230,1,6,1:2:0:0:
373,61,44323,1,2,1:2:0:0:
332,68,44417,1,2,1:2:0:0:
291,75,44511,1,2,1:2:0:0:
322,130,44605,1,6,1:2:0:0:
328,171,44698,1,2,1:2:0:0:
334,212,44792,1,2,1:2:0:0:
341,253,44886,1,2,1:2:0:0:
395,219,44980,1,6,1:2:0:0:
395,219,45355,1,6,1:2:0:0:
484,19,45730,2,0,B|498:50|498:50|478:78,1,65,6|0,1:2|0:0,0:0:0:0:
473,192,45917,1,2,0:0:0:0:
484,365,46105,2,0,B|498:334|498:334|478:306,1,65,6|0,1:2|0:0,0:0:0:0:
473,192,46292,1,2,0:0:0:0:
484,19,46480,2,0,B|498:50|498:50|478:78,1,65,6|0,1:2|0:0,0:0:0:0:
473,192,46667,1,2,0:0:0:0:
484,365,46855,2,0,B|498:334|498:334|478:306,1,65,6|0,1:2|0:0,0:0:0:0:
421,253,47042,2,0,B|390:258|390:258|389:262|389:262|357:268,1,65,8|0,0:1|0:0,0:0:0:0:
289,184,47230,1,6,1:2:0:0:
332,175,47323,1,0,1:2:0:0:
376,167,47417,1,2,1:2:0:0:
420,158,47511,1,0,1:2:0:0:
473,192,47605,1,6,1:2:0:0:
465,148,47698,1,0,1:2:0:0:
457,104,47792,1,2,1:2:0:0:
448,61,47886,1,0,1:2:0:0:
488,14,47980,1,6,1:2:0:0:
488,14,48355,1,6,1:2:0:0:
17,330,48730,5,4,1:3:0:0:
55,274,48823,1,2,0:0:0:0:
111,313,48917,1,2,0:0:0:0:
71,368,49011,1,2,0:0:0:0:
7,332,49105,1,2,0:0:0:0:
205,183,49292,1,2,0:0:0:0:
215,185,49386,1,2,0:0:0:0:
151,221,49480,1,10,0:1:0:0:
111,166,49574,1,2,0:0:0:0:
167,127,49668,1,2,0:0:0:0:
0,73,49855,2,2,B|27:54|24:17|24:17|32:54|69:66,1,130,4|0,0:1|0:0,0:1:0:0:
193,60,50230,2,0,B|202:39|202:39|199:12,1,48.750001859665,2|0,0:0|0:0,0:0:0:0:
187,11,50417,2,0,B|177:31|177:31|180:58,1,48.750001859665,2|0,0:0|0:0,0:0:0:0:
11,264,50605,2,2,B|73:253|73:253|119:306|119:306|182:295,1,195,4|0,1:3|0:0,0:1:0:0:
182,288,50792,2,0,B|220:323|220:323|204:368,1,97.50000371933,2|0,0:0|0:0,0:0:0:0:
23,191,50980,2,0,L|33:136,1,48.750001859665,10|0,0:1|0:0,0:0:0:0:
47,336,51167,1,2,0:0:0:0:
215,185,51355,1,2,0:2:0:0:
199,187,51448,1,2,0:2:0:0:
184,189,51542,1,2,0:0:0:0:
31,15,51730,2,2,B|47:115|47:115|50:119|50:119|65:206,1,195,4|0,1:3|0:1,0:1:0:0:
59,213,51917,1,2,0:0:0:0:
23,191,52011,1,2,0:0:0:0:
31,143,52105,1,2,0:0:0:0:
103,374,52292,1,2,0:0:0:0:
155,341,52386,1,2,0:0:0:0:
136,283,52480,1,10,0:1:0:0:
209,89,52667,1,2,0:0:0:0:
207,101,52761,1,2,0:0:0:0:
205,113,52855,1,2,0:0:0:0:
9,268,53042,1,10,3:1:0:0:
155,341,53230,1,2,0:0:0:0:
155,341,53417,1,2,0:0:0:0:
205,113,53605,2,2,B|140:127|140:127|121:189|121:189|56:202,1,195,4|0,1:3|0:0,0:1:0:0:
52,210,53792,2,0,B|12:176|12:176|35:131,1,97.50000371933,2|0,0:0|0:0,0:0:0:0:
199,250,53980,2,0,L|212:305,1,48.750001859665,10|0,0:1|0:0,0:0:0:0:
89,81,54167,1,2,0:0:0:0:
80,80,54261,1,2,0:0:0:0:
72,79,54355,1,2,0:0:0:0:
187,12,54542,1,2,0:0:0:0:
489,337,54730,5,4,1:3:0:0:
448,285,54823,1,2,0:0:0:0:
395,326,54917,1,2,0:0:0:0:
331,306,55011,1,2,0:0:0:0:
311,369,55104,1,2,0:0:0:0:
380,201,55292,1,2,0:0:0:0:
396,159,55385,1,2,0:0:0:0:
326,156,55479,1,10,0:1:0:0:
333,88,55573,1,2,0:0:0:0:
290,97,55666,1,2,0:0:0:0:
471,73,55855,2,0,P|478:16|421:20,1,130,2|0,0:0|0:0,0:0:0:0:
487,188,56230,2,0,B|490:162|490:162|480:141,1,48.750001859665,2|0,0:0|0:0,0:0:0:0:
467,144,56417,2,0,B|463:169|463:169|473:190,1,48.750001859665,2|0,0:0|0:0,0:0:0:0:
479,350,56605,2,2,B|412:279|412:279|374:370,1,195,4|0,1:3|0:0,0:1:0:0:
371,362,56792,2,0,B|319:370|319:370|309:315,1,97.50000371933,2|0,0:0|0:0,0:0:0:0:
467,144,56980,2,0,L|519:151,1,48.750001859665,10|0,0:1|0:0,0:0:0:0:
403,84,57167,1,2,0:0:0:0:
326,156,57355,1,2,0:0:0:0:
289,20,57542,1,2,0:0:0:0:
480,384,57730,2,2,B|470:366|470:366|502:186,1,195,4|0,1:3|0:0,0:1:0:0:
509,194,57917,1,2,0:0:0:0:
506,156,58011,1,2,0:0:0:0:
467,144,58105,1,2,0:0:0:0:
310,325,58292,1,2,0:0:0:0:
340,270,58386,1,2,0:0:0:0:
399,285,58480,1,10,0:1:0:0:
326,156,58667,1,2,0:0:0:0:
372,109,58761,1,2,0:0:0:0:
333,58,58855,2,0,L|315:-7,1,48.750001859665,2|0,0:0|3:0,0:0:0:0:
408,8,59042,1,10,3:1:0:0:
326,156,59230,1,2,0:0:0:0:
509,194,59417,1,2,0:0:0:0:
417,383,59605,2,2,B|487:316|487:316|396:278,1,195,4|0,1:3|0:0,0:1:0:0:
393,270,59792,2,0,B|353:253|353:253|376:196,1,97.50000371933,2|0,0:0|0:0,0:0:0:0:
501,49,59980,2,0,L|489:0,1,48.750001859665,10|0,0:1|0:0,0:0:0:0:
423,155,60167,1,2,0:0:0:0:
431,157,60261,1,2,0:0:0:0:
439,159,60355,1,2,0:2:0:0:
301,58,60542,1,2,0:0:0:0:
14,365,60730,6,2,B|80:353|80:353|101:294|101:294|166:284,1,195,4|0,1:3|0:0,0:1:0:0:
173,278,60917,2,0,B|215:310|215:310|197:353,1,97.50000371933,2|0,0:0|0:0,0:0:0:0:
14,235,61105,1,2,0:0:0:0:
14,235,61292,1,2,0:0:0:0:
217,23,61480,1,10,0:1:0:0:
176,77,61573,1,2,0:0:0:0:
114,62,61667,1,2,0:0:0:0:
85,108,61761,1,2,0:0:0:0:
42,101,61855,1,2,0:0:0:0:
42,101,62042,1,2,0:0:0:0:
166,154,62230,2,0,P|197:147|222:144,1,48.750001859665,2|0,0:0|0:0,0:0:0:0:
47,88,62417,2,0,P|16:95|-9:98,1,48.750001859665,0|0,1:2|0:0,0:0:0:0:
121,384,62605,2,2,B|105:291|105:291|108:288|108:288|91:185,1,195,4|0,1:3|0:0,0:1:0:0:
96,186,62792,2,0,B|50:163|50:163|10:201,1,97.50000371933
130,374,62980,2,0,L|184:365,1,48.750001859665,10|0,0:1|0:0,0:0:0:0:
185,31,63167,2,0,P|206:40|216:78,1,65,2|0,0:0|0:0,0:0:0:0:
213,144,63355,2,0,P|194:157|156:147,1,65,2|0,0:0|0:0,0:0:0:0:
1,6,63542,1,8,3:0:0:0:
1,6,63636,1,8,3:0:0:0:
1,6,63730,2,2,B|24:202,1,195,4|0,1:3|0:0,0:1:0:0:
16,194,63917,1,2,0:0:0:0:
36,146,64011,1,2,0:0:0:0:
47,96,64105,1,2,0:0:0:0:
178,365,64292,1,4,1:3:0:0:
164,297,64386,1,2,0:0:0:0:
150,229,64480,1,10,0:1:0:0:
221,38,64667,1,2,0:0:0:0:
209,36,64761,1,2,0:0:0:0:
197,34,64855,1,4,1:3:0:0:
100,84,65042,1,10,3:1:0:0:
194,136,65230,2,0,P|162:143|143:156,1,48.750001859665,2|0,0:0|0:0,0:0:0:0:
0,117,65417,2,0,P|25:142|44:146,1,48.750001859665,2|0,1:2|0:0,0:0:0:0:
48,384,65605,2,2,B|83:186,1,195,4|0,1:3|0:0,0:1:0:0:
90,186,65792,2,0,B|135:193|135:193|137:197|137:197|189:206,1,97.50000371933,2|0,0:0|0:0,0:0:0:0:
51,16,65980,2,0,L|4:25,1,48.750001859665,10|0,0:1|0:0,0:0:0:0:
159,295,66167,1,2,0:0:0:0:
215,261,66261,1,2,0:0:0:0:
190,199,66355,1,2,0:0:0:0:
48,384,66542,1,2,1:2:0:0:
491,27,66730,6,2,B|466:123|466:123|416:41,1,195,4|0,1:3|0:0,0:1:0:0:
406,39,66917,2,0,B|364:70|364:70|385:113,1,97.50000371933,2|0,0:0|0:0,0:0:0:0:
486,210,67105,1,2,0:0:0:0:
486,210,67292,1,2,0:0:0:0:
299,369,67480,1,10,0:1:0:0:
340,315,67573,1,2,0:0:0:0:
402,330,67667,1,2,0:0:0:0:
431,284,67761,1,2,0:0:0:0:
474,291,67855,1,2,0:0:0:0:
474,291,68042,1,2,0:0:0:0:
312,214,68230,2,0,P|297:236|298:266,1,48.750001859665,2|0,0:0|0:0,0:0:0:0:
398,377,68417,2,0,P|413:355|412:325,1,48.750001859665,2|0,1:2|0:0,0:0:0:0:
293,61,68605,2,2,B|359:73|359:73|380:132|380:132|445:142,1,195,4|0,1:3|0:0,0:1:0:0:
451,150,68792,2,0,B|493:118|493:118|475:75,1,97.50000371933,2|0,0:0|0:0,0:0:0:0:
308,0,68980,2,0,L|361:10,1,48.750001859665,10|0,0:1|0:0,0:0:0:0:
468,273,69167,2,0,P|486:244|474:214,1,65,2|0,0:0|0:0,0:0:0:0:
411,206,69355,2,0,P|392:234|404:264,1,65,2|0,0:0|0:0,0:0:0:0:
320,384,69542,1,8,3:0:0:0:
320,384,69636,1,8,3:0:0:0:
320,384,69730,2,2,B|305:295|305:295|307:289|307:289|289:190,1,195,4|0,1:3|0:0,0:1:0:0:
283,190,69917,1,2,0:0:0:0:
283,226,70011,1,2,0:0:0:0:
315,251,70105,1,2,0:0:0:0:
460,13,70292,1,2,0:0:0:0:
405,63,70386,1,2,0:0:0:0:
445,127,70480,1,10,0:1:0:0:
487,370,70667,1,2,0:0:0:0:
416,332,70761,1,2,0:0:0:0:
468,273,70855,2,0,L|477:223,1,48.750001859665,4|0,1:3|3:0,0:0:0:0:
495,367,71042,1,10,3:1:0:0:
332,384,71230,2,0,P|305:357|303:343,1,48.750001859665,2|0,0:0|0:0,0:0:0:0:
378,294,71417,2,0,P|405:321|407:335,1,48.750001859665,2|0,1:2|0:0,0:0:0:0:
311,97,71605,2,2,B|287:188|287:188|394:214,1,195,4|0,1:3|0:0,0:1:0:0:
390,219,71792,2,0,B|433:188|433:188|408:138,1,97.50000371933,2|0,0:0|0:0,0:0:0:0:
496,15,71980,2,0,L|481:74,1,48.750001859665,10|0,0:1|0:0,0:0:0:0:
292,3,72167,1,4,1:3:0:0:
348,39,72261,1,2,0:0:0:0:
311,97,72355,1,2,0:0:0:0:
504,206,72542,1,2,1:2:0:0:
105,373,72730,6,0,L|114:314,1,48.750001859665,6|0,1:2|0:0,0:0:0:0:
105,373,72917,2,0,L|114:314,1,48.750001859665,2|0,0:0|0:0,0:0:0:0:
161,244,73105,2,0,B|135:214|135:214|95:235,1,81.25,2|0,1:2|0:0,0:0:0:0:
18,282,73292,2,0,L|16:341,1,48.750001859665,2|0,0:2|0:0,0:0:0:0:
99,224,73480,2,0,B|135:204|135:204|161:234,1,81.25,2|0,1:2|0:0,0:0:0:0:
23,332,73667,2,0,L|25:284,1,48.750001859665,2|0,0:2|0:0,0:0:0:0:
182,315,73855,1,2,1:2:0:0:
40,174,74042,1,2,0:0:0:0:
30,178,74136,1,2,0:0:0:0:
22,181,74230,1,2,1:2:0:0:
4,156,74323,1,2,0:0:0:0:
10,126,74417,1,2,0:0:0:0:
33,106,74511,1,2,0:0:0:0:
63,107,74605,1,2,1:2:0:0:
78,162,74698,1,2,0:0:0:0:
91,219,74792,1,2,0:0:0:0:
154,33,74980,2,0,P|218:44|188:100,1,146.250005578995,2|0,1:2|0:0,0:0:0:0:
185,100,75355,2,0,P|145:77|154:33,1,97.50000371933,2|0,1:2|0:0,0:0:0:0:
102,373,75730,2,0,L|93:314,1,48.750001859665,2|0,1:2|0:0,0:0:0:0:
102,373,75917,2,0,L|93:314,1,48.750001859665,2|0,0:0|0:0,0:0:0:0:
51,259,76105,2,0,B|77:229|77:229|117:250,1,81.25,2|0,1:2|0:0,0:0:0:0:
187,290,76292,2,0,L|178:351,1,48.750001859665,2|0,0:2|0:0,0:0:0:0:
113,239,76480,2,0,B|77:219|77:219|51:249,1,81.25,2|0,1:2|0:0,0:0:0:0:
187,340,76667,2,0,L|196:293,1,48.750001859665,2|0,0:2|0:0,0:0:0:0:
218,155,76855,2,0,B|174:160|174:160|170:157|170:157|122:164,1,97.5,2|0,1:2|0:0,0:0:0:0:
20,170,77230,2,0,B|10:149|10:149|26:128,1,48.750001859665,2|0,1:2|0:0,0:0:0:0:
106,66,77417,1,2,0:0:0:0:
218,155,77605,1,2,1:2:0:0:
50,241,77792,1,2,0:0:0:0:
196,90,77980,2,0,L|180:244,1,146.250005578995,2|0,1:2|0:0,0:0:0:0:
94,289,78355,2,0,B|141:275|201:311|189:390|189:390|183:350|150:338,1,227.500002169609,4|0,1:1|0:0,0:0:0:0:
494,36,78730,6,0,L|442:44,1,48.750001859665,6|0,1:2|0:0,0:0:0:0:
494,36,78917,2,0,L|442:44,1,48.750001859665,2|0,0:0|0:0,0:0:0:0:
372,18,79105,2,0,B|366:49|366:49|369:53|369:53|359:97,1,81.25,2|0,1:2|0:0,0:0:0:0:
505,128,79292,2,0,L|457:136,1,48.750001859665,2|0,0:0|0:0,0:0:0:0:
351,99,79480,2,0,B|361:55|361:55|358:51|358:51|364:20,1,81.25,2|0,1:2|0:0,0:0:0:0:
458,127,79667,2,0,L|506:119,1,48.750001859665,2|0,0:0|0:0,0:0:0:0:
328,165,79855,1,2,1:2:0:0:
328,165,80042,1,2,0:0:0:0:
505,330,80230,1,2,1:2:0:0:
478,327,80323,1,2,0:0:0:0:
457,335,80417,1,2,0:0:0:0:
438,353,80511,1,2,0:0:0:0:
431,376,80605,1,2,1:2:0:0:
404,318,80698,1,2,0:0:0:0:
340,329,80792,1,2,0:0:0:0:
464,169,80980,2,0,B|500:203|500:203|476:248,1,97.50000371933,2|0,1:2|0:0,0:0:0:0:
296,187,81355,2,0,L|327:41,1,146.250005578995,2|0,1:2|0:0,0:0:0:0:
336,39,81730,2,0,L|393:50,1,48.750001859665,2|0,1:2|0:0,0:0:0:0:
336,39,81917,2,0,L|393:50,1,48.750001859665,2|0,0:2|0:0,0:0:0:0:
512,94,82105,2,0,B|480:99|480:99|477:97|477:97|432:106,1,81.25,2|0,1:2|0:0,0:0:0:0:
384,194,82292,2,0,L|391:242,1,48.750001859665,2|0,0:0|0:0,0:0:0:0:
430,115,82480,2,0,B|474:105|474:105|477:107|477:107|509:102,1,81.25,2|0,1:2|0:0,0:0:0:0:
383,241,82667,2,0,L|375:192,1,48.750001859665,2|0,0:0|0:0,0:0:0:0:
286,115,82855,1,2,1:2:0:0:
286,115,83042,1,2,0:0:0:0:
506,375,83230,2,0,B|476:370|476:370|454:344|454:344|416:337,1,97.50000371933,2|2,0:0|0:0,0:0:0:0:
298,278,83605,2,0,B|328:273|328:273|350:247|350:247|382:241,1,97.50000371933,2|2,0:0|0:0,0:0:0:0:
416,330,83980,2,0,L|440:173,1,146.250005578995,2|0,0:0|0:0,0:0:0:0:
497,156,84355,2,0,P|492:78|404:103,1,195.00000743866,2|0,0:0|0:0,0:0:0:0:
