osu file format v14

[General]
AudioFilename: audio.mp3
AudioLeadIn: 0
PreviewTime: 730
Countdown: 0
SampleSet: Soft
StackLeniency: 0.4
Mode: 0
LetterboxInBreaks: 0
WidescreenStoryboard: 1

[Editor]
Bookmarks: 730,6730,12730,18730,24730,27730,30730,33730,36730,42730,48730,54730,60730,66730,72730,78730,84730
DistanceSpacing: 0.7
BeatDivisor: 4
GridSize: 32
TimelineZoom: 1.7

[Metadata]
Title:Ugh
TitleUnicode:Ugh
Artist:Kawai Sprite
ArtistUnicode:Kawai Sprite
Creator:Altai
Version:Insane
Source:Friday Night Funkin'
Tags:ughh uggh agh tag tag2 two Boyfriend Boy friend Tankman Tank Man FNF kieg enri Heatwave -_Heatwave_- undeadphoneguy OST Original Soundtrack vol 2 two v2 VideoGame Video Game VGM Instrumental Newgrounds Electronic ninjamuffin99 PhantomArcade evilsk8r
BeatmapID:3107332
BeatmapSetID:1514399

[Difficulty]
HPDrainRate:5
CircleSize:4.8
OverallDifficulty:8
ApproachRate:9
SliderMultiplier:2.1
SliderTickRate:1

[Events]
//Background and Video events
0,0,"luiz-felipe-bozzi-da-silva-funkinfanart.jpg",0,0
//Break Periods
//Storyboard Layer 0 (Background)
//Storyboard Layer 1 (Fail)
//Storyboard Layer 2 (Pass)
//Storyboard Layer 3 (Foreground)
//Storyboard Layer 4 (Overlay)
//Storyboard Sound Samples

[TimingPoints]
730,375,4,2,1,50,1,0
730,-133.333333333333,4,2,1,50,0,0
3261,-133.333333333333,4,2,1,5,0,0
3355,-133.333333333333,4,2,1,50,0,0
5136,-133.333333333333,4,2,1,5,0,0
5230,-133.333333333333,4,2,1,50,0,0
6261,-133.333333333333,4,2,1,5,0,0
6355,-133.333333333333,4,2,1,50,0,0
9261,-133.333333333333,4,2,1,5,0,0
9355,-133.333333333333,4,2,1,50,0,0
9636,-133.333333333333,4,2,1,5,0,0
9730,-133.333333333333,4,2,1,50,0,0
12167,-133.333333333333,4,2,1,55,0,0
12355,-133.333333333333,4,2,1,60,0,0
12542,-133.333333333333,4,2,1,65,0,0
12730,-66.6666666666667,4,2,1,70,0,0
12870,-66.6666666666667,4,2,1,5,0,0
12917,-66.6666666666667,4,2,1,70,0,0
13855,-100,4,2,1,70,0,0
14605,-66.6666666666667,4,2,1,70,0,0
14745,-66.6666666666667,4,2,1,5,0,0
14792,-66.6666666666667,4,2,1,70,0,0
15355,-100,4,2,1,70,0,0
15730,-66.6666666666667,4,2,1,70,0,0
15870,-66.6666666666667,4,2,1,5,0,0
15917,-66.6666666666667,4,2,1,70,0,0
17230,-100,4,2,1,70,0,0
17605,-66.6666666666667,4,2,1,70,0,0
17745,-66.6666666666667,4,2,1,5,0,0
17792,-66.6666666666667,4,2,1,70,0,0
17980,-100,4,2,1,70,0,0
18730,-66.6666666666667,4,2,1,70,0,0
18870,-66.6666666666667,4,2,1,5,0,0
18917,-66.6666666666667,4,2,1,70,0,0
19855,-100,4,2,1,70,0,0
20605,-66.6666666666667,4,2,1,70,0,0
20745,-66.6666666666667,4,2,1,5,0,0
20792,-66.6666666666667,4,2,1,70,0,0
21355,-100,4,2,1,70,0,0
21730,-66.6666666666667,4,2,1,70,0,0
21870,-66.6666666666667,4,2,1,5,0,0
21917,-66.6666666666667,4,2,1,70,0,0
23230,-100,4,2,1,70,0,0
23605,-66.6666666666667,4,2,1,70,0,0
23980,-100,4,2,1,70,0,0
24730,-100,4,2,1,75,0,0
27261,-100,4,2,1,5,0,0
27355,-100,4,2,1,75,0,0
27730,-83.3333333333333,4,2,1,75,0,1
29980,-133.333333333333,4,2,1,75,0,1
30261,-133.333333333333,4,2,1,5,0,1
30355,-133.333333333333,4,2,1,75,0,1
30730,-100,4,2,1,75,0,0
33261,-100,4,2,1,5,0,0
33355,-100,4,2,1,75,0,0
33730,-100,4,2,1,75,0,1
36730,-111.111111111111,4,2,1,60,0,0
39261,-111.111111111111,4,2,1,5,0,0
39355,-111.111111111111,4,2,1,60,0,0
42261,-111.111111111111,4,2,1,5,0,0
42355,-111.111111111111,4,2,1,60,0,0
42730,-100,4,2,1,60,0,0
48261,-100,4,2,1,5,0,0
48355,-100,4,2,1,60,0,0
48730,-100,4,2,1,70,0,0
50605,-66.6666666666667,4,2,1,70,0,0
50745,-66.6666666666667,4,2,1,5,0,0
50792,-66.6666666666667,4,2,1,70,0,0
50980,-100,4,2,1,70,0,0
51355,-100,4,2,2,70,0,0
51542,-100,4,2,1,70,0,0
51730,-66.6666666666667,4,2,1,70,0,0
51870,-66.6666666666667,4,2,1,5,0,0
51917,-66.6666666666667,4,2,1,70,0,0
53230,-100,4,2,1,70,0,0
53605,-66.6666666666667,4,2,1,70,0,0
53745,-66.6666666666667,4,2,1,5,0,0
53792,-66.6666666666667,4,2,1,70,0,0
53980,-100,4,2,1,70,0,0
56605,-66.6666666666667,4,2,1,70,0,0
56745,-66.6666666666667,4,2,1,5,0,0
56792,-66.6666666666667,4,2,1,70,0,0
56980,-100,4,2,1,70,0,0
57730,-66.6666666666667,4,2,1,70,0,0
57870,-66.6666666666667,4,2,1,5,0,0
57917,-66.6666666666667,4,2,1,70,0,0
59230,-100,4,2,1,70,0,0
59605,-66.6666666666667,4,2,1,70,0,0
59745,-66.6666666666667,4,2,1,5,0,0
59792,-66.6666666666667,4,2,1,70,0,0
59980,-100,4,2,1,70,0,0
60730,-66.6666666666667,4,2,1,70,0,0
60870,-66.6666666666667,4,2,1,5,0,0
60917,-66.6666666666667,4,2,1,70,0,0
61855,-100,4,2,1,70,0,0
62605,-66.6666666666667,4,2,1,70,0,0
62745,-66.6666666666667,4,2,1,5,0,0
62792,-66.6666666666667,4,2,1,70,0,0
62980,-100,4,2,1,70,0,0
63730,-66.6666666666667,4,2,1,70,0,0
63870,-66.6666666666667,4,2,1,5,0,0
63917,-66.6666666666667,4,2,1,70,0,0
65230,-100,4,2,1,70,0,0
65605,-66.6666666666667,4,2,1,70,0,0
65745,-66.6666666666667,4,2,1,5,0,0
65792,-66.6666666666667,4,2,1,70,0,0
65980,-100,4,2,1,70,0,0
66730,-66.6666666666667,4,2,1,70,0,0
66870,-66.6666666666667,4,2,1,5,0,0
66917,-66.6666666666667,4,2,1,70,0,0
67480,-100,4,2,1,70,0,0
68605,-66.6666666666667,4,2,1,70,0,0
68745,-66.6666666666667,4,2,1,5,0,0
68792,-66.6666666666667,4,2,1,70,0,0
68980,-100,4,2,1,70,0,0
69730,-66.6666666666667,4,2,1,70,0,0
69870,-66.6666666666667,4,2,1,5,0,0
69917,-66.6666666666667,4,2,1,70,0,0
71605,-100,4,2,1,70,0,0
71745,-100,4,2,1,5,0,0
71792,-100,4,2,1,70,0,0
72730,-125,4,2,1,50,0,0
75261,-125,4,2,1,5,0,0
75355,-125,4,2,1,50,0,0
78261,-125,4,2,1,5,0,0
78355,-125,4,2,1,50,0,0
81261,-125,4,2,1,5,0,0
81355,-125,4,2,1,50,0,0
81636,-125,4,2,1,5,0,0
81730,-125,4,2,1,50,0,0
83136,-125,4,2,1,5,0,0
83230,-125,4,2,1,45,0,0
84261,-125,4,2,1,5,0,0
84355,-125,4,2,1,45,0,0
84730,-125,4,2,1,15,0,0

[Colours]
Combo1 : 74,210,255
Combo2 : 34,84,255

[HitObjects]
16,363,730,5,6,1:2:0:0:
16,363,917,1,2,0:2:0:0:
84,313,1105,2,0,L|93:269,1,39.3750015020371,2|0,1:2|0:2,0:2:0:0:
90,265,1292,1,2,0:2:0:0:
164,323,1480,2,0,L|155:367,1,39.3750015020371,2|0,1:2|0:2,0:2:0:0:
151,367,1667,1,2,0:2:0:0:
220,274,1855,1,2,1:2:0:0:
163,199,2042,1,2,0:2:0:0:
170,192,2136,1,2,0:2:0:0:
177,187,2230,2,0,L|187:139,3,39.3750015020371,2|2|2|2,1:2|0:2|0:2|0:2,0:2:0:0:
200,82,2605,2,0,L|210:34,2,39.3750015020371,2|2|2,1:2|0:2|0:2,0:0:0:0:
113,113,2980,2,0,P|56:85|76:40,1,118.125004506111,2|0,1:2|0:0,0:0:0:0:
78,48,3355,1,2,1:2:0:0:
31,236,3730,1,2,1:2:0:0:
31,236,3917,1,2,0:2:0:0:
80,288,4105,2,0,L|119:279,1,39.3750015020371,2|0,1:2|0:2,0:2:0:0:
121,272,4292,1,2,0:2:0:0:
57,356,4480,2,0,L|18:347,1,39.3750015020371,2|0,1:2|0:2,0:2:0:0:
15,339,4667,1,2,0:2:0:0:
141,377,4855,2,0,P|184:362|218:354,1,78.7500030040742,2|0,1:2|0:0,0:0:0:0:
98,201,5230,1,2,1:2:0:0:
183,239,5417,2,0,P|216:209|211:176,2,78.7500030040742,2|2|2,0:0|1:2|0:0,0:0:0:0:
104,193,5980,2,0,P|95:134|87:70,1,118.125004506111,2|0,1:2|0:0,0:0:0:0:
93,67,6355,2,2,P|142:58|161:86,1,78.7500030040742,4|0,1:1|0:0,0:1:0:0:
298,19,6730,5,6,1:2:0:0:
298,19,6917,1,2,0:0:0:0:
386,50,7105,2,0,L|428:40,1,39.3750015020371,2|0,1:2|0:2,0:2:0:0:
426,33,7292,1,2,0:2:0:0:
352,126,7480,2,0,L|310:136,1,39.3750015020371,2|0,1:2|0:2,0:2:0:0:
307,130,7667,1,2,0:2:0:0:
416,182,7855,1,2,1:2:0:0:
416,182,8042,1,2,0:0:0:0:
346,234,8230,1,2,1:2:0:0:
345,243,8323,1,2,0:0:0:0:
344,253,8417,2,0,L|338:307,1,39.3750015020371,2|2,0:0|0:0,0:0:0:0:
377,374,8605,1,2,1:2:0:0:
378,365,8698,1,2,0:0:0:0:
380,355,8792,1,2,0:0:0:0:
455,249,8980,2,0,P|508:257|509:313,1,118.125004506111,2|0,1:2|0:0,0:0:0:0:
511,323,9355,2,0,P|466:338|443:313,1,78.7500030040742,2|0,1:2|0:0,0:0:0:0:
416,182,9730,1,2,1:2:0:0:
416,182,9917,1,2,0:0:0:0:
492,141,10105,2,0,L|498:87,1,39.3750015020371,2|0,1:2|0:2,0:2:0:0:
503,97,10292,1,2,0:2:0:0:
351,78,10480,2,0,L|345:132,1,39.3750015020371,2|0,1:2|0:2,0:2:0:0:
339,123,10667,1,2,0:2:0:0:
433,28,10855,2,0,P|427:69|420:130,1,78.7500030040742,2|2,1:2|0:2,0:0:0:0:
512,265,11230,1,2,1:2:0:0:
437,240,11417,1,2,1:2:0:0:
390,341,11605,1,2,1:2:0:0:
290,279,11792,1,2,1:2:0:0:
443,384,11980,2,0,P|456:362|454:333,1,39.3750015020371,2|2,1:1|0:2,0:2:0:0:
464,343,12167,2,0,P|464:317|448:293,1,39.3750015020371,0|2,1:2|0:2,0:2:0:0:
351,196,12355,2,0,P|344:236|342:249,1,39.3750015020371,2|2,1:1|0:2,0:2:0:0:
298,384,12542,2,0,P|305:344|307:331,1,39.3750015020371,0|0,1:2|0:2,0:2:0:0:
64,214,12730,6,2,B|108:208|108:208|147:255|147:255|208:248,1,157.500006008148,4|2,1:3|0:0,0:1:0:0:
160,359,13105,1,2,0:0:0:0:
160,359,13292,1,2,0:0:0:0:
7,265,13480,1,10,0:1:0:0:
11,288,13573,1,2,0:0:0:0:
15,312,13667,1,2,0:0:0:0:
18,335,13761,1,2,0:0:0:0:
23,359,13855,2,0,P|71:359|82:305,1,105,2|2,0:0|0:0,0:0:0:0:
130,183,14230,2,0,P|81:182|70:236,1,105,2|2,0:0|0:0,0:0:0:0:
214,189,14605,2,2,B|205:116|205:116|207:113|207:113|197:24,1,157.500006008148,4|2,1:3|0:0,0:1:0:0:
28,122,14980,1,10,0:1:0:0:
28,122,15167,1,2,0:0:0:0:
126,72,15355,2,0,P|133:124|139:178,1,105,2|8,0:0|0:3,0:0:0:0:
202,310,15730,2,0,B|193:338|193:338|135:349,1,78.7500030040742,4|0,1:3|0:0,0:0:0:0:
28,368,15917,1,2,0:0:0:0:
37,366,16011,1,2,0:0:0:0:
47,364,16105,1,2,0:0:0:0:
4,264,16292,1,2,0:0:0:0:
6,273,16386,1,2,0:0:0:0:
8,283,16480,1,10,0:1:0:0:
108,240,16667,1,2,0:0:0:0:
99,242,16761,1,2,0:0:0:0:
89,244,16855,1,2,0:0:0:0:
132,344,17042,1,10,3:1:0:0:
138,176,17230,2,0,P|190:203|167:253,1,105,2|2,0:0|0:0,0:0:0:0:
33,197,17605,2,2,B|21:124|21:124|16:120|16:120|3:41,1,157.500006008148,4|2,1:3|0:0,0:1:0:0:
92,0,17980,2,0,B|134:33|134:33|109:86,1,105,10|2,0:1|0:0,0:0:0:0:
103,78,18261,1,2,0:0:0:0:
94,76,18354,1,2,0:0:0:0:
144,167,18542,1,2,0:0:0:0:
302,18,18730,6,2,B|354:23|354:23|376:66|376:66|435:71,1,157.500006008148,4|2,1:3|0:0,0:1:0:0:
505,166,19105,1,2,0:0:0:0:
505,166,19292,1,2,0:0:0:0:
371,242,19480,1,10,0:1:0:0:
365,213,19573,1,2,0:0:0:0:
360,184,19667,1,2,0:0:0:0:
355,155,19761,1,2,0:0:0:0:
350,127,19855,2,0,P|295:149|295:198,1,105,2|2,0:0|0:0,0:0:0:0:
378,248,20230,2,0,P|432:225|432:176,1,105,2|2,0:0|0:0,0:0:0:0:
512,339,20605,2,2,B|479:321|479:321|354:343,1,157.500006008148,4|2,1:3|0:0,0:1:0:0:
360,183,20980,1,10,0:1:0:0:
360,183,21167,1,2,0:0:0:0:
487,240,21355,2,0,L|383:256,1,105,2|8,0:0|3:0,0:0:0:0:
307,109,21730,2,0,B|295:70|295:70|326:34,1,78.7500030040742,4|0,1:3|0:0,0:0:0:0:
440,20,21917,1,2,0:0:0:0:
427,21,22011,1,2,0:0:0:0:
415,23,22105,1,2,0:0:0:0:
497,118,22292,1,2,0:0:0:0:
489,107,22386,1,2,0:0:0:0:
481,97,22480,1,10,0:1:0:0:
440,216,22667,1,2,0:0:0:0:
446,203,22761,1,2,0:0:0:0:
450,192,22855,1,2,0:0:0:0:
401,121,23042,1,10,3:1:0:0:
323,169,23230,2,0,P|335:215|348:279,1,105,2|2,0:0|0:0,0:0:0:0:
503,382,23605,2,2,B|421:363|421:363|438:283,1,157.500006008148,4|2,1:3|0:0,0:1:0:0:
329,164,23980,2,0,P|341:210|354:274,1,105,10|2,0:1|0:0,0:0:0:0:
346,271,24261,1,2,0:0:0:0:
339,275,24355,1,2,0:2:0:0:
429,296,24542,1,2,0:0:0:0:
216,367,24730,5,4,1:3:0:0:
206,352,24823,1,2,0:0:0:0:
201,336,24917,1,2,0:0:0:0:
203,318,25011,1,2,0:0:0:0:
212,304,25105,1,2,0:0:0:0:
99,335,25292,1,2,0:2:0:0:
93,326,25386,1,2,0:0:0:0:
87,317,25480,2,0,L|28:328,2,52.5,10|2|2,0:1|0:0|0:0,0:0:0:0:
39,198,25855,1,2,0:2:0:0:
57,196,25948,1,2,0:0:0:0:
73,200,26042,1,2,0:0:0:0:
87,211,26136,1,2,0:0:0:0:
95,226,26230,1,2,0:0:0:0:
200,151,26417,1,2,1:2:0:0:
191,142,26511,1,2,0:0:0:0:
183,135,26605,2,0,L|173:78,2,52.5,4|2|2,1:3|0:0|0:0,0:0:0:0:
43,136,26980,2,0,B|57:222|57:222|60:226|60:226|75:307,1,157.5,10|0,0:1|0:0,0:0:0:0:
66,296,27355,2,0,P|126:312|135:355,1,105,2|2,0:0|1:2,0:0:0:0:
303,362,27730,5,4,1:3:0:0:
303,333,27823,1,2,0:0:0:0:
303,304,27917,1,2,0:0:0:0:
303,276,28011,1,2,0:0:0:0:
303,247,28105,1,2,0:2:0:0:
209,362,28292,5,4,1:3:0:0:
209,333,28385,1,2,0:0:0:0:
209,304,28479,1,10,0:1:0:0:
209,276,28573,1,2,0:0:0:0:
209,247,28667,1,2,0:0:0:0:
312,122,28855,5,4,1:3:0:0:
312,151,28949,1,2,0:0:0:0:
312,179,29043,1,10,0:1:0:0:
312,208,29137,1,2,0:0:0:0:
312,237,29230,1,2,0:2:0:0:
200,122,29417,5,2,1:2:0:0:
200,151,29511,1,2,0:0:0:0:
200,179,29605,1,4,1:3:0:0:
200,208,29699,1,2,0:0:0:0:
200,237,29792,1,2,0:0:0:0:
380,136,29980,6,0,B|420:185|420:185|372:242,1,118.125004506111,10|0,0:1|0:0,0:0:0:0:
390,236,30355,2,0,L|311:237,1,78.7500030040742,2|2,0:0|1:2,0:0:0:0:
193,384,30730,5,4,1:3:0:0:
140,295,30917,1,2,0:0:0:0:
137,312,31011,1,2,0:0:0:0:
134,329,31105,1,2,0:0:0:0:
66,364,31292,1,2,0:0:0:0:
19,236,31480,2,0,L|8:298,2,52.5,10|2|2,0:1|0:0|0:2,0:0:0:0:
39,131,31855,1,2,0:0:0:0:
88,224,32042,1,2,0:0:0:0:
90,208,32136,1,2,0:0:0:0:
93,191,32230,1,2,0:0:0:0:
184,150,32417,1,2,1:2:0:0:
149,60,32605,2,0,L|89:49,2,52.5,4|2|2,1:3|0:0|0:2,0:0:0:0:
184,150,32980,2,0,P|215:217|153:253,1,157.5,10|0,0:1|0:0,0:0:0:0:
161,246,33355,2,0,P|204:280|186:337,1,105,2|2,0:0|1:2,0:0:0:0:
419,277,33730,5,4,1:3:0:0:
321,332,33917,2,0,L|374:332,2,52.5,2|2|2,0:2|0:0|0:2,0:0:0:0:
93,277,34292,5,2,0:0:0:0:
191,332,34479,2,0,L|138:332,2,52.5,10|2|2,0:1|0:0|0:2,0:0:0:0:
344,221,34855,5,4,1:3:0:0:
329,123,35042,1,10,0:1:0:0:
302,141,35136,1,2,0:0:0:0:
294,171,35230,1,2,0:0:0:0:
168,221,35417,5,2,1:2:0:0:
183,123,35604,1,4,1:3:0:0:
210,141,35698,1,2,0:0:0:0:
218,171,35792,1,2,0:0:0:0:
344,221,35980,5,10,0:1:0:0:
295,270,36167,2,0,P|295:328|295:379,1,105,4|2,1:3|0:0,0:0:0:0:
9,189,36730,5,6,1:2:0:0:
9,189,36917,1,2,0:0:0:0:
65,136,37105,2,0,P|58:106|53:83,1,47.2499985580445,2|0,1:2|0:0,0:0:0:0:
47,88,37292,1,2,0:0:0:0:
141,155,37480,2,0,P|148:185|153:208,1,47.2499985580445,10|0,0:1|0:0,0:0:0:0:
159,203,37667,1,2,0:0:0:0:
114,281,37855,1,2,1:2:0:0:
29,256,38042,1,2,0:2:0:0:
27,267,38136,1,2,0:2:0:0:
25,279,38230,1,2,1:2:0:0:
46,309,38323,1,2,1:2:0:0:
70,338,38417,2,0,P|66:362|62:386,1,47.2499985580445,2|2,1:2|1:2,0:0:0:0:
143,377,38605,1,2,1:2:0:0:
173,357,38698,1,2,1:2:0:0:
205,336,38792,2,0,P|209:311|213:288,1,47.2499985580445,2|2,1:2|1:2,0:0:0:0:
180,203,38980,2,0,P|123:208|114:281,1,141.749995674133,10|0,0:1|0:0,0:0:0:0:
123,278,39355,1,2,1:2:0:0:
14,99,39730,1,2,1:2:0:0:
14,99,39917,1,2,0:0:0:0:
108,46,40105,2,0,L|56:37,1,47.2499985580445,2|0,1:2|0:0,0:0:0:0:
54,36,40292,1,2,0:0:0:0:
183,106,40480,2,0,L|131:115,1,47.2499985580445,10|0,0:1|0:0,0:0:0:0:
130,115,40667,1,2,0:0:0:0:
220,36,40855,1,2,1:2:0:0:
220,36,41042,1,10,0:1:0:0:
214,172,41230,1,2,1:2:0:0:
187,179,41323,1,0,1:0:0:0:
160,186,41417,2,0,P|129:193|101:199,1,47.2499985580445,2|0,1:2|1:0,0:0:0:0:
33,169,41605,1,2,1:2:0:0:
40,196,41698,1,0,1:0:0:0:
47,223,41792,2,0,P|54:254|60:282,1,47.2499985580445,2|0,1:2|1:0,0:0:0:0:
13,320,41980,2,0,P|63:376|122:346,1,141.749995674133,10|0,0:1|0:0,0:0:0:0:
116,345,42355,2,2,P|167:337|189:369,1,94.499997116089,6|0,0:1|0:1,0:1:0:0:
373,378,42730,6,0,B|385:356|385:356|372:330,1,52.5,6|0,1:2|0:0,0:0:0:0:
310,353,42917,1,2,0:0:0:0:
465,265,43105,1,6,1:2:0:0:
440,265,43198,1,0,1:0:0:0:
415,265,43292,1,2,1:2:0:0:
314,170,43480,2,0,B|301:194|301:194|313:216,1,52.5,6|0,1:2|0:0,0:0:0:0:
376,191,43667,1,2,0:0:0:0:
465,341,43855,1,6,1:2:0:0:
465,341,44042,1,2,0:0:0:0:
511,185,44230,1,6,1:2:0:0:
479,168,44323,1,2,1:2:0:0:
467,133,44417,2,0,L|465:77,1,52.5,2|2,1:2|1:2,0:0:0:0:
352,24,44605,1,6,1:2:0:0:
384,41,44698,1,2,1:2:0:0:
398,74,44792,2,0,L|398:132,1,52.5,2|2,1:2|1:2,0:0:0:0:
323,173,44980,2,0,B|288:128|288:128|323:85,1,105,6|0,1:2|0:0,0:0:0:0:
429,185,45355,2,0,L|430:294,1,105,6|0,1:2|0:0,0:0:0:0:
303,382,45730,2,0,B|291:360|291:360|304:334,1,52.5,6|0,1:2|0:0,0:0:0:0:
366,357,45917,1,2,0:0:0:0:
492,264,46105,2,0,B|504:286|504:286|491:312,1,52.5,6|0,1:2|0:0,0:0:0:0:
429,289,46292,1,2,0:0:0:0:
296,253,46480,2,0,B|284:231|284:231|297:205,1,52.5,6|0,1:2|0:0,0:0:0:0:
359,228,46667,1,2,0:0:0:0:
494,92,46855,2,0,B|506:114|506:114|493:140,1,52.5,6|0,1:2|0:0,0:0:0:0:
426,108,47042,2,0,B|425:43,1,52.5,8|0,0:1|0:0,0:0:0:0:
310,16,47230,1,6,1:2:0:0:
342,46,47323,1,0,1:2:0:0:
328,89,47417,2,0,P|328:117|350:147,1,52.5,2|0,1:2|1:2,0:0:0:0:
405,219,47605,1,6,1:2:0:0:
359,228,47698,1,0,1:2:0:0:
332,264,47792,2,0,P|328:300|325:326,1,52.5,2|0,1:2|1:2,0:0:0:0:
396,376,47980,2,0,P|462:350|408:294,1,157.5,6|0,1:2|0:0,0:0:0:0:
419,287,48355,2,0,P|346:303|307:317,1,105,6|0,1:2|0:0,0:0:0:0:
212,376,48730,5,4,1:3:0:0:
216,342,48823,1,2,0:0:0:0:
203,309,48917,1,2,0:0:0:0:
168,291,49011,1,2,0:0:0:0:
131,300,49105,1,2,0:0:0:0:
8,239,49292,1,2,0:0:0:0:
34,252,49386,1,2,0:0:0:0:
60,264,49480,1,10,0:1:0:0:
74,236,49573,1,2,0:0:0:0:
85,210,49667,1,2,0:0:0:0:
12,111,49855,1,4,0:1:0:0:
12,111,50230,2,0,B|66:100|66:100|72:104|72:104|124:95,1,105,2|2,0:0|0:0,0:0:0:0:
160,28,50605,2,2,B|221:79|221:79|175:150,1,157.500006008148,4|2,1:3|0:0,0:1:0:0:
191,237,50980,2,0,L|201:295,1,52.5,10|0,0:1|0:0,0:0:0:0:
195,230,51167,1,2,0:0:0:0:
82,202,51355,1,2,0:2:0:0:
96,204,51449,1,2,0:2:0:0:
110,208,51542,1,2,0:0:0:0:
15,307,51730,2,0,L|6:214,1,78.7500030040742,4|0,1:3|0:0,0:0:0:0:
7,88,51917,1,2,0:0:0:0:
8,102,52011,1,2,0:0:0:0:
10,117,52104,1,2,0:0:0:0:
90,17,52292,1,2,0:0:0:0:
76,18,52386,1,2,0:0:0:0:
61,20,52479,1,10,0:1:0:0:
161,100,52668,1,2,0:0:0:0:
160,86,52762,1,2,0:0:0:0:
158,71,52855,1,2,0:0:0:0:
92,170,53042,1,10,3:1:0:0:
191,237,53230,2,0,P|198:292|151:309,1,105,2|2,0:0|0:0,0:0:0:0:
1,302,53605,2,2,B|75:287|75:287|96:377,1,157.500006008148,4|2,1:3|0:0,0:1:0:0:
96,180,53980,2,0,B|43:187|43:187|33:137,1,105,10|2,0:1|0:0,0:0:0:0:
31,126,54261,1,2,0:0:0:0:
30,117,54355,1,2,0:0:0:0:
122,23,54542,1,2,0:0:0:0:
301,125,54730,5,4,1:3:0:0:
332,111,54823,1,2,0:0:0:0:
354,83,54917,1,2,0:0:0:0:
352,44,55011,1,2,0:0:0:0:
326,16,55105,1,2,0:0:0:0:
507,97,55292,1,2,0:0:0:0:
481,84,55386,1,2,0:0:0:0:
455,72,55480,1,10,0:1:0:0:
441,100,55573,1,2,0:0:0:0:
430,126,55667,1,2,0:0:0:0:
495,186,55855,1,2,0:0:0:0:
495,186,56230,2,0,P|460:234|470:286,1,105,2|2,0:0|0:0,0:0:0:0:
374,375,56605,2,2,B|364:309|364:309|359:304|359:304|345:218,1,157.500006008148,4|2,1:3|0:0,0:1:0:0:
302,90,56980,2,0,L|355:82,1,52.5,10|0,0:1|0:0,0:0:0:0:
295,83,57167,1,2,0:0:0:0:
404,28,57355,2,0,P|443:66|411:108,1,105,2|2,0:0|0:0,0:0:0:0:
504,191,57730,2,0,L|420:204,1,78.7500030040742,4|0,1:3|0:0,0:0:0:0:
332,245,57917,1,2,0:0:0:0:
334,229,58011,1,2,0:0:0:0:
345,221,58105,1,2,0:0:0:0:
307,324,58292,1,2,0:0:0:0:
294,314,58386,1,2,0:0:0:0:
292,300,58480,1,10,0:1:0:0:
386,378,58667,1,2,0:0:0:0:
371,384,58761,1,2,0:0:0:0:
358,379,58855,1,2,0:0:0:0:
381,306,59042,1,10,3:1:0:0:
500,375,59230,2,0,P|490:323|480:269,1,105,2|2,0:0|0:0,0:0:0:0:
411,185,59605,2,2,B|348:235|348:235|382:309,1,157.500006008148,4|2,1:3|0:0,0:1:0:0:
451,128,59980,2,0,P|441:76|431:22,1,105,10|2,0:1|0:0,0:0:0:0:
422,21,60261,1,2,0:0:0:0:
412,16,60355,1,2,0:2:0:0:
349,82,60542,1,2,0:0:0:0:
216,24,60730,6,2,B|196:43|196:43|57:19,1,157.500006008148,4|2,1:3|0:0,0:1:0:0:
178,118,61105,1,2,0:0:0:0:
178,118,61292,1,2,0:0:0:0:
15,75,61480,1,10,0:1:0:0:
19,98,61573,1,2,0:0:0:0:
23,122,61667,1,2,0:0:0:0:
26,145,61761,1,2,0:0:0:0:
31,169,61855,2,0,P|79:169|90:115,2,105,2|2|2,0:0|0:0|0:0,0:0:0:0:
159,199,62417,1,0,1:2:0:0:
15,242,62605,2,2,B|29:334|29:334|117:319,1,157.500006008148,4|0,1:3|0:0,0:1:0:0:
214,372,62980,2,0,B|163:360|163:360|177:303,2,105,10|2|2,0:1|0:0|0:0,0:0:0:0:
86,316,63542,1,8,3:0:0:0:
167,204,63730,2,0,L|147:116,1,78.7500030040742,4|0,1:3|0:0,0:0:0:0:
129,12,63917,1,2,0:0:0:0:
141,16,64011,1,2,0:0:0:0:
154,20,64105,1,2,0:0:0:0:
58,73,64292,1,4,1:3:0:0:
62,61,64386,1,2,0:0:0:0:
66,48,64480,1,10,0:1:0:0:
6,136,64667,1,2,0:0:0:0:
18,140,64761,1,2,0:0:0:0:
31,144,64855,1,4,1:3:0:0:
58,223,65042,1,10,3:1:0:0:
167,204,65230,2,0,P|203:240|181:286,1,105,2|2,0:0|1:2,0:0:0:0:
132,371,65605,2,2,B|83:361|83:361|68:305|68:305|11:294,1,157.500006008148,4|2,1:3|0:0,0:1:0:0:
6,136,65980,2,0,B|57:144|57:144|58:148|58:148|108:155,1,105,10|2,0:1|0:0,0:0:0:0:
113,148,66261,1,2,0:0:0:0:
120,142,66355,1,2,0:0:0:0:
174,211,66542,1,2,1:2:0:0:
298,89,66730,6,2,B|346:98|346:98|361:154|361:154|418:165,1,157.500006008148,4|2,1:3|0:0,0:1:0:0:
476,55,67105,1,2,0:0:0:0:
476,55,67292,1,2,0:0:0:0:
508,222,67480,1,10,0:1:0:0:
485,226,67573,1,2,0:0:0:0:
461,230,67667,1,2,0:0:0:0:
438,233,67761,1,2,0:0:0:0:
414,238,67855,2,0,P|414:286|468:297,2,105,2|2|2,0:0|0:0|0:0,0:0:0:0:
498,142,68417,1,2,1:2:0:0:
298,89,68605,2,2,B|310:164|310:164|307:168|307:168|322:247,1,157.500006008148,4|2,1:3|0:0,0:1:0:0:
419,347,68980,2,0,B|410:294|410:294|412:292|412:292|402:237,2,105,10|2|2,0:1|0:0|0:0,0:0:0:0:
294,305,69542,1,8,3:0:0:0:
414,238,69730,2,0,B|407:201|407:201|408:197|408:197|401:145,1,78.7500030040742,4|0,1:3|0:0,0:0:0:0:
298,89,69917,1,2,0:0:0:0:
315,97,70011,1,2,0:0:0:0:
324,112,70105,1,2,0:0:0:0:
457,29,70292,1,2,0:0:0:0:
449,46,70386,1,2,0:0:0:0:
434,55,70480,1,10,0:1:0:0:
512,189,70667,1,2,0:0:0:0:
495,181,70761,1,2,0:0:0:0:
486,166,70855,1,4,1:3:0:0:
371,304,71042,2,0,B|430:295|430:295|450:265|450:265|512:257,1,157.500006008148,10|2,3:1|0:0,0:0:0:0:
430,372,71417,1,2,1:2:0:0:
304,250,71605,1,4,1:3:0:0:
304,250,71792,1,2,0:0:0:0:
403,160,71980,2,0,L|389:52,1,105,10|4,0:1|1:3,0:0:0:0:
395,49,72261,1,2,0:0:0:0:
401,42,72355,1,2,0:0:0:0:
311,9,72542,1,2,1:2:0:0:
134,120,72730,5,6,1:2:0:0:
134,120,72917,1,2,0:0:0:0:
19,86,73105,2,0,L|66:75,1,42,2|0,1:2|0:0,0:0:0:0:
62,69,73292,1,2,0:2:0:0:
215,39,73480,2,0,L|168:50,1,42,2|0,1:2|0:0,0:0:0:0:
166,45,73667,1,2,0:2:0:0:
216,133,73855,1,2,1:2:0:0:
84,179,74042,1,2,0:0:0:0:
91,184,74136,1,2,0:0:0:0:
99,188,74230,1,2,1:2:0:0:
109,229,74323,1,2,0:0:0:0:
88,263,74417,2,0,P|61:268|37:274,1,42,2|2,0:0|0:0,0:0:0:0:
25,357,74605,1,2,1:2:0:0:
69,350,74698,1,2,0:0:0:0:
113,359,74792,2,0,P|140:364|164:370,1,42,2|0,0:0|0:0,0:0:0:0:
213,331,74980,2,0,P|202:265|189:178,1,126,2|0,1:2|0:0,0:0:0:0:
201,212,75355,1,2,1:2:0:0:
0,68,75730,1,2,1:2:0:0:
0,68,75917,1,2,0:0:0:0:
89,12,76105,2,0,L|80:60,1,42,2|0,1:2|0:0,0:0:0:0:
73,56,76292,1,2,0:2:0:0:
201,76,76480,2,0,L|210:28,1,42,2|0,1:2|0:0,0:0:0:0:
215,32,76667,1,2,0:2:0:0:
122,132,76855,2,0,P|136:190|141:220,1,84,2|0,1:2|0:0,0:0:0:0:
161,334,77230,1,2,1:2:0:0:
49,207,77417,2,0,P|16:228|18:276,2,84,2|2|2,0:0|1:2|0:0,0:0:0:0:
56,382,77980,2,0,B|88:396|110:359|107:357|104:354|125:324|161:334,1,126,2|0,1:2|0:0,0:0:0:0:
168,347,78355,2,0,P|216:323|209:280,1,84,4|0,1:1|0:0,0:0:0:0:
442,101,78730,5,6,1:2:0:0:
442,101,78917,1,2,0:0:0:0:
375,68,79105,2,0,L|385:23,1,42,2|0,1:2|0:0,0:0:0:0:
381,20,79292,1,2,0:0:0:0:
505,139,79480,2,0,L|495:184,1,42,2|0,1:2|0:0,0:0:0:0:
501,188,79667,1,2,0:0:0:0:
352,234,79855,1,2,1:2:0:0:
352,234,80042,1,2,0:0:0:0:
496,370,80230,1,2,1:2:0:0:
479,329,80323,1,2,0:0:0:0:
435,307,80417,2,0,P|404:312|378:318,1,42,2|2,0:0|0:0,0:0:0:0:
290,384,80605,1,2,1:2:0:0:
301,342,80698,1,2,0:0:0:0:
312,295,80792,1,2,0:0:0:0:
501,188,80980,2,0,B|469:202|447:165|450:163|453:160|432:130|396:140,1,126,2|0,1:2|0:0,0:0:0:0:
389,148,81355,2,0,P|337:133|296:125,1,84,2|0,1:2|0:0,0:0:0:0:
496,370,81730,1,2,1:2:0:0:
496,370,81917,1,2,0:2:0:0:
435,322,82105,2,0,L|445:281,1,42,2|0,1:2|0:0,0:0:0:0:
454,279,82292,1,2,0:0:0:0:
364,376,82480,2,0,L|354:335,1,42,2|0,1:2|0:0,0:0:0:0:
345,333,82667,1,2,0:0:0:0:
315,120,82855,2,0,P|301:182|289:244,1,126,2|0,1:2|0:0,0:0:0:0:
296,237,83230,2,0,P|347:242|361:210,1,84,2|2,0:0|0:0,0:0:0:0:
508,95,83605,2,0,P|457:90|443:122,1,84,2|2,0:0|0:0,0:0:0:0:
462,268,83980,2,0,P|446:220|440:179,1,84,2|0,0:0|0:0,0:0:0:0:
362,368,84355,2,0,P|350:294|313:194,1,168,2|0,0:0|0:0,0:0:0:0:
