osu file format v14

[General]
AudioFilename: audio.mp3
AudioLeadIn: 0
PreviewTime: 730
Countdown: 0
SampleSet: Soft
StackLeniency: 0.3
Mode: 0
LetterboxInBreaks: 0
WidescreenStoryboard: 1

[Editor]
DistanceSpacing: 0.7
BeatDivisor: 4
GridSize: 32
TimelineZoom: 3.099999

[Metadata]
Title:Ugh
TitleUnicode:Ugh
Artist:Kawai Sprite
ArtistUnicode:Kawai Sprite
Creator:Altai
Version:Heatwave's Expert
Source:Friday Night Funkin'
Tags:ughh uggh agh tag tag2 two Boyfriend Boy friend Tankman Tank Man FNF kieg enri Heatwave -_Heatwave_- undeadphoneguy OST Original Soundtrack vol 2 two v2 VideoGame Video Game VGM Instrumental Newgrounds Electronic ninjamuffin99 PhantomArcade evilsk8r
BeatmapID:3107331
BeatmapSetID:1514399

[Difficulty]
HPDrainRate:5
CircleSize:5
OverallDifficulty:8
ApproachRate:9
SliderMultiplier:2.2
SliderTickRate:1

[Events]
//Background and Video events
0,0,"luiz-felipe-bozzi-da-silva-funkinfanart.jpg",0,0
//Break Periods
//Storyboard Layer 0 (Background)
//Storyboard Layer 1 (Fail)
//Storyboard Layer 2 (Pass)
//Storyboard Layer 3 (Foreground)
//Storyboard Layer 4 (Overlay)
//Storyboard Sound Samples

[TimingPoints]
730,375,4,2,1,50,1,0
3261,-100,4,2,1,5,0,0
3355,-100,4,2,1,50,0,0
5136,-100,4,2,1,5,0,0
5230,-100,4,2,1,50,0,0
6261,-100,4,2,1,5,0,0
6355,-100,4,2,1,50,0,0
6636,-100,4,2,1,5,0,0
6730,-100,4,2,1,50,0,0
6823,-100,4,2,1,50,0,0
6917,-100,4,2,1,50,0,0
7010,-100,4,2,1,50,0,0
7105,-100,4,2,1,50,0,0
7198,-100,4,2,1,50,0,0
7292,-100,4,2,1,50,0,0
7385,-100,4,2,1,50,0,0
7480,-100,4,2,1,50,0,0
7573,-100,4,2,1,50,0,0
7667,-100,4,2,1,50,0,0
7760,-100,4,2,1,50,0,0
7855,-100,4,2,1,50,0,0
7948,-100,4,2,1,5,0,0
8042,-100,4,2,1,50,0,0
8135,-100,4,2,1,5,0,0
8230,-100,4,2,1,50,0,0
8885,-100,4,2,1,5,0,0
8980,-100,4,2,1,50,0,0
9261,-100,4,2,1,5,0,0
9355,-100,4,2,1,50,0,0
9636,-100,4,2,1,5,0,0
9730,-100,4,2,1,50,0,0
9823,-100,4,2,1,50,0,0
9917,-100,4,2,1,50,0,0
10010,-100,4,2,1,50,0,0
10105,-100,4,2,1,50,0,0
10198,-100,4,2,1,50,0,0
10292,-100,4,2,1,50,0,0
10385,-100,4,2,1,50,0,0
10480,-100,4,2,1,50,0,0
10573,-100,4,2,1,50,0,0
10667,-100,4,2,1,50,0,0
10760,-100,4,2,1,50,0,0
10855,-100,4,2,1,50,0,0
10948,-100,4,2,1,5,0,0
11042,-100,4,2,1,50,0,0
11135,-100,4,2,1,5,0,0
11230,-100,4,2,1,50,0,0
11323,-100,4,2,1,5,0,0
11417,-100,4,2,1,50,0,0
11510,-100,4,2,1,5,0,0
11605,-100,4,2,1,50,0,0
11698,-100,4,2,1,5,0,0
11792,-100,4,2,1,50,0,0
11885,-100,4,2,1,5,0,0
11980,-100,4,2,1,50,0,0
12167,-100,4,2,1,55,0,0
12355,-100,4,2,1,60,0,0
12542,-100,4,2,1,65,0,0
12730,-100,4,2,1,70,0,0
12870,-100,4,2,1,5,0,0
12917,-100,4,2,1,70,0,0
14745,-100,4,2,1,5,0,0
14792,-100,4,2,1,70,0,0
15870,-100,4,2,1,5,0,0
15917,-100,4,2,1,70,0,0
17745,-100,4,2,1,5,0,0
17792,-100,4,2,1,70,0,0
18823,-100,4,2,1,5,0,0
18870,-100,4,2,1,5,0,0
18917,-100,4,2,1,70,0,0
19010,-100,4,2,1,70,0,0
19105,-100,4,2,1,70,0,0
19198,-100,4,2,1,70,0,0
19292,-100,4,2,1,70,0,0
19385,-100,4,2,1,70,0,0
19480,-100,4,2,1,70,0,0
20510,-100,4,2,1,70,0,0
20605,-100,4,2,1,70,0,0
20745,-100,4,2,1,5,0,0
20792,-100,4,2,1,70,0,0
21073,-100,4,2,1,5,0,0
21167,-100,4,2,1,70,0,0
21260,-100,4,2,1,5,0,0
21355,-100,4,2,1,70,0,0
21870,-100,4,2,1,5,0,0
21917,-100,4,2,1,70,0,0
23510,-100,4,2,1,5,0,0
23605,-100,4,2,1,70,0,0
23698,-100,4,2,1,5,0,0
23792,-100,4,2,1,70,0,0
23885,-100,4,2,1,70,0,0
23980,-100,4,2,1,70,0,0
24073,-100,4,2,1,5,0,0
24167,-100,4,2,1,70,0,0
24635,-100,4,2,1,5,0,0
24730,-100,4,2,1,75,0,0
27730,-100,4,2,1,75,0,1
30261,-100,4,2,1,5,0,1
30355,-100,4,2,1,75,0,1
30448,-100,4,2,1,5,0,1
30542,-100,4,2,1,75,0,1
30635,-100,4,2,1,5,0,1
30730,-100,4,2,1,75,0,0
33730,-100,4,2,1,75,0,1
36261,-100,4,2,1,5,0,1
36355,-100,4,2,1,75,0,1
36636,-100,4,2,1,5,0,1
36730,-100,4,2,1,60,0,0
42636,-100,4,2,1,5,0,0
42730,-100,4,2,1,60,0,0
42823,-100,4,2,1,60,0,0
42917,-100,4,2,1,60,0,0
43010,-100,4,2,1,60,0,0
43105,-100,4,2,1,60,0,0
43151,-100,4,2,1,5,0,0
43198,-100,4,2,1,60,0,0
43244,-100,4,2,1,5,0,0
43292,-100,4,2,1,60,0,0
43385,-100,4,2,1,5,0,0
43480,-100,4,2,1,60,0,0
43761,-100,4,2,1,5,0,0
43855,-100,4,2,1,60,0,0
44136,-100,4,2,1,5,0,0
44230,-100,4,2,1,60,0,0
44885,-100,4,2,1,60,0,0
44980,-100,4,2,1,60,0,0
45261,-100,4,2,1,5,0,0
45355,-100,4,2,1,60,0,0
45636,-100,4,2,1,5,0,0
45730,-100,4,2,1,60,0,0
45823,-100,4,2,1,60,0,0
45917,-100,4,2,1,60,0,0
46010,-100,4,2,1,5,0,0
46105,-100,4,2,1,60,0,0
46198,-100,4,2,1,60,0,0
46292,-100,4,2,1,60,0,0
46385,-100,4,2,1,5,0,0
46480,-100,4,2,1,60,0,0
46761,-100,4,2,1,5,0,0
46855,-100,4,2,1,60,0,0
46948,-100,4,2,1,60,0,0
47042,-100,4,2,1,60,0,0
47135,-100,4,2,1,60,0,0
47230,-100,4,2,1,60,0,0
48730,-100,4,2,1,70,0,0
50136,-100,4,2,1,5,0,0
50230,-100,4,2,1,70,0,0
50745,-100,4,2,1,5,0,0
50792,-100,4,2,1,70,0,0
51355,-55.5555555555556,4,2,2,70,0,0
51401,-55.5555555555556,4,2,2,5,0,0
51448,-55.5555555555556,4,2,2,70,0,0
51494,-55.5555555555556,4,2,2,5,0,0
51542,-55.5555555555556,4,2,1,70,0,0
51870,-55.5555555555556,4,2,1,5,0,0
51917,-55.5555555555556,4,2,1,70,0,0
53745,-55.5555555555556,4,2,1,5,0,0
53792,-55.5555555555556,4,2,1,70,0,0
54730,-100,4,2,1,70,0,0
56136,-100,4,2,1,5,0,0
56230,-100,4,2,1,70,0,0
56698,-100,4,2,1,5,0,0
56745,-100,4,2,1,5,0,0
56792,-100,4,2,1,70,0,0
56885,-100,4,2,1,70,0,0
56980,-100,4,2,1,70,0,0
57073,-100,4,2,1,5,0,0
57167,-100,4,2,1,70,0,0
57260,-100,4,2,1,5,0,0
57355,-100,4,2,1,70,0,0
57870,-100,4,2,1,5,0,0
57917,-100,4,2,1,70,0,0
59698,-100,4,2,1,5,0,0
59745,-100,4,2,1,5,0,0
59792,-100,4,2,1,70,0,0
59885,-100,4,2,1,70,0,0
59980,-100,4,2,1,70,0,0
60635,-100,4,2,1,5,0,0
60730,-100,4,2,1,70,0,0
60870,-100,4,2,1,5,0,0
60917,-100,4,2,1,70,0,0
62745,-100,4,2,1,5,0,0
62792,-100,4,2,1,70,0,0
63870,-100,4,2,1,5,0,0
63917,-100,4,2,1,70,0,0
65745,-100,4,2,1,5,0,0
65792,-100,4,2,1,70,0,0
66823,-100,4,2,1,5,0,0
66870,-100,4,2,1,5,0,0
66917,-100,4,2,1,70,0,0
67010,-100,4,2,1,70,0,0
67105,-100,4,2,1,70,0,0
68510,-100,4,2,1,70,0,0
68605,-100,4,2,1,70,0,0
68745,-100,4,2,1,5,0,0
68792,-100,4,2,1,70,0,0
69073,-100,4,2,1,5,0,0
69167,-100,4,2,1,70,0,0
69260,-100,4,2,1,70,0,0
69355,-100,4,2,1,70,0,0
69870,-100,4,2,1,5,0,0
69917,-100,4,2,1,70,0,0
71510,-100,4,2,1,70,0,0
71605,-100,4,2,1,70,0,0
71745,-100,4,2,1,5,0,0
71792,-100,4,2,1,70,0,0
72730,-100,4,2,1,50,0,0
75261,-100,4,2,1,5,0,0
75355,-100,4,2,1,50,0,0
78261,-100,4,2,1,5,0,0
78355,-100,4,2,1,50,0,0
78636,-100,4,2,1,5,0,0
78730,-100,4,2,1,50,0,0
78823,-100,4,2,1,50,0,0
78917,-100,4,2,1,50,0,0
79010,-100,4,2,1,50,0,0
79105,-100,4,2,1,50,0,0
79198,-100,4,2,1,50,0,0
79292,-100,4,2,1,50,0,0
79385,-100,4,2,1,50,0,0
79480,-100,4,2,1,50,0,0
79573,-100,4,2,1,50,0,0
79667,-100,4,2,1,50,0,0
79760,-100,4,2,1,50,0,0
79855,-100,4,2,1,50,0,0
79948,-100,4,2,1,5,0,0
80042,-100,4,2,1,50,0,0
80135,-100,4,2,1,5,0,0
80230,-100,4,2,1,50,0,0
81261,-100,4,2,1,5,0,0
81355,-100,4,2,1,50,0,0
81636,-100,4,2,1,5,0,0
81730,-100,4,2,1,50,0,0
81823,-100,4,2,1,50,0,0
81917,-100,4,2,1,50,0,0
82010,-100,4,2,1,50,0,0
82105,-100,4,2,1,50,0,0
82198,-100,4,2,1,50,0,0
82292,-100,4,2,1,50,0,0
82385,-100,4,2,1,50,0,0
82480,-100,4,2,1,50,0,0
82573,-100,4,2,1,50,0,0
82667,-100,4,2,1,50,0,0
82760,-100,4,2,1,50,0,0
82855,-100,4,2,1,50,0,0
83136,-100,4,2,1,5,0,0
83230,-100,4,2,1,45,0,0
84261,-100,4,2,1,5,0,0
84355,-100,4,2,1,45,0,0
84730,-100,4,2,1,15,0,0

[Colours]
Combo1 : 74,210,255
Combo2 : 34,84,255

[HitObjects]
91,241,730,5,6,1:2:0:0:
91,241,917,1,2,0:2:0:0:
54,169,1105,1,2,1:2:0:0:
171,244,1292,1,2,0:2:0:0:
47,307,1480,1,2,1:2:0:0:
91,241,1667,1,2,0:2:0:0:
91,241,1855,1,2,1:2:0:0:
127,313,2042,1,2,0:2:0:0:
127,313,2136,1,2,0:2:0:0:
171,244,2230,1,2,1:2:0:0:
167,226,2323,1,2,0:2:0:0:
163,208,2417,1,2,0:2:0:0:
160,190,2511,1,2,0:2:0:0:
135,172,2605,1,2,1:2:0:0:
139,154,2698,1,2,0:2:0:0:
143,137,2792,1,2,0:2:0:0:
91,241,2980,1,2,1:2:0:0:
91,241,3355,1,2,1:2:0:0:
116,17,3730,1,2,1:2:0:0:
116,17,3917,1,2,0:2:0:0:
24,0,4105,1,2,1:2:0:0:
102,91,4292,1,2,0:2:0:0:
208,34,4480,1,2,1:2:0:0:
116,17,4667,1,2,0:2:0:0:
116,17,4855,1,2,1:2:0:0:
116,17,5230,1,2,1:2:0:0:
30,117,5417,1,2,0:0:0:0:
160,141,5605,1,2,1:2:0:0:
116,17,5792,1,2,0:0:0:0:
102,91,5980,1,2,1:2:0:0:
0,354,6355,2,2,B|46:354|65:310|65:310|50:355|83:384,1,165,4|0,1:1|0:0,0:1:0:0:
449,335,6730,6,0,L|387:325,1,55,6|0,1:2|0:0,0:0:0:0:
449,335,6917,2,0,L|387:325,1,55,2|0,0:0|0:0,0:0:0:0:
374,252,7105,2,0,L|312:242,1,55,2|0,1:2|0:2,0:2:0:0:
352,384,7292,2,0,L|290:374,1,55,2|0,0:2|0:2,0:2:0:0:
512,279,7480,2,0,P|518:252|510:226,1,55,2|0,1:2|0:2,0:2:0:0:
472,161,7667,2,0,P|448:147|421:148,1,55,2|0,0:2|0:2,0:2:0:0:
366,197,7855,2,0,L|374:251,1,55,2|0,1:2|0:0,0:0:0:0:
366,197,8042,2,0,L|374:251,1,55,2|0,0:0|0:0,0:0:0:0:
301,31,8230,2,0,L|378:16,2,55,2|2|2,1:2|0:0|0:0,0:0:0:0:
464,64,8511,2,0,L|410:74,2,55,2|2|2,0:0|1:2|0:0,0:0:0:0:
295,137,8792,2,0,L|348:126,1,55,2|0,0:0|0:0,0:0:0:0:
472,161,8980,2,0,B|490:85|490:85|492:81|492:81|511:0,1,165,2|0,1:2|0:0,0:0:0:0:
511,0,9355,2,0,B|492:81|492:81|490:85|490:85|472:161,1,165,2|0,1:2|0:0,0:0:0:0:
375,253,9730,2,0,L|383:307,1,55,2|0,1:2|0:0,0:0:0:0:
375,253,9917,2,0,L|383:307,1,55,2|0,0:0|0:0,0:0:0:0:
462,384,10105,2,0,L|453:329,1,55,2|0,1:2|0:2,0:2:0:0:
502,232,10292,2,0,L|510:286,1,55,2|0,0:2|0:2,0:2:0:0:
375,384,10480,2,0,P|348:379|327:361,1,55,2|0,1:2|0:2,0:2:0:0:
289,303,10667,2,0,P|288:275|302:252,1,55,2|0,0:2|0:2,0:2:0:0:
291,177,10855,2,0,L|345:185,1,55,2|0,1:2|0:0,0:0:0:0:
291,177,11042,2,0,L|345:185,1,55,2|0,0:2|0:0,0:0:0:0:
297,11,11230,2,0,L|288:74,1,55,2|0,1:2|0:0,0:0:0:0:
365,22,11417,2,0,L|356:85,1,55,2|0,1:2|0:0,0:0:0:0:
494,177,11605,2,0,L|503:240,1,55,2|0,1:2|0:0,0:0:0:0:
426,188,11792,2,0,L|435:251,1,55,2|0,1:2|0:0,0:0:0:0:
327,361,11980,2,0,P|353:367|380:362,1,55,2|2,1:1|0:2,0:2:0:0:
452,342,12167,2,0,P|471:322|479:296,1,55,0|2,1:2|0:2,0:2:0:0:
494,177,12355,2,0,P|486:150|468:130,1,55,2|2,1:1|0:2,0:2:0:0:
365,22,12542,2,0,P|338:15|311:20,1,55,0|0,1:2|0:2,0:2:0:0:
94,161,12730,5,4,1:3:0:0:
96,174,12823,1,0,0:0:0:0:
99,187,12917,1,2,0:0:0:0:
213,136,13105,1,2,0:0:0:0:
190,20,13292,1,2,0:0:0:0:
94,161,13480,1,10,0:1:0:0:
96,174,13573,1,2,0:0:0:0:
99,187,13667,1,2,0:0:0:0:
102,201,13761,1,2,0:0:0:0:
105,214,13855,1,2,0:0:0:0:
55,272,14042,1,2,0:0:0:0:
105,214,14230,1,2,0:0:0:0:
55,272,14417,1,2,0:0:0:0:
210,236,14605,1,4,1:3:0:0:
132,352,14792,1,2,0:0:0:0:
0,192,14980,1,10,0:1:0:0:
105,214,15167,1,2,0:0:0:0:
210,237,15355,1,2,0:0:0:0:
147,277,15542,1,8,0:3:0:0:
177,82,15730,1,4,1:3:0:0:
181,164,15917,1,2,0:0:0:0:
199,162,16011,1,2,0:0:0:0:
215,155,16105,1,2,0:0:0:0:
95,86,16292,1,2,0:0:0:0:
97,104,16386,1,2,0:0:0:0:
104,120,16480,1,10,0:1:0:0:
173,0,16667,1,2,0:0:0:0:
155,2,16761,1,2,0:0:0:0:
139,9,16855,1,2,0:0:0:0:
177,82,17042,1,10,3:1:0:0:
17,126,17230,1,2,0:0:0:0:
17,126,17417,1,2,0:0:0:0:
110,152,17605,1,4,1:3:0:0:
83,55,17792,1,2,0:0:0:0:
44,216,17980,1,10,0:1:0:0:
89,281,18167,1,2,0:0:0:0:
87,294,18261,1,2,0:0:0:0:
85,307,18355,1,2,0:0:0:0:
130,372,18542,1,2,0:0:0:0:
310,241,18730,6,2,L|393:253,1,55,4|0,1:3|0:0,0:1:0:0:
441,261,18917,2,0,L|428:344,1,55,2|0,0:0|0:0,0:0:0:0:
345,378,19105,2,0,L|357:294,1,55,2|0,0:0|0:0,0:0:0:0:
307,234,19292,2,0,L|361:242,1,55,2|0,0:0|0:0,0:0:0:0:
512,185,19480,2,0,L|457:176,3,55,10|2|2|2,0:1|0:0|0:0|0:0,0:0:0:0:
399,109,19855,2,0,B|342:118|342:118|336:118|336:118|290:126,2,110,2|2|2,0:0|0:0|0:0,0:0:0:0:
482,33,20417,2,0,L|471:96,1,55,2|0,0:0|0:0,0:0:0:0:
307,234,20605,2,2,B|297:177|297:177|298:171|298:171|290:125,1,110,4|2,1:3|0:0,0:1:0:0:
396,328,20980,2,0,P|422:323|444:306,1,55,10|0,0:1|0:0,0:0:0:0:
452,229,21167,2,0,P|461:203|457:176,1,55,2|0,0:0|0:0,0:0:0:0:
290,125,21355,2,0,B|298:171|298:171|297:177|297:177|307:234,2,110,2|8|4,0:0|3:0|1:3,0:0:0:0:
482,33,21917,2,0,L|471:96,2,55,2|2|2,0:0|0:0|0:0,0:0:0:0:
386,253,22292,2,0,L|376:198,2,55,2|2|10,0:0|0:0|0:1,0:0:0:0:
307,1,22667,2,0,L|296:64,2,55,2|2|2,0:0|0:0|0:0,0:0:0:0:
472,87,23042,2,0,B|481:139|481:139|482:143|482:143|490:195,1,110,10|2,3:1|0:0,0:0:0:0:
475,384,23417,2,0,L|488:316,1,55,2|0,0:0|0:0,0:0:0:0:
440,263,23605,2,2,L|372:250,1,55,4|0,1:3|0:0,0:1:0:0:
319,298,23792,2,0,L|306:366,1,55,2|0,0:0|0:0,0:0:0:0:
490,195,23980,2,0,L|422:182,1,55,10|0,0:1|0:0,0:0:0:0:
363,171,24167,2,0,L|376:103,2,55,2|2|2,0:0|0:0|0:2,0:0:0:0:
385,42,24542,2,0,L|317:29,1,55,2|0,0:0|0:0,0:0:0:0:
17,62,24730,5,4,1:3:0:0:
44,57,24823,1,2,0:0:0:0:
71,53,24917,1,2,0:0:0:0:
98,49,25011,1,2,0:0:0:0:
125,45,25105,1,2,0:0:0:0:
27,138,25292,1,2,0:2:0:0:
54,133,25386,1,2,0:0:0:0:
81,129,25480,1,10,0:1:0:0:
108,125,25573,1,2,0:0:0:0:
135,121,25667,1,2,0:0:0:0:
220,293,25855,1,2,0:2:0:0:
193,288,25948,1,2,0:0:0:0:
166,284,26042,1,2,0:0:0:0:
139,280,26136,1,2,0:0:0:0:
112,276,26230,1,2,0:0:0:0:
210,369,26417,1,2,1:2:0:0:
183,364,26511,1,2,0:0:0:0:
156,360,26605,1,4,1:3:0:0:
129,356,26698,1,2,0:0:0:0:
102,352,26792,1,2,0:0:0:0:
122,199,26980,1,10,0:1:0:0:
122,199,27355,1,2,0:0:0:0:
60,229,27542,1,2,1:2:0:0:
278,361,27730,6,0,P|281:333|296:311,4,55,4|2|2|2|2,1:3|0:0|0:0|0:0|0:2,0:0:0:0:
204,251,28292,5,4,1:3:0:0:
193,225,28386,1,2,0:0:0:0:
174,206,28480,1,10,0:1:0:0:
148,196,28573,1,2,0:0:0:0:
121,198,28667,1,2,0:0:0:0:
315,170,28855,6,0,P|332:147|356:136,4,55,4|2|10|2|2,1:3|0:0|0:1|0:0|0:2,0:0:0:0:
171,54,29417,5,2,1:2:0:0:
149,37,29511,1,2,0:0:0:0:
123,30,29605,1,4,1:3:0:0:
96,34,29698,1,2,0:0:0:0:
73,49,29792,1,2,0:0:0:0:
429,68,29980,6,0,B|441:143|441:143|442:147|442:147|456:230,1,165,10|0,0:1|0:0,0:0:0:0:
401,268,30355,2,0,L|320:246,1,55,2|0,0:0|0:0,0:0:0:0:
309,311,30542,2,0,L|228:289,1,55,2|0,1:2|0:0,0:0:0:0:
67,352,30730,5,4,1:3:0:0:
25,290,30917,1,2,0:0:0:0:
51,284,31011,1,2,0:0:0:0:
78,278,31105,1,2,0:0:0:0:
190,324,31292,1,2,0:0:0:0:
148,262,31480,1,10,0:1:0:0:
174,256,31573,1,2,0:0:0:0:
201,250,31667,1,2,0:2:0:0:
21,139,31855,1,2,0:0:0:0:
10,213,32042,1,2,0:0:0:0:
37,207,32136,1,2,0:0:0:0:
63,201,32230,1,2,0:0:0:0:
133,20,32417,1,2,1:2:0:0:
144,94,32605,1,4,1:3:0:0:
117,88,32698,1,2,0:0:0:0:
91,82,32792,1,2,0:2:0:0:
214,16,32980,1,10,0:1:0:0:
214,16,33355,1,2,0:0:0:0:
144,94,33542,1,2,1:2:0:0:
336,44,33730,6,0,L|312:156,1,110,4|2,1:3|0:2,0:0:0:0:
312,151,34011,2,0,L|386:135,1,55,2|2,0:0|0:2,0:0:0:0:
144,94,34292,5,2,0:0:0:0:
167,201,34480,1,10,0:1:0:0:
164,209,34573,1,2,0:0:0:0:
161,216,34667,1,2,0:2:0:0:
355,238,34855,6,0,P|342:289|293:310,1,110,4|10,1:3|0:1,0:0:0:0:
292,321,35136,2,0,P|317:330|331:353,1,55,2|2,0:0|0:0,0:0:0:0:
106,342,35417,5,2,1:2:0:0:
199,359,35605,1,4,1:3:0:0:
202,367,35698,1,2,0:0:0:0:
202,377,35792,1,2,0:0:0:0:
237,197,35980,6,0,B|247:126|247:126|249:122|249:122|262:33,1,165,10|0,0:1|0:0,0:0:0:0:
325,0,36355,2,0,B|395:42|395:42|366:119,1,165,2|0,0:0|0:0,0:0:0:0:
145,95,36730,5,6,1:2:0:0:
145,95,36917,1,2,0:0:0:0:
101,27,37105,1,2,1:2:0:0:
23,46,37292,1,2,0:0:0:0:
92,157,37480,1,10,0:1:0:0:
17,128,37667,1,2,0:0:0:0:
75,90,37855,1,2,1:2:0:0:
31,203,38042,1,2,0:2:0:0:
28,211,38136,1,2,0:2:0:0:
64,269,38230,1,2,1:2:0:0:
91,264,38323,1,2,1:2:0:0:
118,259,38417,1,2,1:2:0:0:
145,254,38511,1,2,1:2:0:0:
174,275,38605,1,2,1:2:0:0:
179,302,38698,1,2,1:2:0:0:
184,329,38792,1,2,1:2:0:0:
189,356,38886,1,2,1:2:0:0:
174,383,38980,1,10,0:1:0:0:
174,383,39355,1,2,1:2:0:0:
0,354,39730,1,2,1:2:0:0:
0,354,39917,1,2,0:0:0:0:
14,282,40105,1,2,1:2:0:0:
86,296,40292,1,2,0:0:0:0:
220,182,40480,1,10,0:1:0:0:
206,254,40667,1,2,0:0:0:0:
134,240,40855,1,2,1:2:0:0:
148,168,41042,1,10,0:1:0:0:
29,85,41230,1,2,1:2:0:0:
34,111,41323,1,0,1:0:0:0:
39,138,41417,1,2,1:2:0:0:
45,165,41511,1,0,1:0:0:0:
68,184,41605,1,2,1:2:0:0:
94,179,41698,1,0,1:0:0:0:
121,174,41792,1,2,1:2:0:0:
148,168,41886,1,0,1:0:0:0:
158,140,41980,1,10,0:1:0:0:
0,354,42355,2,2,B|46:354|65:310|65:310|50:355|83:384,1,165,6|0,0:1|0:0,0:1:0:0:
394,375,42730,6,0,L|408:313,1,55,6|0,1:2|0:0,0:0:0:0:
394,375,42917,2,0,L|408:313,1,55,2|0,0:0|0:0,0:0:0:0:
420,244,43105,2,0,L|392:248,1,27.5,6|0,1:2|0:0,0:0:0:0:
382,257,43198,2,0,L|354:261,1,27.5,0|0,1:0|0:0,0:0:0:0:
342,257,43292,2,0,L|287:265,1,55,2|0,1:2|0:0,0:0:0:0:
290,198,43480,2,0,B|374:185|374:185|363:106,1,165,6|0,1:2|0:0,0:0:0:0:
279,118,43855,2,0,B|268:39|268:39|352:26,1,165,6|0,1:2|0:0,0:0:0:0:
488,78,44230,2,0,L|433:86,2,55,6|2|2,1:2|1:2|1:2,0:0:0:0:
442,158,44511,2,0,L|496:149,2,55,2|6|2,1:2|1:2|1:2,0:0:0:0:
508,219,44792,2,0,L|453:227,1,55,2|2,1:2|1:2,0:0:0:0:
424,296,44980,2,0,B|368:305|368:305|351:358|351:358|299:367,1,165,6|0,1:2|0:0,0:0:0:0:
299,367,45355,2,0,B|351:358|351:358|368:305|368:305|424:296,1,165,6|0,1:2|0:0,0:0:0:0:
282,181,45730,2,0,L|358:195,1,55,6|0,1:2|0:0,0:0:0:0:
282,181,45917,2,0,L|358:195,1,55,2|0,0:0|0:0,0:0:0:0:
395,150,46105,2,0,L|404:95,1,55,6|0,1:2|0:0,0:0:0:0:
361,41,46292,2,0,L|285:27,1,55,2|0,0:0|0:0,0:0:0:0:
487,62,46480,2,0,B|498:141|498:141|500:147|500:147|512:224,1,165,6|0,1:2|0:0,0:0:0:0:
423,296,46855,2,0,L|476:284,1,55,6|0,1:2|0:0,0:0:0:0:
493,354,47042,2,0,L|430:368,1,55,8|0,0:1|0:0,0:0:0:0:
335,358,47230,2,0,P|311:344|297:321,3,55,6|0|2|0,1:2|1:2|1:2|1:2,0:0:0:0:
331,258,47605,2,0,P|330:230|344:207,3,55,6|0|2|0,1:2|1:2|1:2|1:2,0:0:0:0:
403,167,47980,2,0,B|392:106|392:106|392:100|392:100|380:28|380:28|302:43,1,220,6|6,1:2|1:2,0:0:0:0:
55,68,48730,5,4,1:3:0:0:
26,86,48823,1,2,0:0:0:0:
44,115,48917,1,2,0:0:0:0:
73,97,49011,1,2,0:0:0:0:
49,91,49105,1,2,0:0:0:0:
147,216,49292,1,2,0:0:0:0:
175,234,49386,1,2,0:0:0:0:
157,263,49480,1,10,0:1:0:0:
128,244,49573,1,2,0:0:0:0:
152,239,49667,1,2,0:0:0:0:
0,354,49855,2,2,B|46:354|65:310|65:310|50:355|83:384,1,165,4|0,0:1|0:0,0:1:0:0:
209,320,50230,1,2,0:0:0:0:
132,335,50417,1,2,0:0:0:0:
95,158,50605,1,4,1:3:0:0:
172,143,50792,1,2,0:0:0:0:
152,239,50980,1,10,0:1:0:0:
152,239,51167,1,2,0:0:0:0:
0,354,51355,2,0,P|24:351|45:338,1,49.5,2|0,0:2|0:0,0:0:0:0:
54,337,51448,2,0,P|69:318|75:294,1,49.5,2|0,0:2|0:0,0:0:0:0:
80,287,51542,1,2,0:0:0:0:
16,143,51730,1,4,1:3:0:0:
95,158,51917,1,2,0:0:0:0:
93,145,52011,1,2,0:0:0:0:
91,133,52105,1,2,0:0:0:0:
199,65,52292,1,2,0:0:0:0:
197,77,52386,1,2,0:0:0:0:
195,89,52480,1,10,0:1:0:0:
98,26,52667,1,2,0:0:0:0:
96,13,52761,1,2,0:0:0:0:
94,1,52855,1,2,0:0:0:0:
195,89,53042,1,10,3:1:0:0:
173,160,53230,1,2,0:0:0:0:
173,160,53417,1,2,0:0:0:0:
16,143,53605,1,4,1:3:0:0:
38,72,53792,1,2,0:0:0:0:
151,231,53980,1,10,0:1:0:0:
112,290,54167,1,2,0:0:0:0:
114,298,54261,1,2,0:0:0:0:
117,307,54355,1,2,0:0:0:0:
88,367,54542,1,2,0:0:0:0:
295,320,54730,6,0,L|348:305,1,55,4|2,1:3|0:0,0:0:0:0:
411,331,54917,2,0,L|425:384,2,55,2|2|2,0:0|0:0|0:0,0:0:0:0:
511,186,55292,2,0,L|457:171,1,55,2|2,0:0|0:0,0:0:0:0:
392,191,55480,2,0,L|377:244,2,55,10|2|2,0:1|0:0|0:0,0:0:0:0:
294,114,55855,2,0,P|311:40|387:46,1,165,2|0,0:0|0:0,0:0:0:0:
438,1,56230,2,0,B|427:50|427:50|427:55|427:55|415:109,1,110,2|2,0:0|0:0,0:0:0:0:
339,206,56605,2,2,L|392:191,1,55,4|0,1:3|0:0,0:1:0:0:
458,172,56792,2,0,L|472:225,1,55,2|0,0:0|0:0,0:0:0:0:
492,291,56980,2,0,L|438:305,1,55,10|0,0:1|0:0,0:0:0:0:
373,325,57167,2,0,L|358:271,1,55,2|0,0:0|0:0,0:0:0:0:
284,169,57355,2,0,B|334:178|334:178|338:181|338:181|392:191,2,110,2|2|4,0:0|0:0|1:3,0:0:0:0:
322,55,57917,2,0,P|337:32|337:5,2,55,2|2|2,0:0|0:0|0:0,0:0:0:0:
487,110,58292,2,0,P|468:90|463:63,2,55,2|2|10,0:0|0:0|0:1,0:0:0:0:
284,169,58667,2,0,P|309:159|325:137,2,55,2|2|2,0:0|0:0|0:0,0:0:0:0:
446,259,59042,2,0,P|393:263|378:313,2,110,10|2|2,3:1|0:0|0:0,0:0:0:0:
498,343,59605,2,2,L|445:330,1,55,4|0,1:3|0:0,0:1:0:0:
377,312,59792,2,0,L|324:299,1,55,2|0,0:0|0:0,0:0:0:0:
284,169,59980,2,0,B|334:157|334:157|342:158|342:158|404:144,1,110,10|2,0:1|0:0,0:0:0:0:
407,151,60261,2,0,L|478:135,1,55,2|2,0:0|0:2,0:0:0:0:
375,42,60542,2,0,L|322:55,1,55,2|0,0:0|0:0,0:0:0:0:
116,198,60730,5,4,1:3:0:0:
118,181,60823,1,0,0:0:0:0:
120,165,60917,1,2,0:0:0:0:
52,172,61105,1,2,0:0:0:0:
184,190,61292,1,2,0:0:0:0:
8,120,61480,1,10,0:1:0:0:
10,103,61573,1,2,0:0:0:0:
12,87,61667,1,2,0:0:0:0:
14,70,61761,1,2,0:0:0:0:
16,54,61855,1,2,0:0:0:0:
66,11,62042,1,2,0:0:0:0:
16,54,62230,1,2,0:0:0:0:
177,68,62417,1,0,1:2:0:0:
52,172,62605,1,4,1:3:0:0:
52,172,62792,1,0,0:0:0:0:
66,11,62980,1,10,0:1:0:0:
177,68,63167,1,2,0:0:0:0:
82,117,63355,1,2,0:0:0:0:
111,61,63542,1,8,3:0:0:0:
130,372,63730,1,4,1:3:0:0:
69,327,63917,1,2,0:0:0:0:
55,325,64011,1,2,0:0:0:0:
41,328,64105,1,2,0:0:0:0:
160,306,64292,1,4,1:3:0:0:
171,296,64386,1,2,0:0:0:0:
184,292,64480,1,10,0:1:0:0:
49,256,64667,1,2,0:0:0:0:
38,249,64761,1,2,0:0:0:0:
29,236,64855,1,4,1:3:0:0:
75,109,65042,1,10,3:1:0:0:
75,109,65230,1,2,0:0:0:0:
133,145,65417,1,2,1:2:0:0:
38,167,65605,1,4,1:3:0:0:
16,72,65792,1,2,0:0:0:0:
111,50,65980,1,10,0:1:0:0:
133,145,66167,1,2,0:0:0:0:
146,147,66261,1,2,0:0:0:0:
160,150,66355,1,2,0:0:0:0:
177,212,66542,1,2,1:2:0:0:
373,169,66730,6,2,P|395:154|406:129,1,55,4|0,1:3|0:0,0:1:0:0:
460,83,66917,2,0,P|458:55|442:34,1,55,2|0,0:0|0:0,0:0:0:0:
320,0,67105,2,0,B|330:50|330:50|330:57|330:57|342:107,1,110,2|2,0:0|0:0,0:0:0:0:
489,166,67480,2,0,L|474:229,1,55,10|2,0:1|0:0,0:0:0:0:
416,250,67667,2,0,L|353:235,1,55,2|2,0:0|0:0,0:0:0:0:
323,290,67855,2,0,B|341:361|341:361|375:375,2,110,2|2|2,0:0|0:0|0:0,0:0:0:0:
288,120,68417,2,0,L|351:105,1,55,2|0,1:2|0:0,0:0:0:0:
320,0,68605,2,2,B|336:19|336:19|419:35,1,110,4|2,1:3|0:0,0:1:0:0:
512,182,68980,2,0,P|486:189|469:211,1,55,10|0,0:1|0:0,0:0:0:0:
416,250,69167,2,0,P|409:276|420:301,1,55,2|0,0:0|0:0,0:0:0:0:
495,363,69355,2,0,B|446:368|446:368|442:371|442:371|386:378,2,110,2|8|4,0:0|3:0|1:3,0:0:0:0:
362,237,69917,2,0,L|415:249,2,55,2|2|2,0:0|0:0|0:0,0:0:0:0:
302,125,70292,2,0,L|289:178,2,55,2|2|10,0:0|0:0|0:1,0:0:0:0:
447,115,70667,2,0,L|393:102,1,55,2|2,0:0|0:0,0:0:0:0:
323,44,70855,2,0,B|331:19|331:19|413:4,2,110,4|10|2,1:3|3:1|0:0,0:0:0:0:
289,178,71417,2,0,P|314:187|329:209,1,55,2|0,1:2|0:0,0:0:0:0:
447,115,71605,2,2,B|434:165|434:165|433:171|433:171|421:221,2,110,4|2|10,1:3|0:0|0:1,0:1:0:0:
505,305,72167,2,0,L|447:317,1,55,4|2,1:3|0:0,0:0:0:0:
419,379,72355,2,0,L|311:357,1,110,2|2,0:0|1:2,0:0:0:0:
79,287,72730,5,6,1:2:0:0:
79,287,72917,1,2,0:0:0:0:
8,264,73105,1,2,1:2:0:0:
135,236,73292,1,2,0:2:0:0:
95,360,73480,1,2,1:2:0:0:
79,287,73667,1,2,0:2:0:0:
79,287,73855,1,2,1:2:0:0:
225,313,74042,1,2,0:0:0:0:
223,305,74136,1,2,0:0:0:0:
208,226,74230,1,2,1:2:0:0:
204,208,74323,1,2,0:0:0:0:
200,190,74417,1,2,0:0:0:0:
197,172,74511,1,2,0:0:0:0:
170,156,74605,1,2,1:2:0:0:
152,159,74698,1,2,0:0:0:0:
134,163,74792,1,2,0:0:0:0:
226,90,74980,1,2,1:2:0:0:
226,90,75355,1,2,1:2:0:0:
22,53,75730,1,2,1:2:0:0:
22,53,75917,1,2,0:0:0:0:
123,145,76105,1,2,1:2:0:0:
153,11,76292,1,2,0:2:0:0:
22,53,76480,1,2,1:2:0:0:
111,73,76667,1,2,0:2:0:0:
200,93,76855,1,2,1:2:0:0:
200,93,77230,1,2,1:2:0:0:
214,162,77417,1,2,0:0:0:0:
46,197,77605,1,2,1:2:0:0:
32,128,77792,1,2,0:0:0:0:
123,145,77980,1,2,1:2:0:0:
0,354,78355,2,0,B|46:354|65:310|65:310|50:355|83:384,1,165,4|0,1:1|0:0,0:0:0:0:
305,288,78730,6,0,L|292:234,1,55,6|0,1:2|0:0,0:0:0:0:
305,288,78917,2,0,L|292:234,1,55,2|0,0:0|0:0,0:0:0:0:
333,181,79105,2,0,L|386:193,1,55,2|0,1:2|0:0,0:0:0:0:
402,261,79292,2,0,L|455:273,1,55,2|0,0:0|0:0,0:0:0:0:
506,168,79480,2,0,P|480:157|466:135,1,55,2|0,1:2|0:0,0:0:0:0:
405,111,79667,2,0,P|401:84|413:59,1,55,2|0,0:0|0:0,0:0:0:0:
458,9,79855,2,0,L|512:0,1,55,2|0,1:2|0:0,0:0:0:0:
458,9,80042,2,0,L|512:0,1,55,2|0,0:0|0:0,0:0:0:0:
405,111,80230,2,0,L|351:120,2,55,2|2|2,1:2|0:0|0:0,0:0:0:0:
298,170,80511,2,0,L|289:224,2,55,2|2|2,0:0|1:2|0:0,0:0:0:0:
347,270,80792,2,0,L|401:261,1,55,2|0,0:0|0:0,0:0:0:0:
471,284,80980,2,0,B|485:232|485:232|451:187|451:187|466:135,1,165,2|0,1:2|0:0,0:0:0:0:
466,135,81355,2,0,B|451:187|451:187|485:232|485:232|471:284,1,165,2|0,1:2|0:0,0:0:0:0:
508,373,81730,2,0,L|421:393,1,55,2|0,1:2|0:0,0:0:0:0:
508,373,81917,2,0,L|421:393,1,55,2|0,0:2|0:0,0:0:0:0:
404,344,82105,2,0,L|384:257,1,55,2|0,1:2|0:0,0:0:0:0:
341,249,82292,2,0,L|254:269,1,55,2|0,0:0|0:0,0:0:0:0:
314,375,82480,2,0,L|326:321,1,55,2|0,1:2|0:0,0:0:0:0:
341,249,82667,2,0,L|361:162,1,55,2|0,0:0|0:0,0:0:0:0:
293,132,82855,2,0,B|306:107|306:107|440:82,1,165,2|0,1:2|0:0,0:0:0:0:
512,71,83230,2,0,L|482:206,1,110,2|2,0:0|0:0,0:0:0:0:
293,132,83605,2,0,L|323:-3,1,110,2|2,0:0|0:0,0:0:0:0:
440,82,83980,2,0,B|417:183|417:183|424:203|424:203|402:301,1,220,2|2,0:0|0:0,0:0:0:0:
