osu file format v14

[General]
AudioFilename: audio.mp3
AudioLeadIn: 0
PreviewTime: 23977
Countdown: 0
SampleSet: Soft
StackLeniency: 0.7
Mode: 0
LetterboxInBreaks: 0
WidescreenStoryboard: 1

[Editor]
Bookmarks: 13310,23977,34644,45310,55977,66644,77310,87977,98644,109310,119977
DistanceSpacing: 1
BeatDivisor: 4
GridSize: 16
TimelineZoom: 1.8

[Metadata]
Title:M.I.L.F
TitleUnicode:M.I.L.F
Artist:Kawai Sprite
ArtistUnicode:Kawai Sprite
Creator:[-Evil-]
Version:Eula's Normal
Source:Friday Night Funkin'
Tags:MILF M_I_L_F Mother Mom Boyfriend Crissa Eula- kanocchi - Frontier - ohm002 OST Original Soundtrack VideoGame Video Game VGM Instrumental Newgrounds Isaac Garcia Monica Franco SrPelo Electronic FNF ninjamuffin99 PhantomArcade evilsk8r
BeatmapID:2913766
BeatmapSetID:1398983

[Difficulty]
HPDrainRate:4
CircleSize:3.2
OverallDifficulty:5
ApproachRate:5.5
SliderMultiplier:1.2
SliderTickRate:1

[Events]
//Background and Video events
0,0,"7043b23d2b703e4a5e705bff6533409ce35c1792_s2_n1.jpg",0,0
//Break Periods
2,13510,17519
2,109510,113519
//Storyboard Layer 0 (Background)
//Storyboard Layer 1 (Fail)
//Storyboard Layer 2 (Pass)
//Storyboard Layer 3 (Foreground)
//Storyboard Layer 4 (Overlay)
//Storyboard Sound Samples

[TimingPoints]
-22,333.333333333333,4,2,1,5,1,0
644,-100,4,2,1,10,0,0
977,-100,4,2,1,20,0,0
1310,-100,4,2,1,30,0,0
1644,-100,4,2,1,40,0,0
1977,-100,4,2,1,50,0,0
2644,-100,4,2,1,60,0,0
13311,-100,4,2,1,45,0,0
18644,-100,4,2,1,55,0,0
22644,-100,4,2,1,60,0,0
23977,-100,4,2,1,70,0,0
45310,-100,4,2,3,50,0,0
50644,-100,4,2,3,55,0,0
54644,-100,4,2,3,60,0,0
55977,-90.9090909090909,4,2,2,80,0,1
56060,-90.9090909090909,4,2,2,80,0,1
66644,-100,4,2,1,70,0,0
87977,-100,4,2,1,65,0,0
98644,-100,4,2,1,60,0,0
109310,-100,4,2,1,40,0,0
114644,-111.111111111111,4,2,1,40,0,0
119977,-125,4,2,1,30,0,0
120810,-125,4,2,1,5,0,0

[Colours]
Combo1 : 255,28,28
Combo2 : 159,0,0
Combo3 : 188,132,189
Combo4 : 241,20,53
Combo5 : 0,255,255
Combo6 : 64,64,255

[HitObjects]
256,192,311,12,0,1977,0:0:0:0:
17,137,2644,5,6,1:2:0:0:
64,247,2977,1,2,1:2:0:0:
163,179,3311,2,0,L|177:77,2,90,2|2|2,1:2|0:0|0:0,0:0:0:0:
269,234,4144,6,0,L|244:310,1,60,2|0,0:0|1:2,0:0:0:0:
225,345,4477,1,2,0:0:0:0:
169,322,4644,2,0,L|90:330,2,60,2|2|2,1:2|0:0|1:2,0:0:0:0:
169,202,5310,5,2,1:2:0:0:
277,253,5644,1,2,1:2:0:0:
387,206,5977,2,0,P|413:171|402:115,2,90,2|2|2,1:2|0:0|0:0,0:0:0:0:
277,253,6810,54,0,L|200:247,1,60,2|0,0:0|1:2,0:0:0:0:
177,294,7144,1,2,0:0:0:0:
122,269,7310,2,0,L|111:193,1,60,2|2,1:2|0:0,0:0:0:0:
61,177,7644,2,0,L|1:195,2,60,2|2|2,1:2|0:0|1:2,0:0:0:0:
84,59,8310,37,10,0:0:0:0:
187,119,8644,2,0,P|233:113|257:66,2,90,2|2|2,1:2|0:0|0:0,0:0:0:0:
82,176,9477,2,0,L|108:300,1,120,2|2,0:0|0:0,0:0:0:0:
125,350,9977,2,0,L|192:333,1,60,2|2,1:2|0:0,0:0:0:0:
225,292,10310,2,0,L|292:309,1,60,10|2,0:0|0:0,0:0:0:0:
318,355,10644,5,2,1:2:0:0:
405,272,10977,1,10,0:0:0:0:
350,165,11311,2,0,P|347:106|369:83,2,90,2|2|2,1:2|0:0|0:0,0:0:0:0:
408,181,11977,5,4,1:2:0:0:
304,241,12310,1,12,0:0:0:0:
194,191,12644,2,0,L|181:125,1,60,6|2,1:2|0:0,0:0:0:0:
236,106,12977,2,0,L|258:40,1,60,14|2,0:0|1:2,0:0:0:0:
221,0,13310,5,2,1:2:0:0:
473,60,18644,38,0,L|451:187,1,120,6|0,1:2|1:0,0:0:0:0:
342,130,19310,2,0,L|363:265,1,120,0|2,1:0|1:2,0:0:0:0:
241,233,19977,2,0,L|298:350,1,120,0|0,1:0|1:0,0:0:0:0:
411,366,20644,1,0,1:0:0:0:
448,252,20977,1,0,1:0:0:0:
479,136,21310,6,0,L|341:111,1,120,0|2,1:0|1:2,0:0:0:0:
352,234,21977,2,0,L|257:131,1,120,2|2,1:2|1:2,0:0:0:0:
234,105,22477,1,0,1:2:0:0:
234,105,22644,6,0,L|248:45,2,60,2|2|2,1:2|1:2|1:2,0:0:0:0:
135,173,23310,2,0,L|156:248,2,60,2|2|2,1:2|1:2|1:2,0:0:0:0:
83,153,23810,1,2,1:2:0:0:
83,153,23977,6,0,P|71:107|97:72,2,90,6|2|2,1:2|0:0|0:0,0:0:0:0:
135,173,24644,2,0,L|242:146,1,90,2|2,1:2|0:0,0:0:0:0:
308,125,25144,1,2,0:0:0:0:
296,244,25477,6,0,L|228:228,2,60,2|10|2,0:0|0:0|0:0,0:0:0:0:
321,298,25977,2,0,L|430:277,2,90,2|2|2,1:2|0:0|0:0,0:0:0:0:
289,349,26644,1,0,1:2:0:0:
170,363,26977,1,10,0:0:0:0:
69,296,27311,2,0,P|39:253|49:210,1,90,2|2,1:2|0:0,0:0:0:0:
126,180,27810,6,0,P|170:211|174:275,1,120,2|2,0:0|0:0,0:0:0:0:
148,327,28310,1,10,0:0:0:0:
263,361,28644,2,0,L|389:335,1,120,2|10,1:2|0:0,0:0:0:0:
441,360,29144,1,2,1:2:0:0:
441,360,29310,5,6,1:2:0:0:
456,240,29644,1,8,0:0:0:0:
368,157,29977,2,0,P|339:188|334:241,2,90,2|2|2,1:2|0:0|0:0,0:0:0:0:
423,133,30644,5,0,1:0:0:0:
373,23,30977,1,10,0:0:0:0:
268,81,31310,2,0,P|225:74|205:33,2,90,2|2|2,1:2|0:0|0:0,0:0:0:0:
300,131,31977,5,0,1:0:0:0:
240,235,32310,1,10,0:0:0:0:
119,235,32644,2,0,L|97:148,1,90,2|2,1:2|0:0,0:0:0:0:
131,64,33144,54,0,P|186:67|203:139,1,120,2|2,1:2|0:0,0:0:0:0:
198,180,33644,1,2,1:2:0:0:
303,237,33977,1,2,1:2:0:0:
392,156,34310,2,0,L|374:95,1,60,2|2,1:2|1:2,0:0:0:0:
349,43,34644,38,0,P|245:50|292:151,1,240,6|0,1:2|1:2,0:0:0:0:
394,181,35644,2,0,P|409:214|405:251,1,60,10|2,0:0|0:0,0:0:0:0:
394,295,35977,1,2,1:2:0:0:
282,339,36310,1,10,0:0:0:0:
186,265,36644,1,2,1:2:0:0:
239,157,36977,2,0,L|256:224,1,60,10|2,0:0|0:0,0:0:0:0:
311,232,37310,6,0,L|288:297,2,60,2|2|10,1:2|0:0|0:0,0:0:0:0:
359,341,37977,2,0,L|422:326,2,60,2|2|10,1:2|0:0|0:0,0:0:0:0:
408,231,38644,1,2,1:2:0:0:
366,118,38977,5,10,0:0:0:0:
249,89,39310,2,0,L|268:210,1,120,2|10,1:2|0:0,0:0:0:0:
258,270,39810,1,0,1:0:0:0:
258,270,39977,6,0,P|189:312|164:190,1,240,6|0,1:2|1:0,0:0:0:0:
263,144,40977,2,0,L|280:68,1,60,10|2,0:0|0:0,0:0:0:0:
243,35,41310,1,2,1:2:0:0:
362,25,41644,1,10,0:0:0:0:
434,120,41977,1,2,1:2:0:0:
412,238,42310,2,0,L|345:225,1,60,10|2,0:0|0:0,0:0:0:0:
312,271,42644,6,0,L|319:342,2,60,2|2|10,1:2|0:0|0:0,0:0:0:0:
222,191,43310,1,2,1:2:0:0:
120,255,43644,2,0,L|52:241,1,60,10|2,0:0|1:2,0:0:0:0:
26,194,43977,2,0,L|19:127,2,60,2|2|2,1:2|1:2|1:2,0:0:0:0:
0,312,44644,1,2,1:2:0:0:
46,349,44810,1,0,1:2:0:0:
104,335,44977,1,2,1:2:0:0:
145,221,45310,22,0,B|214:211|214:211|271:244|271:244|378:227,1,240,6|0,1:2|1:0,0:0:0:0:
440,128,46310,2,0,L|454:195,1,60,2|2,0:0|0:0,0:0:0:0:
511,186,46644,2,0,L|480:323,1,120,0|8,1:0|0:0,0:0:0:0:
470,361,47144,2,0,P|408:366|393:265,1,180,2|8,1:2|0:0,0:0:0:0:
466,176,47977,6,0,P|501:139|477:75,1,120,0|10,1:0|0:0,0:0:0:0:
363,61,48644,2,0,P|327:97|351:161,1,120,2|2,1:2|0:0,0:0:0:0:
398,265,49310,2,0,L|476:278,2,60,2|2|10,1:2|0:0|0:0,0:0:0:0:
283,229,49977,2,0,L|296:304,2,60,2|2|10,0:0|1:2|0:0,0:0:0:0:
266,108,50644,22,0,P|254:57|177:28,1,120,6|8,0:0|0:0,0:0:0:0:
104,102,51310,2,0,P|116:153|193:182,1,120,0|2,1:0|0:0,0:0:0:0:
236,189,51810,1,2,0:0:0:0:
236,189,51977,6,0,B|276:232|232:251|284:297,1,120,0|8,1:0|0:0,0:0:0:0:
396,330,52644,2,0,B|416:274|368:274|398:211,1,120,0|8,0:0|0:0,0:0:0:0:
444,176,53144,1,2,0:0:0:0:
444,176,53310,6,0,L|426:45,1,120,0|10,1:0|0:0,0:0:0:0:
335,134,53977,2,0,L|217:117,1,120,2|2,0:0|0:0,0:0:0:0:
168,151,54477,1,0,0:0:0:0:
168,151,54644,1,2,0:0:0:0:
43,320,55977,6,0,L|24:232,2,66.0000020141602,2|2|2,1:2|0:0|1:2,0:0:0:0:
163,375,56644,2,0,L|174:305,2,66.0000020141602,2|2|2,1:2|0:0|1:2,0:0:0:0:
290,340,57310,6,0,L|363:332,2,66.0000020141602,2|2|2,1:2|0:0|1:2,0:0:0:0:
390,253,57977,2,0,L|463:261,2,66.0000020141602,2|2|2,1:2|0:0|1:2,0:0:0:0:
298,157,58644,6,0,P|283:119|289:91,1,66.0000020141602,2|2,1:2|0:0,0:0:0:0:
316,35,58977,1,2,1:2:0:0:
441,76,59310,2,0,P|455:105|451:137,1,66.0000020141602,2|2,1:2|0:0,0:0:0:0:
417,194,59644,1,2,1:2:0:0:
302,259,59977,54,0,L|164:244,1,132.00000402832,2|2,1:2|1:2,0:0:0:0:
51,302,60644,2,0,L|66:164,1,132.00000402832,2|2,1:2|1:2,0:0:0:0:
33,42,61310,38,0,P|67:61|96:57,1,66.0000020141602,2|2,1:2|0:0,0:0:0:0:
155,35,61644,1,2,1:2:0:0:
226,145,61977,2,0,P|257:115|294:115,1,66.0000020141602,2|2,1:2|0:0,0:0:0:0:
343,125,62310,1,2,1:2:0:0:
459,187,62644,6,0,L|448:266,2,66.0000020141602,2|2|2,1:2|0:0|1:2,0:0:0:0:
343,125,63310,2,0,L|332:46,2,66.0000020141602,2|2|2,1:2|0:0|1:2,0:0:0:0:
266,232,63977,6,0,L|197:248,1,66.0000020141602,2|2,1:2|0:0,0:0:0:0:
139,267,64310,1,2,1:2:0:0:
56,163,64644,2,0,L|125:147,1,66.0000020141602,2|2,1:2|0:0,0:0:0:0:
183,128,64977,1,2,1:2:0:0:
266,231,65310,53,2,1:2:0:0:
367,147,65644,1,2,1:2:0:0:
455,244,65977,2,0,L|465:318,2,66.0000020141602,2|2|2,1:2|0:0|1:2,0:0:0:0:
505,134,66644,38,0,P|490:94|434:80,2,90,6|2|2,1:2|0:0|0:0,0:0:0:0:
494,193,67310,2,0,L|463:292,1,90,2|2,1:2|0:0,0:0:0:0:
437,363,67810,1,2,0:0:0:0:
329,321,68144,5,2,0:0:0:0:
329,321,68310,1,10,0:0:0:0:
278,211,68644,2,0,P|277:169|314:136,2,90,2|2|2,1:2|0:0|0:0,0:0:0:0:
199,302,69477,1,2,0:0:0:0:
199,302,69644,2,0,L|117:283,1,60,10|0,0:0|0:0,0:0:0:0:
85,313,69977,2,0,L|66:206,1,90,2|2,1:2|0:0,0:0:0:0:
13,153,70477,6,0,P|13:103|92:89,1,120,2|2,0:0|0:0,0:0:0:0:
124,106,70977,1,10,0:0:0:0:
227,165,71310,2,0,L|240:100,2,60,2|2|10,1:2|0:0|0:0,0:0:0:0:
164,267,71977,6,0,P|201:291|252:283,2,90,6|2|2,1:2|0:0|0:0,0:0:0:0:
121,224,72644,2,0,L|107:127,1,90,2|2,1:2|0:0,0:0:0:0:
90,40,73144,1,2,0:0:0:0:
197,105,73477,5,2,0:0:0:0:
197,105,73644,2,0,L|265:91,1,60,10|2,0:0|0:0,0:0:0:0:
315,99,73977,2,0,P|338:144|328:184,2,90,2|2|2,1:2|0:0|0:0,0:0:0:0:
237,15,74810,1,2,0:0:0:0:
237,15,74977,1,10,0:0:0:0:
128,65,75310,6,0,L|110:166,1,90,2|2,1:2|0:0,0:0:0:0:
41,207,75810,1,2,1:2:0:0:
41,207,75977,2,0,L|57:281,2,60,0|2|2,1:2|1:2|1:2,0:0:0:0:
17,89,76644,1,2,1:2:0:0:
123,33,76977,2,0,L|186:30,1,60,2|2,1:2|1:2,0:0:0:0:
238,6,77310,6,0,B|222:73|222:73|261:135|261:135|235:250,1,240,6|0,1:2|1:0,0:0:0:0:
287,340,78310,2,0,L|369:319,1,60,10|2,0:0|0:0,0:0:0:0:
395,357,78644,2,0,L|364:230,1,120,2|10,1:2|0:0,0:0:0:0:
484,217,79310,2,0,L|373:130,1,120,2|10,1:2|0:0,0:0:0:0:
334,35,79977,6,0,L|409:26,2,60,2|2|10,1:2|0:0|0:0,0:0:0:0:
239,108,80644,2,0,L|164:99,2,60,2|2|10,1:2|0:0|0:0,0:0:0:0:
310,204,81310,2,0,L|441:175,1,120,2|10,1:2|0:0,0:0:0:0:
414,297,81977,2,0,L|296:322,1,120,2|2,1:2|1:2,0:0:0:0:
241,316,82477,1,0,1:0:0:0:
241,316,82644,22,0,P|206:258|230:195,1,120,6|10,1:2|0:0,0:0:0:0:
107,162,83310,2,0,P|142:103|202:95,1,120,2|10,1:2|0:0,0:0:0:0:
251,110,83810,1,2,0:0:0:0:
251,110,83977,6,0,B|308:128|303:82|366:104,1,120,2|10,1:2|0:0,0:0:0:0:
411,216,84644,2,0,B|353:234|358:188|295:210,1,120,2|10,1:2|0:0,0:0:0:0:
189,268,85310,2,0,L|202:340,2,60,2|2|10,1:2|0:0|0:0,0:0:0:0:
147,232,85810,1,2,0:0:0:0:
147,232,85977,2,0,L|160:160,2,60,2|2|10,1:2|0:0|0:0,0:0:0:0:
47,299,86644,6,0,P|15:285|23:193,1,120,2|2,1:2|1:2,0:0:0:0:
95,128,87310,1,2,1:2:0:0:
50,16,87644,2,0,L|114:25,1,60,2|0,1:2|1:0,0:0:0:0:
169,32,87977,5,6,1:2:0:0:
206,146,88310,1,10,0:0:0:0:
306,79,88644,2,0,P|338:86|360:143,2,90,2|2|2,1:2|0:0|0:0,0:0:0:0:
206,146,89477,2,0,L|185:275,1,120,2|2,0:0|0:0,0:0:0:0:
176,323,89977,1,0,1:0:0:0:
288,282,90310,1,10,0:0:0:0:
378,361,90644,5,2,1:2:0:0:
418,248,90977,1,10,0:0:0:0:
459,135,91310,2,0,P|434:98|382:95,2,90,2|2|2,1:2|0:0|0:0,0:0:0:0:
508,169,91977,5,2,1:2:0:0:
418,248,92310,2,0,L|430:328,1,60,10|2,0:0|0:0,0:0:0:0:
439,366,92644,1,2,1:2:0:0:
330,315,92977,1,10,0:0:0:0:
272,331,93144,1,2,1:2:0:0:
213,345,93310,6,0,L|194:224,1,120,6|10,1:2|0:0,0:0:0:0:
156,112,93977,2,0,L|285:134,2,120,2|10|0,1:2|0:0|1:0,0:0:0:0:
57,181,94977,1,8,0:0:0:0:
107,289,95310,2,0,L|229:261,1,120,0|10,1:0|0:0,0:0:0:0:
312,343,95977,5,2,1:2:0:0:
364,235,96310,1,10,0:0:0:0:
423,130,96644,2,0,P|398:85|315:94,1,120,2|10,1:2|0:0,0:0:0:0:
234,144,97310,1,2,1:2:0:0:
117,172,97644,1,2,1:2:0:0:
43,77,97977,2,0,L|38:11,2,60,2|2|2,1:2|0:0|1:2,0:0:0:0:
17,194,98644,22,0,B|81:186|69:230|127:227,2,120,6|0|0,1:2|1:0|1:0,0:0:0:0:
3,313,99644,1,2,1:2:0:0:
112,360,99977,2,0,L|231:331,1,120,0|0,1:0|1:0,0:0:0:0:
289,356,100477,1,2,0:0:0:0:
289,356,100644,2,0,L|262:223,1,120,0|0,1:0|1:0,0:0:0:0:
337,143,101310,6,0,P|393:152|403:215,1,120,0|2,1:0|1:2,0:0:0:0:
334,302,101977,2,0,P|278:293|268:230,1,120,2|2,1:2|1:2,0:0:0:0:
337,143,102644,1,2,1:2:0:0:
289,32,102977,1,2,1:2:0:0:
169,24,103310,1,2,1:2:0:0:
109,128,103644,1,2,1:2:0:0:
115,187,103810,1,2,1:2:0:0:
169,211,103977,22,0,P|199:241|85:275,1,240,6|0,1:2|1:0,0:0:0:0:
58,165,104977,1,2,1:2:0:0:
145,83,105310,2,0,B|203:60|203:107|264:83,1,120,0|0,1:0|1:0,0:0:0:0:
319,62,105810,1,2,0:0:0:0:
319,62,105977,2,0,P|363:72|361:143,1,120,0|0,1:0|1:0,0:0:0:0:
270,209,106644,6,0,P|283:271|304:340,1,120,0|2,1:0|1:2,0:0:0:0:
409,372,107310,2,0,P|444:293|459:244,1,120,2|2,1:2|1:2,0:0:0:0:
461,205,107810,1,0,1:0:0:0:
461,205,107977,2,0,P|439:175|424:146,1,60,2|2,1:2|1:2,0:0:0:0:
416,96,108310,1,2,1:2:0:0:
323,173,108644,2,0,P|280:184|257:185,1,60,2|2,1:2|1:2,0:0:0:0:
217,222,108977,2,0,P|176:202|158:188,1,60,2|2,1:2|1:2,0:0:0:0:
132,142,109310,21,2,0:0:0:0:
40,56,114644,38,0,P|71:33|121:45,2,80.9999975280763,2|2|2,0:0|0:0|0:0,0:0:0:0:
17,105,115311,2,0,L|45:201,1,80.9999975280763,2|2,0:0|0:0,0:0:0:0:
65,259,115810,1,2,0:0:0:0:
172,270,116144,6,0,L|186:200,2,53.9999983520508,2|2|2,0:0|0:0|0:0,0:0:0:0:
198,317,116644,2,0,L|287:300,2,80.9999975280763,2|2|2,0:0|0:0|0:0,0:0:0:0:
112,382,117477,1,2,0:0:0:0:
112,382,117644,1,2,0:0:0:0:
30,311,117977,2,0,P|23:265|47:233,2,80.9999975280763,2|2|2,0:0|0:0|0:0,0:0:0:0:
135,287,118810,5,2,0:0:0:0:
135,287,118977,2,0,L|203:297,1,53.9999983520508,2|2,0:0|0:0,0:0:0:0:
230,328,119310,2,0,L|215:214,1,107.999996704102,2|2,0:0|0:0,0:0:0:0:
243,176,119810,1,2,0:0:0:0:
243,176,119977,54,0,B|283:138|362:149|339:203|420:226|465:179,1,240,2|0,0:0|0:0,0:0:0:0:
