osu file format v14

[General]
AudioFilename: audio.mp3
AudioLeadIn: 0
PreviewTime: 11981
Countdown: 0
SampleSet: Normal
StackLeniency: 0
Mode: 1
LetterboxInBreaks: 0
WidescreenStoryboard: 1

[Editor]
Bookmarks: 11981,93435
DistanceSpacing: 2.7
BeatDivisor: 4
GridSize: 32
TimelineZoom: 1.6

[Metadata]
Title:Blammed
TitleUnicode:Blammed
Artist:Kawai Sprite
ArtistUnicode:Kawai Sprite
Creator:Orkay
Version:skolodojko's Muzukashii
Source:Friday Night Funkin'
Tags:video game instrumental electronic breakbeat breakcore vgm fnf ost original soundtrack week three boyfriend pico girlfriend newgrounds skolodojko reficul midnaait 3
BeatmapID:3022551
BeatmapSetID:1408953

[Difficulty]
HPDrainRate:6
CircleSize:2
OverallDifficulty:5
ApproachRate:10
SliderMultiplier:1.4
SliderTickRate:1

[Events]
//Background and Video events
0,0,"bground.png",0,0
//Break Periods
//Storyboard Layer 0 (Background)
//Storyboard Layer 1 (Fail)
//Storyboard Layer 2 (Pass)
//Storyboard Layer 3 (Foreground)
//Storyboard Layer 4 (Overlay)
//Storyboard Sound Samples

[TimingPoints]
345,363.636363636363,4,1,0,60,1,0
35254,-100,4,1,0,70,0,0
46890,-100,4,1,0,80,0,1
70163,-100,4,1,0,70,0,0
81776,-100,4,1,0,60,0,0

[HitObjects]
169,265,11981,5,0,0:0:0:0:
169,265,12163,1,8,0:0:0:0:
169,265,12344,1,8,0:0:0:0:
169,265,12526,1,0,0:0:0:0:
169,265,12708,1,8,0:0:0:0:
169,265,13072,1,0,0:0:0:0:
169,265,13435,1,8,0:0:0:0:
169,265,13617,1,8,0:0:0:0:
169,265,13799,1,0,0:0:0:0:
209,229,13981,1,8,0:0:0:0:
209,229,14072,1,8,0:0:0:0:
209,229,14163,1,8,0:0:0:0:
109,238,14344,1,8,0:0:0:0:
125,241,14526,1,0,0:0:0:0:
147,275,14890,1,0,0:0:0:0:
147,275,15254,1,8,0:0:0:0:
147,275,15435,1,8,0:0:0:0:
147,275,15617,1,0,0:0:0:0:
147,275,15981,1,8,0:0:0:0:
147,275,16163,1,0,0:0:0:0:
155,276,16708,1,8,0:0:0:0:
179,216,16890,1,0,0:0:0:0:
155,276,17072,1,8,0:0:0:0:
176,186,17435,1,0,0:0:0:0:
191,203,17799,1,8,0:0:0:0:
191,203,17981,1,8,0:0:0:0:
191,203,18163,1,0,0:0:0:0:
181,128,18344,1,8,0:0:0:0:
185,207,18526,1,0,0:0:0:0:
184,207,18890,1,8,0:0:0:0:
185,207,19254,1,8,0:0:0:0:
185,207,19435,1,0,0:0:0:0:
184,207,19617,1,0,0:0:0:0:
209,229,19799,1,8,0:0:0:0:
209,229,19890,1,8,0:0:0:0:
209,229,19981,1,8,0:0:0:0:
149,249,20163,1,8,0:0:0:0:
149,249,20344,1,0,0:0:0:0:
149,249,20708,1,0,0:0:0:0:
149,249,20890,1,8,0:0:0:0:
149,249,21072,1,0,0:0:0:0:
149,249,21435,1,8,0:0:0:0:
149,249,21799,1,0,0:0:0:0:
149,249,21981,1,8,0:0:0:0:
149,249,22526,1,0,0:0:0:0:
182,217,22708,1,0,0:0:0:0:
149,249,22890,1,8,0:0:0:0:
149,249,23254,1,0,0:0:0:0:
149,249,23617,1,0,0:0:0:0:
149,249,23799,1,8,0:0:0:0:
149,249,23981,1,8,0:0:0:0:
74,172,24163,1,0,0:0:0:0:
74,172,24344,1,8,0:0:0:0:
223,157,24708,1,0,0:0:0:0:
215,157,24890,1,8,0:0:0:0:
211,157,25254,1,8,0:0:0:0:
206,157,25435,1,0,0:0:0:0:
206,157,25799,1,8,0:0:0:0:
211,157,25981,1,0,0:0:0:0:
201,157,26163,1,8,0:0:0:0:
198,157,26526,1,0,0:0:0:0:
197,157,26890,1,8,0:0:0:0:
201,157,27072,1,8,0:0:0:0:
198,157,27254,1,0,0:0:0:0:
197,157,27617,1,0,0:0:0:0:
197,157,27799,1,8,0:0:0:0:
197,157,28344,1,0,0:0:0:0:
231,207,28526,1,0,0:0:0:0:
190,157,28708,1,8,0:0:0:0:
191,157,29072,1,0,0:0:0:0:
190,157,29435,1,0,0:0:0:0:
190,157,29617,1,8,0:0:0:0:
191,157,29799,1,0,0:0:0:0:
190,157,30163,1,8,0:0:0:0:
190,157,30344,1,8,0:0:0:0:
190,157,30526,1,0,0:0:0:0:
183,157,30708,1,8,0:0:0:0:
176,156,31072,1,0,0:0:0:0:
175,157,31254,1,8,0:0:0:0:
173,157,31617,1,0,0:0:0:0:
176,156,31799,1,8,0:0:0:0:
176,156,31981,1,8,0:0:0:0:
175,157,32163,1,0,0:0:0:0:
173,157,32526,1,8,0:0:0:0:
176,156,32708,1,0,0:0:0:0:
175,157,33072,1,8,0:0:0:0:
173,157,33435,1,0,0:0:0:0:
176,156,33617,1,8,0:0:0:0:
173,157,34163,1,0,0:0:0:0:
176,156,34526,1,8,0:0:0:0:
175,157,34708,1,0,0:0:0:0:
175,157,34890,1,0,0:0:0:0:
173,157,35072,1,8,0:0:0:0:
169,157,35254,1,0,0:0:0:0:
209,229,35435,1,8,0:0:0:0:
209,229,35526,1,8,0:0:0:0:
209,229,35617,1,8,0:0:0:0:
136,217,35981,1,0,0:0:0:0:
136,217,36163,1,8,0:0:0:0:
136,217,36708,1,8,0:0:0:0:
136,217,37072,1,0,0:0:0:0:
209,229,37435,1,8,0:0:0:0:
209,229,37526,1,8,0:0:0:0:
209,229,37617,1,8,0:0:0:0:
125,244,37799,1,0,0:0:0:0:
126,243,37981,1,8,0:0:0:0:
209,229,38163,1,0,0:0:0:0:
206,236,38344,1,8,0:0:0:0:
206,236,38526,1,0,0:0:0:0:
206,236,38890,1,8,0:0:0:0:
206,236,39254,1,0,0:0:0:0:
206,236,39617,1,8,0:0:0:0:
206,236,39981,1,0,0:0:0:0:
206,236,40163,1,0,0:0:0:0:
209,229,40344,1,8,0:0:0:0:
209,229,40435,1,8,0:0:0:0:
209,229,40526,1,8,0:0:0:0:
136,250,40708,1,8,0:0:0:0:
143,267,40890,1,0,0:0:0:0:
172,162,41435,1,0,0:0:0:0:
172,162,41799,1,8,0:0:0:0:
172,162,41981,1,8,0:0:0:0:
172,162,42163,1,0,0:0:0:0:
172,162,42526,1,8,0:0:0:0:
172,162,42890,1,0,0:0:0:0:
172,162,43254,1,8,0:0:0:0:
172,162,43617,1,0,0:0:0:0:
172,162,44163,1,8,0:0:0:0:
172,162,44344,1,0,0:0:0:0:
209,229,44526,1,8,0:0:0:0:
209,229,44617,1,8,0:0:0:0:
209,229,44708,1,8,0:0:0:0:
132,237,44890,1,8,0:0:0:0:
132,237,45072,1,0,0:0:0:0:
132,237,45435,1,8,0:0:0:0:
132,237,45799,1,0,0:0:0:0:
209,229,46163,1,0,0:0:0:0:
209,229,46254,1,0,0:0:0:0:
209,229,46344,1,0,0:0:0:0:
195,275,46526,1,8,0:0:0:0:
209,284,46708,1,0,0:0:0:0:
204,249,46890,1,12,0:0:0:0:
204,249,47072,1,8,0:0:0:0:
202,249,47254,1,0,0:0:0:0:
209,229,47435,1,8,0:0:0:0:
209,229,47526,1,8,0:0:0:0:
67,262,47617,1,8,0:0:0:0:
160,296,47981,1,0,0:0:0:0:
181,207,48344,1,8,0:0:0:0:
181,207,48708,1,0,0:0:0:0:
261,169,48890,1,8,0:0:0:0:
181,207,49072,1,0,0:0:0:0:
209,229,49254,1,8,0:0:0:0:
209,229,49344,1,8,0:0:0:0:
209,229,49435,1,8,0:0:0:0:
175,193,49617,1,0,0:0:0:0:
120,242,49799,1,8,0:0:0:0:
267,99,50163,1,0,0:0:0:0:
209,229,50344,1,8,0:0:0:0:
209,229,50435,1,8,0:0:0:0:
209,229,50526,1,8,0:0:0:0:
201,278,50708,1,0,0:0:0:0:
112,243,50890,1,0,0:0:0:0:
169,197,51254,1,8,0:0:0:0:
169,197,51617,1,0,0:0:0:0:
169,197,51799,1,8,0:0:0:0:
169,197,51981,1,0,0:0:0:0:
169,197,52708,1,8,0:0:0:0:
169,197,52890,1,0,0:0:0:0:
169,197,53072,1,8,0:0:0:0:
209,229,53254,1,0,0:0:0:0:
201,266,53344,1,0,0:0:0:0:
209,229,53435,1,0,0:0:0:0:
174,253,53799,1,0,0:0:0:0:
201,188,54163,1,8,0:0:0:0:
201,188,54526,1,0,0:0:0:0:
209,229,54708,1,8,0:0:0:0:
209,229,54890,1,8,0:0:0:0:
195,288,55072,1,0,0:0:0:0:
209,229,55163,1,0,0:0:0:0:
143,230,55254,1,0,0:0:0:0:
143,230,55617,1,8,0:0:0:0:
319,138,55799,1,0,0:0:0:0:
143,230,55981,1,0,0:0:0:0:
209,229,56163,1,8,0:0:0:0:
209,229,56254,1,8,0:0:0:0:
209,229,56344,1,8,0:0:0:0:
157,152,56526,1,0,0:0:0:0:
189,251,56708,1,0,0:0:0:0:
189,251,57072,1,8,0:0:0:0:
224,169,57254,1,0,0:0:0:0:
190,251,57435,1,0,0:0:0:0:
189,251,57617,1,8,0:0:0:0:
189,251,57799,1,0,0:0:0:0:
195,248,58526,1,0,0:0:0:0:
196,248,58708,1,0,0:0:0:0:
197,247,58890,1,8,0:0:0:0:
209,229,59072,1,0,0:0:0:0:
209,229,59163,1,0,0:0:0:0:
209,229,59254,1,0,0:0:0:0:
165,192,59617,1,8,0:0:0:0:
177,232,59981,1,0,0:0:0:0:
177,232,60344,1,8,0:0:0:0:
177,232,60526,1,8,0:0:0:0:
177,232,60708,1,0,0:0:0:0:
209,229,60890,1,8,0:0:0:0:
209,229,60981,1,8,0:0:0:0:
209,229,61072,1,8,0:0:0:0:
67,233,61254,1,0,0:0:0:0:
67,233,61435,1,8,0:0:0:0:
183,178,61799,1,0,0:0:0:0:
183,178,61981,1,8,0:0:0:0:
194,293,62072,1,8,0:0:0:0:
183,178,62163,1,8,0:0:0:0:
184,241,62344,1,0,0:0:0:0:
183,178,62526,1,8,0:0:0:0:
183,178,62890,1,0,0:0:0:0:
183,178,63254,1,8,0:0:0:0:
183,178,63435,1,8,0:0:0:0:
183,178,63617,1,0,0:0:0:0:
151,200,64344,5,0,0:0:0:0:
151,212,64708,1,0,0:0:0:0:
209,229,64890,1,8,0:0:0:0:
176,254,64981,1,8,0:0:0:0:
209,229,65072,1,8,0:0:0:0:
186,277,65254,1,0,0:0:0:0:
156,258,65435,1,8,0:0:0:0:
156,258,65799,1,8,0:0:0:0:
156,258,65981,1,8,0:0:0:0:
156,258,66163,1,0,0:0:0:0:
49,181,66526,1,8,0:0:0:0:
184,243,66708,1,0,0:0:0:0:
185,243,66799,1,0,0:0:0:0:
209,229,66890,1,0,0:0:0:0:
160,210,67254,1,8,0:0:0:0:
163,210,67617,1,0,0:0:0:0:
209,229,67799,1,8,0:0:0:0:
209,229,67890,1,8,0:0:0:0:
209,229,67981,1,8,0:0:0:0:
149,205,68163,1,8,0:0:0:0:
148,206,68344,1,0,0:0:0:0:
148,206,68526,1,0,0:0:0:0:
149,205,68708,1,8,0:0:0:0:
149,205,69072,1,0,0:0:0:0:
148,206,69435,1,8,0:0:0:0:
219,156,69799,1,0,0:0:0:0:
149,205,69981,1,8,0:0:0:0:
319,129,70163,1,0,0:0:0:0:
209,229,70344,1,8,0:0:0:0:
209,229,70435,1,8,0:0:0:0:
209,229,70526,1,8,0:0:0:0:
281,203,70890,1,0,0:0:0:0:
281,203,71072,1,8,0:0:0:0:
281,203,71617,1,0,0:0:0:0:
281,203,71981,1,8,0:0:0:0:
281,203,72344,1,0,0:0:0:0:
281,203,72708,1,8,0:0:0:0:
281,203,72890,1,0,0:0:0:0:
281,203,73254,1,0,0:0:0:0:
281,203,73435,1,8,0:0:0:0:
193,196,73799,1,8,0:0:0:0:
205,252,74163,1,0,0:0:0:0:
205,252,74344,1,8,0:0:0:0:
205,252,74526,1,0,0:0:0:0:
121,265,74890,1,8,0:0:0:0:
209,229,75254,1,0,0:0:0:0:
209,229,75344,1,0,0:0:0:0:
209,229,75435,1,0,0:0:0:0:
151,233,75617,1,8,0:0:0:0:
151,233,75799,1,8,0:0:0:0:
151,233,75981,1,0,0:0:0:0:
151,233,76163,1,8,0:0:0:0:
151,233,76344,1,0,0:0:0:0:
151,233,76708,1,0,0:0:0:0:
151,233,76890,1,8,0:0:0:0:
151,233,77072,1,0,0:0:0:0:
239,226,77435,1,8,0:0:0:0:
239,226,77799,1,0,0:0:0:0:
239,226,78163,1,8,0:0:0:0:
239,226,78526,1,8,0:0:0:0:
239,226,78708,1,0,0:0:0:0:
164,170,79072,1,0,0:0:0:0:
239,226,79254,1,8,0:0:0:0:
209,229,79435,1,8,0:0:0:0:
209,229,79526,1,8,0:0:0:0:
209,229,79617,1,8,0:0:0:0:
127,249,79799,1,0,0:0:0:0:
127,249,79981,1,8,0:0:0:0:
127,249,80344,1,0,0:0:0:0:
127,249,80708,1,8,0:0:0:0:
209,229,81072,1,8,0:0:0:0:
209,229,81163,1,8,0:0:0:0:
209,229,81254,1,8,0:0:0:0:
152,262,81435,1,0,0:0:0:0:
150,260,81617,1,0,0:0:0:0:
146,258,81799,1,8,0:0:0:0:
209,229,81981,1,0,0:0:0:0:
209,229,82072,1,0,0:0:0:0:
209,229,82163,1,0,0:0:0:0:
152,189,82526,1,8,0:0:0:0:
152,189,82708,1,0,0:0:0:0:
152,189,83254,1,8,0:0:0:0:
152,189,83617,1,8,0:0:0:0:
152,189,83981,1,0,0:0:0:0:
152,189,84344,1,8,0:0:0:0:
152,189,84526,1,0,0:0:0:0:
152,189,84708,1,0,0:0:0:0:
209,229,84890,1,8,0:0:0:0:
209,229,84981,1,8,0:0:0:0:
209,229,85072,1,8,0:0:0:0:
118,250,85254,1,0,0:0:0:0:
118,250,85435,1,8,0:0:0:0:
118,250,85617,1,8,0:0:0:0:
118,250,85799,1,0,0:0:0:0:
118,250,86163,1,8,0:0:0:0:
118,250,86526,1,0,0:0:0:0:
209,229,86890,1,0,0:0:0:0:
209,229,86981,1,0,0:0:0:0:
209,229,87072,1,0,0:0:0:0:
178,263,87254,1,8,0:0:0:0:
178,263,87435,1,0,0:0:0:0:
209,229,87799,1,8,0:0:0:0:
209,229,87890,1,8,0:0:0:0:
209,229,87981,1,8,0:0:0:0:
136,232,88344,1,8,0:0:0:0:
136,232,88526,1,8,0:0:0:0:
136,232,88708,1,0,0:0:0:0:
136,232,89072,1,8,0:0:0:0:
136,232,89435,1,0,0:0:0:0:
136,232,89799,1,0,0:0:0:0:
136,232,90163,1,8,0:0:0:0:
136,232,90344,1,8,0:0:0:0:
209,229,90708,1,8,0:0:0:0:
209,229,90799,1,8,0:0:0:0:
209,229,90890,1,8,0:0:0:0:
173,180,91254,1,0,0:0:0:0:
173,180,91435,1,8,0:0:0:0:
173,180,91617,1,0,0:0:0:0:
173,180,91981,1,8,0:0:0:0:
173,180,92344,1,0,0:0:0:0:
209,229,92708,1,8,0:0:0:0:
209,229,92799,1,8,0:0:0:0:
209,229,92890,1,8,0:0:0:0:
161,294,93072,1,8,0:0:0:0:
161,294,93254,1,0,0:0:0:0:
161,294,93435,1,12,0:0:0:0:
