osu file format v14

[General]
AudioFilename: audio.mp3
AudioLeadIn: 0
PreviewTime: 11981
Countdown: 0
SampleSet: Normal
StackLeniency: 0
Mode: 1
LetterboxInBreaks: 0
WidescreenStoryboard: 1

[Editor]
Bookmarks: 11981,93435
DistanceSpacing: 2.4
BeatDivisor: 12
GridSize: 4
TimelineZoom: 2.000001

[Metadata]
Title:Blammed
TitleUnicode:Blammed
Artist:Kawai Sprite
ArtistUnicode:Kawai Sprite
Creator:Orkay
Version:Refi's Inner Oni
Source:Friday Night Funkin'
Tags:video game instrumental electronic breakbeat breakcore vgm fnf ost original soundtrack week three boyfriend pico girlfriend newgrounds skolodojko reficul midnaait 3
BeatmapID:3028020
BeatmapSetID:1408953

[Difficulty]
HPDrainRate:6
CircleSize:2
OverallDifficulty:6.5
ApproachRate:10
SliderMultiplier:1.4
SliderTickRate:1

[Events]
//Background and Video events
0,0,"bground.png",0,0
//Break Periods
//Storyboard Layer 0 (Background)
//Storyboard Layer 1 (Fail)
//Storyboard Layer 2 (Pass)
//Storyboard Layer 3 (Foreground)
//Storyboard Layer 4 (Overlay)
//Storyboard Sound Samples

[TimingPoints]
345,363.636363636363,4,1,0,60,1,0
32703,-100.669249168472,4,1,0,60,0,0
32885,-101.347516580454,4,1,0,60,0,0
33067,-102.035089867405,4,1,0,60,0,0
33249,-102.73195076674,4,1,0,60,0,0
33339,-103.083962918637,4,1,0,60,0,0
33430,-103.438395711858,4,1,0,60,0,0
33612,-104.154623788291,4,1,0,60,0,0
33794,-104.88083963405,4,1,0,60,0,0
33885,-105.247758485864,4,1,0,60,0,0
33976,-105.617365184714,4,1,0,60,0,0
34158,-106.364195259135,4,1,0,60,0,0
34339,-107.121662356805,4,1,0,60,0,0
34430,-107.504456059704,4,1,0,60,0,0
34521,-107.88999536073,4,1,0,60,0,0
34703,-108.669429768034,4,1,0,60,0,0
34794,-109.063385458361,4,1,0,60,0,0
34885,-109.460327746113,4,1,0,60,0,0
34976,-109.860049283218,4,1,0,60,0,0
35067,-110.262700884858,4,1,0,60,0,0
35208,-111.111111111111,4,1,0,70,0,0
40339,-110.429393654285,4,1,0,70,0,0
40430,-109.756110945867,4,1,0,70,0,0
40521,-109.090869421502,4,1,0,70,0,0
40612,-108.433761068376,4,1,0,70,0,0
40703,-107.784405321101,4,1,0,70,0,0
40885,-106.508863135046,4,1,0,70,0,0
40946,-106.090327426578,4,1,0,70,0,0
41006,-105.675179859156,4,1,0,70,0,0
41067,-105.263157894737,4,1,0,70,0,0
45249,-104.046254803035,4,1,0,70,0,0
45339,-103.448240190262,4,1,0,70,0,0
45430,-102.857166367352,4,1,0,70,0,0
45521,-102.272704028931,4,1,0,70,0,0
45612,-101.694949727102,4,1,0,70,0,0
45794,-100.558704160315,4,1,0,70,0,0
46067,-98.9011097693527,4,1,0,70,0,0
46158,-98.3606234883202,4,1,0,70,0,0
46249,-97.826108223067,4,1,0,70,0,0
46339,-97.2972762600484,4,1,0,70,0,0
46521,-96.2566741971471,4,1,0,70,0,0
46612,-95.7447215934986,4,1,0,70,0,0
46703,-95.2380952380952,4,1,0,70,0,0
46844,-93.0232558139535,4,1,0,80,0,0
46890,-93.0232558139535,4,1,0,80,0,1
54072,-91.9540229885057,4,1,0,80,0,1
55405,-91.6905444126074,4,1,0,80,0,1
55466,-91.4285714285714,4,1,0,80,0,1
55526,-91.1680911680912,4,1,0,80,0,1
55587,-90.9090909090909,4,1,0,80,0,1
57072,-89.6860986547085,4,1,0,80,0,1
57254,-89.736399326977,4,1,0,80,0,1
57435,-90.1916572717024,4,1,0,80,0,1
57617,-90.6515580736544,4,1,0,80,0,1
57799,-91.1161731207289,4,1,0,80,0,1
57890,-91.3502294717764,4,1,0,80,0,1
57981,-91.5855752718947,4,1,0,80,0,1
58072,-91.8221368480399,4,1,0,80,0,1
58163,-92.0598388952819,4,1,0,80,0,1
58254,-92.298774826063,4,1,0,80,0,1
58344,-92.539039907461,4,1,0,80,0,1
58526,-93.0232558139535,4,1,0,80,0,1
65708,-91.9540229885057,4,1,0,80,0,1
67041,-91.6905444126074,4,1,0,80,0,1
67102,-91.4285714285714,4,1,0,80,0,1
67162,-91.1680911680912,4,1,0,80,0,1
67223,-90.9090909090909,4,1,0,80,0,1
68703,-89.6860986547085,4,1,0,80,0,1
68885,-91.5212851052769,4,1,0,80,0,1
68976,-92.6814981778818,4,1,0,80,0,1
69067,-93.8715930478698,4,1,0,80,0,1
69249,-96.3458894507995,4,1,0,80,0,1
69430,-98.9540556319701,4,1,0,80,0,1
69521,-100.311869602594,4,1,0,80,0,1
69612,-101.707464921095,4,1,0,80,0,1
69703,-103.142334358568,4,1,0,80,0,1
69794,-104.618378310518,4,1,0,80,0,1
69885,-106.137282206297,4,1,0,80,0,1
69976,-107.70094033691,4,1,0,80,0,1
70067,-109.311240802825,4,1,0,80,0,1
70117,-111.111111111111,4,1,0,70,0,1
70163,-111.111111111111,4,1,0,70,0,0
75223,-110.429393654285,4,1,0,70,0,0
75314,-109.756110945867,4,1,0,70,0,0
75405,-109.090869421502,4,1,0,70,0,0
75496,-108.433761068376,4,1,0,70,0,0
75587,-107.784405321101,4,1,0,70,0,0
75769,-106.508863135046,4,1,0,70,0,0
75830,-106.090327426578,4,1,0,70,0,0
75890,-105.675179859156,4,1,0,70,0,0
75951,-105.263157894737,4,1,0,70,0,0
80521,-104.57866302454,4,1,0,70,0,0
80703,-103.903120730231,4,1,0,70,0,0
80976,-102.905855548992,4,1,0,70,0,0
81067,-102.577779601383,4,1,0,70,0,0
81158,-102.25168434087,4,1,0,70,0,0
81248,-101.927655827,4,1,0,70,0,0
81430,-101.285720941633,4,1,0,70,0,0
81612,-100.651922502046,4,1,0,70,0,0
81749,-100,4,1,0,60,0,0

[HitObjects]
157,134,11981,5,0,0:0:0:0:
154,171,12163,1,8,0:0:0:0:
141,142,12344,1,0,0:0:0:0:
141,142,12526,1,0,0:0:0:0:
154,171,12708,1,8,0:0:0:0:
141,142,12890,1,0,0:0:0:0:
154,171,13072,1,8,0:0:0:0:
141,142,13435,1,0,0:0:0:0:
141,142,13617,1,0,0:0:0:0:
154,171,13799,1,8,0:0:0:0:
141,142,13981,1,0,0:0:0:0:
154,171,14072,1,8,0:0:0:0:
154,171,14163,1,8,0:0:0:0:
141,142,14344,1,0,0:0:0:0:
154,171,14526,1,8,0:0:0:0:
150,139,14587,1,8,0:0:0:0:
153,138,14648,1,8,0:0:0:0:
161,147,14708,1,8,0:0:0:0:
141,142,14890,1,0,0:0:0:0:
154,171,15072,1,8,0:0:0:0:
141,142,15254,1,8,0:0:0:0:
154,171,15435,1,0,0:0:0:0:
154,171,15617,1,8,0:0:0:0:
141,142,15799,1,0,0:0:0:0:
163,132,15890,1,0,0:0:0:0:
141,142,15981,1,0,0:0:0:0:
154,171,16163,1,8,0:0:0:0:
141,142,16344,1,0,0:0:0:0:
154,171,16526,1,8,0:0:0:0:
164,128,16617,1,8,0:0:0:0:
141,142,16708,1,0,0:0:0:0:
154,171,17072,1,8,0:0:0:0:
141,142,17254,1,0,0:0:0:0:
154,171,17435,1,8,0:0:0:0:
141,142,17799,1,0,0:0:0:0:
154,171,17981,1,8,0:0:0:0:
141,142,18163,1,0,0:0:0:0:
154,171,18344,1,8,0:0:0:0:
154,171,18526,1,8,0:0:0:0:
141,142,18708,1,0,0:0:0:0:
154,171,18890,1,8,0:0:0:0:
141,142,19254,1,0,0:0:0:0:
154,171,19435,1,8,0:0:0:0:
141,142,19617,1,0,0:0:0:0:
154,171,19799,1,8,0:0:0:0:
141,142,19890,1,0,0:0:0:0:
154,171,19981,1,8,0:0:0:0:
141,142,20163,1,0,0:0:0:0:
154,171,20344,1,8,0:0:0:0:
150,139,20405,1,8,0:0:0:0:
153,138,20466,1,8,0:0:0:0:
161,147,20526,1,8,0:0:0:0:
141,142,20708,1,0,0:0:0:0:
154,171,20890,1,8,0:0:0:0:
154,171,21072,1,0,0:0:0:0:
141,142,21254,1,0,0:0:0:0:
162,143,21344,1,0,0:0:0:0:
154,171,21435,1,8,0:0:0:0:
141,142,21617,1,8,0:0:0:0:
141,142,21799,1,0,0:0:0:0:
154,171,21981,1,8,0:0:0:0:
170,151,22072,1,8,0:0:0:0:
141,142,22163,1,0,0:0:0:0:
141,142,22344,1,8,0:0:0:0:
154,171,22526,1,0,0:0:0:0:
154,171,22890,1,8,0:0:0:0:
141,142,23072,1,0,0:0:0:0:
154,171,23254,1,8,0:0:0:0:
141,142,23617,1,0,0:0:0:0:
154,171,23799,1,8,0:0:0:0:
154,171,23981,1,8,0:0:0:0:
141,142,24163,1,0,0:0:0:0:
154,171,24344,1,8,0:0:0:0:
159,166,24435,1,8,0:0:0:0:
141,142,24526,1,0,0:0:0:0:
141,142,24708,1,0,0:0:0:0:
154,171,24890,1,8,0:0:0:0:
141,142,25072,1,8,0:0:0:0:
141,142,25254,1,0,0:0:0:0:
154,171,25435,1,0,0:0:0:0:
141,142,25526,1,8,0:0:0:0:
141,142,25617,1,0,0:0:0:0:
154,171,25799,1,8,0:0:0:0:
141,142,25981,1,0,0:0:0:0:
154,171,26163,1,8,0:0:0:0:
158,134,26223,1,0,0:0:0:0:
166,146,26284,1,0,0:0:0:0:
167,149,26344,1,8,0:0:0:0:
158,159,26526,1,0,0:0:0:0:
154,171,26708,1,8,0:0:0:0:
170,159,26799,1,0,0:0:0:0:
154,171,26890,1,8,0:0:0:0:
141,142,27072,1,0,0:0:0:0:
154,171,27254,1,8,0:0:0:0:
166,154,27344,1,8,0:0:0:0:
141,142,27435,1,0,0:0:0:0:
141,142,27617,1,0,0:0:0:0:
154,171,27799,1,8,0:0:0:0:
141,142,27981,1,0,0:0:0:0:
154,171,28163,1,8,0:0:0:0:
154,171,28254,1,8,0:0:0:0:
141,142,28344,1,0,0:0:0:0:
141,142,28526,1,0,0:0:0:0:
154,171,28708,1,8,0:0:0:0:
141,142,28890,1,0,0:0:0:0:
172,158,28981,1,0,0:0:0:0:
154,171,29072,1,8,0:0:0:0:
141,142,29254,1,8,0:0:0:0:
154,171,29617,1,8,0:0:0:0:
141,142,29799,1,0,0:0:0:0:
141,142,29981,1,0,0:0:0:0:
154,171,30163,1,8,0:0:0:0:
164,151,30254,1,8,0:0:0:0:
141,142,30344,1,0,0:0:0:0:
141,142,30526,1,0,0:0:0:0:
154,171,30708,1,8,0:0:0:0:
141,142,30890,1,8,0:0:0:0:
141,142,31072,1,8,0:0:0:0:
154,171,31254,1,0,0:0:0:0:
141,142,31435,1,0,0:0:0:0:
154,171,31617,1,8,0:0:0:0:
141,142,31708,1,8,0:0:0:0:
141,142,31799,1,0,0:0:0:0:
154,171,31981,1,8,0:0:0:0:
148,128,32041,1,0,0:0:0:0:
151,132,32102,1,0,0:0:0:0:
141,142,32163,1,8,0:0:0:0:
162,147,32344,1,0,0:0:0:0:
154,171,32526,1,8,0:0:0:0:
141,142,32708,1,0,0:0:0:0:
141,142,32890,1,0,0:0:0:0:
154,171,33072,1,8,0:0:0:0:
141,142,33254,1,0,0:0:0:0:
166,149,33344,1,8,0:0:0:0:
141,142,33435,1,0,0:0:0:0:
154,171,33617,1,8,0:0:0:0:
141,142,33799,1,8,0:0:0:0:
164,162,33890,1,0,0:0:0:0:
141,142,33981,1,8,0:0:0:0:
154,171,34163,1,0,0:0:0:0:
141,142,34344,1,0,0:0:0:0:
168,149,34435,1,0,0:0:0:0:
154,171,34526,1,8,0:0:0:0:
154,171,34708,1,8,0:0:0:0:
141,142,34799,1,0,0:0:0:0:
154,171,34890,1,8,0:0:0:0:
160,165,34981,1,8,0:0:0:0:
154,171,35072,1,0,0:0:0:0:
141,142,35254,1,0,0:0:0:0:
141,142,35435,1,0,0:0:0:0:
154,171,35617,1,8,0:0:0:0:
154,171,35890,1,8,0:0:0:0:
141,142,35981,1,0,0:0:0:0:
154,171,36072,1,8,0:0:0:0:
141,142,36163,1,0,0:0:0:0:
141,142,36254,1,0,0:0:0:0:
154,171,36344,1,8,0:0:0:0:
154,171,36526,1,8,0:0:0:0:
154,171,36617,1,8,0:0:0:0:
141,142,36708,1,0,0:0:0:0:
141,142,36890,1,0,0:0:0:0:
154,171,37072,1,8,0:0:0:0:
154,171,37254,1,0,0:0:0:0:
141,142,37344,1,8,0:0:0:0:
154,171,37435,1,0,0:0:0:0:
154,171,37526,1,8,0:0:0:0:
141,142,37617,1,0,0:0:0:0:
141,142,37708,1,0,0:0:0:0:
154,171,37799,1,8,0:0:0:0:
156,163,37860,1,8,0:0:0:0:
155,152,37920,1,8,0:0:0:0:
158,156,37981,1,8,0:0:0:0:
141,142,38163,1,0,0:0:0:0:
161,159,38223,1,0,0:0:0:0:
161,161,38284,1,0,0:0:0:0:
154,171,38344,1,0,0:0:0:0:
161,160,38405,1,0,0:0:0:0:
161,160,38466,1,0,0:0:0:0:
154,171,38526,1,0,0:0:0:0:
154,171,38708,1,8,0:0:0:0:
141,142,38890,1,0,0:0:0:0:
154,171,38981,1,8,0:0:0:0:
141,142,39072,1,0,0:0:0:0:
141,142,39163,1,0,0:0:0:0:
154,171,39254,1,8,0:0:0:0:
154,171,39435,1,8,0:0:0:0:
141,142,39526,1,8,0:0:0:0:
154,171,39617,1,0,0:0:0:0:
141,142,39799,1,0,0:0:0:0:
154,171,39981,1,8,0:0:0:0:
151,156,40254,1,0,0:0:0:0:
154,171,40344,1,8,0:0:0:0:
154,171,40435,1,8,0:0:0:0:
141,142,40526,1,0,0:0:0:0:
141,142,40617,1,0,0:0:0:0:
154,171,40708,1,8,0:0:0:0:
160,171,40890,1,8,0:0:0:0:
160,144,40951,1,8,0:0:0:0:
160,144,41011,1,8,0:0:0:0:
141,142,41072,1,0,0:0:0:0:
141,142,41254,1,0,0:0:0:0:
141,142,41435,1,0,0:0:0:0:
154,171,41617,1,8,0:0:0:0:
141,142,41799,1,8,0:0:0:0:
154,171,41890,1,8,0:0:0:0:
141,142,41981,1,0,0:0:0:0:
141,142,42072,1,0,0:0:0:0:
154,171,42163,1,8,0:0:0:0:
154,171,42344,1,0,0:0:0:0:
141,142,42435,1,8,0:0:0:0:
141,142,42526,1,0,0:0:0:0:
141,142,42708,1,0,0:0:0:0:
154,171,42890,1,8,0:0:0:0:
141,142,43163,1,0,0:0:0:0:
154,171,43254,1,8,0:0:0:0:
141,142,43344,1,8,0:0:0:0:
141,142,43435,1,0,0:0:0:0:
155,145,43496,1,0,0:0:0:0:
157,147,43557,1,0,0:0:0:0:
154,171,43617,1,8,0:0:0:0:
154,166,43799,1,8,0:0:0:0:
141,142,43981,1,0,0:0:0:0:
150,141,44041,1,0,0:0:0:0:
150,141,44102,1,0,0:0:0:0:
154,171,44163,1,8,0:0:0:0:
150,141,44223,1,8,0:0:0:0:
150,142,44284,1,8,0:0:0:0:
141,142,44344,1,0,0:0:0:0:
154,171,44526,1,8,0:0:0:0:
164,162,44617,1,8,0:0:0:0:
154,171,44708,1,0,0:0:0:0:
141,142,44799,1,8,0:0:0:0:
141,142,44890,1,0,0:0:0:0:
141,142,44981,1,0,0:0:0:0:
154,171,45072,1,8,0:0:0:0:
141,142,45254,1,8,0:0:0:0:
154,171,45344,1,8,0:0:0:0:
141,142,45435,1,0,0:0:0:0:
141,142,45526,1,8,0:0:0:0:
141,142,45617,1,0,0:0:0:0:
154,171,45799,1,8,0:0:0:0:
154,171,46072,1,0,0:0:0:0:
154,171,46163,1,8,0:0:0:0:
154,171,46254,1,8,0:0:0:0:
141,142,46344,1,0,0:0:0:0:
154,171,46526,1,8,0:0:0:0:
163,139,46617,1,0,0:0:0:0:
154,171,46708,1,8,0:0:0:0:
170,128,46890,1,4,0:0:0:0:
141,142,47072,1,0,0:0:0:0:
154,171,47254,1,8,0:0:0:0:
141,142,47435,1,0,0:0:0:0:
154,171,47526,1,8,0:0:0:0:
154,171,47617,1,0,0:0:0:0:
141,142,47799,1,0,0:0:0:0:
141,142,47981,1,8,0:0:0:0:
141,142,48163,1,0,0:0:0:0:
154,171,48344,1,8,0:0:0:0:
161,160,48526,1,8,0:0:0:0:
154,139,48617,1,8,0:0:0:0:
141,142,48708,1,0,0:0:0:0:
154,171,48890,1,0,0:0:0:0:
154,171,49072,1,8,0:0:0:0:
141,142,49254,1,0,0:0:0:0:
154,171,49344,1,8,0:0:0:0:
141,142,49435,1,0,0:0:0:0:
141,142,49496,1,0,0:0:0:0:
150,130,49557,1,0,0:0:0:0:
152,135,49617,1,8,0:0:0:0:
154,171,49799,1,0,0:0:0:0:
141,142,49981,1,0,0:0:0:0:
154,171,50163,1,8,0:0:0:0:
141,142,50344,1,0,0:0:0:0:
154,171,50435,1,8,0:0:0:0:
154,171,50526,1,0,0:0:0:0:
141,142,50708,1,0,0:0:0:0:
141,142,50890,1,8,0:0:0:0:
141,142,51072,1,0,0:0:0:0:
154,171,51254,1,8,0:0:0:0:
160,148,51435,1,8,0:0:0:0:
161,167,51526,1,8,0:0:0:0:
141,142,51617,1,0,0:0:0:0:
154,171,51799,1,0,0:0:0:0:
154,171,51981,1,8,0:0:0:0:
141,142,52163,1,0,0:0:0:0:
159,160,52254,1,0,0:0:0:0:
154,171,52344,1,8,0:0:0:0:
159,160,52435,1,0,0:0:0:0:
160,154,52526,1,8,0:0:0:0:
159,160,52617,1,8,0:0:0:0:
154,171,52708,1,0,0:0:0:0:
141,142,52890,1,8,0:0:0:0:
141,142,53072,1,8,0:0:0:0:
141,142,53254,1,0,0:0:0:0:
141,142,53344,1,0,0:0:0:0:
154,171,53435,1,8,0:0:0:0:
141,142,53617,1,8,0:0:0:0:
154,171,53799,1,0,0:0:0:0:
141,142,53981,1,0,0:0:0:0:
154,171,54163,1,8,0:0:0:0:
141,142,54344,1,8,0:0:0:0:
141,142,54526,1,0,0:0:0:0:
154,171,54708,1,8,0:0:0:0:
154,171,54890,1,8,0:0:0:0:
154,171,55072,1,8,0:0:0:0:
141,142,55163,1,0,0:0:0:0:
154,171,55254,1,8,0:0:0:0:
141,142,55435,1,8,0:0:0:0:
159,163,55496,1,8,0:0:0:0:
162,163,55557,1,8,0:0:0:0:
154,171,55617,1,0,0:0:0:0:
141,142,55799,1,8,0:0:0:0:
141,142,55981,1,8,0:0:0:0:
141,142,56163,1,0,0:0:0:0:
154,171,56254,1,8,0:0:0:0:
154,171,56344,1,8,0:0:0:0:
141,142,56526,1,8,0:0:0:0:
146,129,56617,1,0,0:0:0:0:
154,171,56708,1,8,0:0:0:0:
154,142,56799,1,8,0:0:0:0:
141,142,56890,1,0,0:0:0:0:
154,171,57072,1,8,0:0:0:0:
141,142,57254,1,8,0:0:0:0:
141,142,57435,1,0,0:0:0:0:
154,171,57617,1,8,0:0:0:0:
154,171,57799,1,8,0:0:0:0:
154,171,57890,1,0,0:0:0:0:
141,142,57981,1,8,0:0:0:0:
141,142,58072,1,8,0:0:0:0:
154,171,58163,1,0,0:0:0:0:
155,148,58254,1,0,0:0:0:0:
153,142,58344,1,8,0:0:0:0:
141,142,58526,1,4,0:0:0:0:
141,142,58708,1,8,0:0:0:0:
154,171,58890,1,8,0:0:0:0:
141,142,59072,1,0,0:0:0:0:
154,171,59163,1,8,0:0:0:0:
154,171,59254,1,0,0:0:0:0:
141,142,59435,1,0,0:0:0:0:
154,171,59617,1,8,0:0:0:0:
141,142,59799,1,0,0:0:0:0:
154,171,59981,1,8,0:0:0:0:
160,141,60163,1,8,0:0:0:0:
155,136,60254,1,8,0:0:0:0:
141,142,60344,1,0,0:0:0:0:
141,142,60526,1,0,0:0:0:0:
154,171,60708,1,8,0:0:0:0:
141,142,60890,1,0,0:0:0:0:
154,171,60981,1,8,0:0:0:0:
141,142,61072,1,0,0:0:0:0:
154,134,61132,1,0,0:0:0:0:
156,139,61193,1,0,0:0:0:0:
141,142,61254,1,8,0:0:0:0:
154,171,61435,1,0,0:0:0:0:
141,142,61617,1,0,0:0:0:0:
154,171,61799,1,8,0:0:0:0:
141,142,61981,1,0,0:0:0:0:
154,171,62072,1,8,0:0:0:0:
154,171,62163,1,0,0:0:0:0:
141,142,62344,1,0,0:0:0:0:
141,142,62526,1,8,0:0:0:0:
141,142,62708,1,0,0:0:0:0:
154,171,62890,1,8,0:0:0:0:
150,138,63072,1,8,0:0:0:0:
154,171,63163,1,8,0:0:0:0:
141,142,63254,1,0,0:0:0:0:
154,171,63435,1,0,0:0:0:0:
154,171,63617,1,8,0:0:0:0:
141,142,63799,1,0,0:0:0:0:
153,136,63890,1,0,0:0:0:0:
154,171,63981,1,8,0:0:0:0:
153,136,64072,1,0,0:0:0:0:
153,136,64163,1,8,0:0:0:0:
153,136,64254,1,8,0:0:0:0:
154,171,64344,1,0,0:0:0:0:
141,142,64526,1,0,0:0:0:0:
141,142,64708,1,8,0:0:0:0:
141,142,64890,1,0,0:0:0:0:
154,171,64981,1,0,0:0:0:0:
154,171,65072,1,8,0:0:0:0:
141,142,65254,1,8,0:0:0:0:
141,142,65435,1,0,0:0:0:0:
141,142,65617,1,0,0:0:0:0:
154,171,65799,1,8,0:0:0:0:
141,142,65981,1,8,0:0:0:0:
141,142,66163,1,0,0:0:0:0:
154,171,66344,1,8,0:0:0:0:
154,171,66526,1,8,0:0:0:0:
141,142,66708,1,8,0:0:0:0:
141,142,66799,1,0,0:0:0:0:
154,171,66890,1,8,0:0:0:0:
141,142,67072,1,8,0:0:0:0:
153,138,67132,1,8,0:0:0:0:
155,141,67193,1,8,0:0:0:0:
154,171,67254,1,0,0:0:0:0:
141,142,67435,1,8,0:0:0:0:
141,142,67617,1,8,0:0:0:0:
154,171,67799,1,0,0:0:0:0:
154,171,67890,1,0,0:0:0:0:
141,142,67981,1,8,0:0:0:0:
141,142,68163,1,8,0:0:0:0:
154,171,68344,1,0,0:0:0:0:
141,142,68526,1,0,0:0:0:0:
154,171,68708,1,8,0:0:0:0:
154,171,68890,1,8,0:0:0:0:
141,142,68981,1,8,0:0:0:0:
141,142,69072,1,0,0:0:0:0:
141,142,69254,1,0,0:0:0:0:
154,171,69435,1,8,0:0:0:0:
154,171,69526,1,8,0:0:0:0:
141,142,69617,1,0,0:0:0:0:
153,168,69708,1,0,0:0:0:0:
154,171,69799,1,8,0:0:0:0:
156,171,69890,1,0,0:0:0:0:
156,171,69981,1,8,0:0:0:0:
156,171,70072,1,8,0:0:0:0:
141,142,70163,1,0,0:0:0:0:
141,142,70344,1,0,0:0:0:0:
154,171,70526,1,8,0:0:0:0:
154,171,70799,1,8,0:0:0:0:
141,142,70890,1,0,0:0:0:0:
154,171,70981,1,8,0:0:0:0:
141,142,71072,1,0,0:0:0:0:
141,142,71163,1,0,0:0:0:0:
154,171,71254,1,8,0:0:0:0:
154,171,71435,1,8,0:0:0:0:
154,171,71526,1,8,0:0:0:0:
141,142,71617,1,0,0:0:0:0:
141,142,71799,1,0,0:0:0:0:
154,171,71981,1,8,0:0:0:0:
154,171,72163,1,0,0:0:0:0:
141,142,72254,1,8,0:0:0:0:
154,171,72344,1,0,0:0:0:0:
154,171,72435,1,8,0:0:0:0:
141,142,72526,1,0,0:0:0:0:
154,171,72708,1,8,0:0:0:0:
156,163,72769,1,8,0:0:0:0:
155,152,72829,1,8,0:0:0:0:
158,156,72890,1,8,0:0:0:0:
141,142,73072,1,0,0:0:0:0:
161,159,73132,1,0,0:0:0:0:
161,161,73193,1,0,0:0:0:0:
154,171,73254,1,0,0:0:0:0:
161,160,73314,1,0,0:0:0:0:
161,160,73375,1,0,0:0:0:0:
154,171,73435,1,0,0:0:0:0:
154,171,73617,1,8,0:0:0:0:
141,142,73799,1,0,0:0:0:0:
154,171,73890,1,8,0:0:0:0:
141,142,73981,1,0,0:0:0:0:
141,142,74072,1,0,0:0:0:0:
154,171,74163,1,8,0:0:0:0:
154,171,74344,1,8,0:0:0:0:
141,142,74435,1,8,0:0:0:0:
154,171,74526,1,0,0:0:0:0:
141,142,74708,1,0,0:0:0:0:
154,171,74890,1,8,0:0:0:0:
151,156,75163,1,0,0:0:0:0:
154,171,75254,1,8,0:0:0:0:
154,171,75344,1,8,0:0:0:0:
141,142,75435,1,0,0:0:0:0:
141,142,75526,1,0,0:0:0:0:
154,171,75617,1,8,0:0:0:0:
160,171,75799,1,8,0:0:0:0:
160,144,75860,1,8,0:0:0:0:
160,144,75920,1,8,0:0:0:0:
141,142,75981,1,0,0:0:0:0:
162,167,76163,1,0,0:0:0:0:
162,167,76344,1,0,0:0:0:0:
154,171,76526,1,8,0:0:0:0:
141,142,76708,1,8,0:0:0:0:
154,171,76799,1,8,0:0:0:0:
141,142,76890,1,0,0:0:0:0:
141,142,76981,1,0,0:0:0:0:
154,171,77072,1,8,0:0:0:0:
154,171,77254,1,0,0:0:0:0:
141,142,77344,1,8,0:0:0:0:
141,142,77435,1,0,0:0:0:0:
141,142,77617,1,0,0:0:0:0:
154,171,77799,1,8,0:0:0:0:
141,142,78072,1,0,0:0:0:0:
154,171,78163,1,8,0:0:0:0:
141,142,78254,1,8,0:0:0:0:
141,142,78344,1,0,0:0:0:0:
155,145,78405,1,0,0:0:0:0:
157,147,78466,1,0,0:0:0:0:
154,171,78526,1,8,0:0:0:0:
154,166,78708,1,8,0:0:0:0:
141,142,78890,1,8,0:0:0:0:
150,141,78981,1,0,0:0:0:0:
154,171,79072,1,8,0:0:0:0:
150,141,79132,1,8,0:0:0:0:
150,142,79193,1,8,0:0:0:0:
141,142,79254,1,0,0:0:0:0:
154,171,79435,1,8,0:0:0:0:
154,171,79617,1,0,0:0:0:0:
141,142,79708,1,8,0:0:0:0:
141,142,79799,1,0,0:0:0:0:
141,142,79890,1,0,0:0:0:0:
154,171,79981,1,8,0:0:0:0:
141,142,80163,1,8,0:0:0:0:
154,171,80254,1,8,0:0:0:0:
141,142,80344,1,0,0:0:0:0:
141,142,80526,1,0,0:0:0:0:
154,171,80708,1,8,0:0:0:0:
154,171,80981,1,0,0:0:0:0:
154,171,81072,1,8,0:0:0:0:
154,171,81163,1,8,0:0:0:0:
141,142,81254,1,0,0:0:0:0:
154,171,81435,1,8,0:0:0:0:
154,171,81617,1,8,0:0:0:0:
141,142,81799,1,0,0:0:0:0:
154,171,81981,1,8,0:0:0:0:
154,171,82072,1,8,0:0:0:0:
154,171,82163,1,8,0:0:0:0:
161,160,82344,1,0,0:0:0:0:
154,171,82435,1,8,0:0:0:0:
141,142,82526,1,0,0:0:0:0:
141,142,82708,1,0,0:0:0:0:
154,171,82890,1,8,0:0:0:0:
141,142,83254,1,0,0:0:0:0:
156,166,83344,1,0,0:0:0:0:
154,171,83617,1,8,0:0:0:0:
141,142,83799,1,0,0:0:0:0:
156,166,83890,1,0,0:0:0:0:
141,142,84163,1,0,0:0:0:0:
154,171,84344,1,8,0:0:0:0:
159,161,84405,1,0,0:0:0:0:
159,164,84466,1,0,0:0:0:0:
154,171,84526,1,8,0:0:0:0:
141,142,84708,1,0,0:0:0:0:
154,171,84890,1,0,0:0:0:0:
154,136,84951,1,0,0:0:0:0:
141,142,85011,1,0,0:0:0:0:
141,142,85072,1,0,0:0:0:0:
154,171,85254,1,8,0:0:0:0:
154,171,85435,1,0,0:0:0:0:
141,142,85526,1,0,0:0:0:0:
141,142,85617,1,0,0:0:0:0:
149,134,85708,1,0,0:0:0:0:
154,171,85799,1,8,0:0:0:0:
154,171,85981,1,8,0:0:0:0:
154,171,86163,1,0,0:0:0:0:
141,142,86254,1,0,0:0:0:0:
154,171,86526,1,8,0:0:0:0:
141,142,86708,1,0,0:0:0:0:
154,171,86799,1,0,0:0:0:0:
157,167,86890,1,8,0:0:0:0:
180,145,86981,1,8,0:0:0:0:
141,142,87072,1,0,0:0:0:0:
154,171,87254,1,8,0:0:0:0:
154,171,87435,1,8,0:0:0:0:
141,142,87617,1,0,0:0:0:0:
154,171,87799,1,0,0:0:0:0:
154,171,87890,1,8,0:0:0:0:
141,142,87981,1,0,0:0:0:0:
154,171,88163,1,8,0:0:0:0:
141,142,88344,1,0,0:0:0:0:
154,171,88435,1,8,0:0:0:0:
160,134,88526,1,0,0:0:0:0:
141,142,88617,1,0,0:0:0:0:
154,171,88708,1,8,0:0:0:0:
141,142,88890,1,8,0:0:0:0:
165,150,88981,1,8,0:0:0:0:
141,142,89072,1,0,0:0:0:0:
141,142,89254,1,0,0:0:0:0:
154,171,89435,1,8,0:0:0:0:
150,140,89708,1,0,0:0:0:0:
154,171,89799,1,8,0:0:0:0:
157,148,89890,1,8,0:0:0:0:
141,142,89981,1,0,0:0:0:0:
158,146,90041,1,0,0:0:0:0:
161,156,90102,1,0,0:0:0:0:
154,171,90163,1,8,0:0:0:0:
154,171,90254,1,8,0:0:0:0:
154,171,90344,1,8,0:0:0:0:
154,171,90435,1,8,0:0:0:0:
141,142,90526,1,0,0:0:0:0:
154,171,90708,1,8,0:0:0:0:
155,133,90769,1,8,0:0:0:0:
159,140,90829,1,8,0:0:0:0:
154,171,90890,1,0,0:0:0:0:
154,171,91072,1,8,0:0:0:0:
141,142,91254,1,0,0:0:0:0:
161,152,91344,1,8,0:0:0:0:
141,142,91435,1,0,0:0:0:0:
141,142,91526,1,0,0:0:0:0:
154,171,91617,1,8,0:0:0:0:
154,171,91799,1,8,0:0:0:0:
141,142,91890,1,8,0:0:0:0:
141,142,91981,1,0,0:0:0:0:
141,142,92163,1,0,0:0:0:0:
154,171,92344,1,8,0:0:0:0:
161,167,92617,1,0,0:0:0:0:
154,171,92708,1,8,0:0:0:0:
154,171,92799,1,8,0:0:0:0:
141,142,92890,1,0,0:0:0:0:
154,171,93072,1,8,0:0:0:0:
141,142,93163,1,0,0:0:0:0:
154,171,93254,1,8,0:0:0:0:
170,128,93435,1,4,0:0:0:0:
