osu file format v14

[General]
AudioFilename: audio.mp3
AudioLeadIn: 0
PreviewTime: 11981
Countdown: 0
SampleSet: Normal
StackLeniency: 0
Mode: 1
LetterboxInBreaks: 0
WidescreenStoryboard: 1

[Editor]
Bookmarks: 11981,93435
DistanceSpacing: 2.4
BeatDivisor: 4
GridSize: 32
TimelineZoom: 2.4

[Metadata]
Title:Blammed
TitleUnicode:Blammed
Artist:Kawai Sprite
ArtistUnicode:Kawai Sprite
Creator:Orkay
Version:Oni
Source:Friday Night Funkin'
Tags:video game instrumental electronic breakbeat breakcore vgm fnf ost original soundtrack week three boyfriend pico girlfriend newgrounds skolodojko reficul midnaait 3
BeatmapID:2905245
BeatmapSetID:1408953

[Difficulty]
HPDrainRate:5
CircleSize:2
OverallDifficulty:6
ApproachRate:10
SliderMultiplier:1.4
SliderTickRate:1

[Events]
//Background and Video events
0,0,"bground.png",0,0
//Break Periods
//Storyboard Layer 0 (Background)
//Storyboard Layer 1 (Fail)
//Storyboard Layer 2 (Pass)
//Storyboard Layer 3 (Foreground)
//Storyboard Layer 4 (Overlay)
//Storyboard Sound Samples

[TimingPoints]
345,363.636363636363,4,1,0,60,1,0
11981,-105.263157894737,4,1,0,60,0,0
34890,-104.166666666667,4,1,0,60,0,0
35072,-102.040816326531,4,1,0,60,0,0
35208,-100,4,1,0,70,0,0
46254,-99.009900990099,4,1,0,70,0,0
46344,-98.0392156862745,4,1,0,70,0,0
46526,-95.2380952380952,4,1,0,70,0,0
46708,-93.4579439252336,4,1,0,70,0,0
46844,-91.743119266055,4,1,0,80,0,0
46890,-90.9090909090909,4,1,0,80,0,1
69344,-91.743119266055,4,1,0,80,0,1
69435,-92.5925925925926,4,1,0,80,0,1
69526,-93.4579439252336,4,1,0,80,0,1
69617,-94.3396226415094,4,1,0,80,0,1
69799,-96.1538461538461,4,1,0,80,0,1
70117,-98.0392156862745,4,1,0,70,0,1
70163,-100,4,1,0,70,0,0
81435,-101.010101010101,4,1,0,70,0,0
81754,-105.263157894737,4,1,0,60,0,0

[HitObjects]
192,256,11981,5,0,0:0:0:0:
320,256,12163,1,8,0:0:0:0:
192,256,12344,1,0,0:0:0:0:
192,256,12526,1,0,0:0:0:0:
320,256,12708,1,8,0:0:0:0:
192,256,12890,1,0,0:0:0:0:
320,256,13072,1,8,0:0:0:0:
192,256,13435,1,0,0:0:0:0:
192,256,13617,1,0,0:0:0:0:
320,256,13799,1,8,0:0:0:0:
192,256,13981,1,0,0:0:0:0:
320,256,14072,1,8,0:0:0:0:
320,256,14163,1,8,0:0:0:0:
192,256,14344,1,0,0:0:0:0:
320,256,14526,1,8,0:0:0:0:
192,256,14890,1,0,0:0:0:0:
320,256,15072,1,8,0:0:0:0:
192,256,15254,1,0,0:0:0:0:
320,256,15435,1,8,0:0:0:0:
320,256,15617,1,8,0:0:0:0:
192,256,15799,1,0,0:0:0:0:
192,256,15981,1,0,0:0:0:0:
320,256,16163,1,8,0:0:0:0:
192,256,16344,1,0,0:0:0:0:
320,256,16526,1,8,0:0:0:0:
192,256,16708,1,0,0:0:0:0:
192,256,16890,1,0,0:0:0:0:
320,256,17072,1,8,0:0:0:0:
192,256,17254,1,0,0:0:0:0:
320,256,17435,1,8,0:0:0:0:
192,256,17799,1,0,0:0:0:0:
320,256,17981,1,8,0:0:0:0:
192,256,18163,1,0,0:0:0:0:
320,256,18344,1,8,0:0:0:0:
320,256,18526,1,8,0:0:0:0:
192,256,18708,1,0,0:0:0:0:
320,256,18890,1,8,0:0:0:0:
192,256,19254,1,0,0:0:0:0:
320,256,19435,1,8,0:0:0:0:
192,256,19617,1,0,0:0:0:0:
320,256,19799,1,8,0:0:0:0:
192,256,19890,1,0,0:0:0:0:
320,256,19981,1,8,0:0:0:0:
192,256,20163,1,0,0:0:0:0:
320,256,20344,1,8,0:0:0:0:
192,256,20708,1,0,0:0:0:0:
320,256,20890,1,8,0:0:0:0:
320,256,21072,1,8,0:0:0:0:
192,256,21254,1,0,0:0:0:0:
320,256,21435,1,8,0:0:0:0:
192,256,21617,1,0,0:0:0:0:
192,256,21799,1,0,0:0:0:0:
320,256,21981,1,8,0:0:0:0:
192,256,22163,1,0,0:0:0:0:
192,256,22344,1,0,0:0:0:0:
320,256,22526,1,8,0:0:0:0:
192,256,22708,1,0,0:0:0:0:
320,256,22890,1,8,0:0:0:0:
192,256,23072,1,0,0:0:0:0:
320,256,23254,1,8,0:0:0:0:
192,256,23617,1,0,0:0:0:0:
320,256,23799,1,8,0:0:0:0:
320,256,23981,1,8,0:0:0:0:
192,256,24163,1,0,0:0:0:0:
320,256,24344,1,8,0:0:0:0:
192,256,24526,1,0,0:0:0:0:
192,256,24708,1,0,0:0:0:0:
320,256,24890,1,8,0:0:0:0:
192,256,25072,1,0,0:0:0:0:
192,256,25254,1,0,0:0:0:0:
192,256,25344,1,0,0:0:0:0:
320,256,25435,1,8,0:0:0:0:
192,256,25617,1,0,0:0:0:0:
320,256,25799,1,8,0:0:0:0:
192,256,25981,1,0,0:0:0:0:
320,256,26163,1,8,0:0:0:0:
192,256,26526,1,0,0:0:0:0:
320,256,26708,1,8,0:0:0:0:
320,256,26890,1,8,0:0:0:0:
192,256,27072,1,0,0:0:0:0:
320,256,27254,1,8,0:0:0:0:
192,256,27435,1,0,0:0:0:0:
192,256,27617,1,0,0:0:0:0:
320,256,27799,1,8,0:0:0:0:
192,256,27981,1,0,0:0:0:0:
320,256,28163,1,8,0:0:0:0:
320,256,28254,1,8,0:0:0:0:
192,256,28344,1,0,0:0:0:0:
192,256,28526,1,0,0:0:0:0:
320,256,28708,1,8,0:0:0:0:
192,256,28890,1,0,0:0:0:0:
320,256,29072,1,8,0:0:0:0:
192,256,29435,1,0,0:0:0:0:
320,256,29617,1,8,0:0:0:0:
192,256,29799,1,0,0:0:0:0:
192,256,29981,1,0,0:0:0:0:
320,256,30163,1,8,0:0:0:0:
192,256,30344,1,0,0:0:0:0:
192,256,30526,1,0,0:0:0:0:
320,256,30708,1,8,0:0:0:0:
192,256,30890,1,0,0:0:0:0:
192,256,31072,1,0,0:0:0:0:
320,256,31254,1,8,0:0:0:0:
192,256,31435,1,0,0:0:0:0:
320,256,31617,1,8,0:0:0:0:
192,256,31799,1,0,0:0:0:0:
192,256,31890,1,0,0:0:0:0:
320,256,31981,1,8,0:0:0:0:
192,256,32344,1,0,0:0:0:0:
320,256,32526,1,8,0:0:0:0:
192,256,32708,1,0,0:0:0:0:
192,256,32890,1,0,0:0:0:0:
320,256,33072,1,8,0:0:0:0:
192,256,33254,1,0,0:0:0:0:
192,256,33435,1,0,0:0:0:0:
320,256,33617,1,8,0:0:0:0:
192,256,33799,1,0,0:0:0:0:
192,256,33981,1,0,0:0:0:0:
320,256,34163,1,8,0:0:0:0:
192,256,34344,1,0,0:0:0:0:
320,256,34526,1,8,0:0:0:0:
320,256,34708,1,8,0:0:0:0:
192,256,34799,1,0,0:0:0:0:
320,256,34890,1,8,0:0:0:0:
320,256,35072,1,8,0:0:0:0:
192,256,35254,1,0,0:0:0:0:
192,256,35435,1,0,0:0:0:0:
320,256,35617,1,8,0:0:0:0:
320,256,35890,1,8,0:0:0:0:
192,256,35981,1,0,0:0:0:0:
192,256,36163,1,0,0:0:0:0:
192,256,36254,1,0,0:0:0:0:
320,256,36344,1,8,0:0:0:0:
320,256,36526,1,8,0:0:0:0:
192,256,36708,1,0,0:0:0:0:
192,256,36890,1,0,0:0:0:0:
320,256,37072,1,8,0:0:0:0:
192,256,37254,1,0,0:0:0:0:
192,256,37344,1,0,0:0:0:0:
320,256,37435,1,8,0:0:0:0:
320,256,37526,1,8,0:0:0:0:
192,256,37617,1,0,0:0:0:0:
320,256,37799,1,8,0:0:0:0:
192,256,38163,1,0,0:0:0:0:
320,256,38344,1,8,0:0:0:0:
320,256,38526,1,8,0:0:0:0:
320,256,38708,1,8,0:0:0:0:
192,256,38890,1,0,0:0:0:0:
320,256,38981,1,8,0:0:0:0:
192,256,39072,1,0,0:0:0:0:
192,256,39163,1,0,0:0:0:0:
320,256,39254,1,8,0:0:0:0:
320,256,39435,1,8,0:0:0:0:
192,256,39526,1,0,0:0:0:0:
320,256,39617,1,8,0:0:0:0:
192,256,39799,1,0,0:0:0:0:
320,256,39981,1,8,0:0:0:0:
320,256,40163,1,8,0:0:0:0:
320,256,40344,1,8,0:0:0:0:
320,256,40435,1,8,0:0:0:0:
192,256,40526,1,0,0:0:0:0:
192,256,40617,1,0,0:0:0:0:
320,256,40708,1,8,0:0:0:0:
192,256,41072,1,0,0:0:0:0:
192,256,41254,1,0,0:0:0:0:
192,256,41435,1,0,0:0:0:0:
320,256,41617,1,8,0:0:0:0:
192,256,41799,1,0,0:0:0:0:
320,256,41890,1,8,0:0:0:0:
192,256,41981,1,0,0:0:0:0:
192,256,42072,1,0,0:0:0:0:
320,256,42163,1,8,0:0:0:0:
320,256,42344,1,8,0:0:0:0:
192,256,42435,1,0,0:0:0:0:
192,256,42526,1,0,0:0:0:0:
192,256,42708,1,0,0:0:0:0:
320,256,42890,1,8,0:0:0:0:
320,256,43072,1,8,0:0:0:0:
192,256,43163,1,0,0:0:0:0:
320,256,43254,1,8,0:0:0:0:
320,256,43344,1,8,0:0:0:0:
192,256,43435,1,0,0:0:0:0:
320,256,43617,1,8,0:0:0:0:
192,256,43981,1,0,0:0:0:0:
320,256,44163,1,8,0:0:0:0:
192,256,44344,1,0,0:0:0:0:
320,256,44526,1,8,0:0:0:0:
320,256,44708,1,8,0:0:0:0:
192,256,44799,1,0,0:0:0:0:
192,256,44890,1,0,0:0:0:0:
192,256,44981,1,0,0:0:0:0:
320,256,45072,1,8,0:0:0:0:
320,256,45254,1,8,0:0:0:0:
192,256,45435,1,0,0:0:0:0:
192,256,45526,1,0,0:0:0:0:
192,256,45617,1,0,0:0:0:0:
320,256,45799,1,8,0:0:0:0:
320,256,46163,1,8,0:0:0:0:
320,256,46254,1,8,0:0:0:0:
192,256,46344,1,0,0:0:0:0:
320,256,46526,1,8,0:0:0:0:
320,256,46708,1,8,0:0:0:0:
192,128,46890,1,4,0:0:0:0:
192,256,47072,1,0,0:0:0:0:
320,256,47254,1,8,0:0:0:0:
192,256,47435,1,0,0:0:0:0:
320,256,47526,1,8,0:0:0:0:
320,256,47617,1,8,0:0:0:0:
192,256,47799,1,0,0:0:0:0:
192,256,47981,1,8,0:0:0:0:
192,256,48163,1,0,0:0:0:0:
320,256,48344,1,8,0:0:0:0:
320,256,48526,1,8,0:0:0:0:
192,256,48708,1,0,0:0:0:0:
192,256,48890,1,0,0:0:0:0:
320,256,49072,1,8,0:0:0:0:
192,256,49254,1,0,0:0:0:0:
320,256,49344,1,8,0:0:0:0:
192,256,49435,1,0,0:0:0:0:
192,256,49617,1,0,0:0:0:0:
320,256,49799,1,8,0:0:0:0:
192,256,49981,1,0,0:0:0:0:
320,256,50163,1,8,0:0:0:0:
192,256,50344,1,0,0:0:0:0:
320,256,50435,1,8,0:0:0:0:
320,256,50526,1,8,0:0:0:0:
192,256,50708,1,0,0:0:0:0:
192,256,50890,1,8,0:0:0:0:
192,256,51072,1,0,0:0:0:0:
320,256,51254,1,8,0:0:0:0:
320,256,51435,1,8,0:0:0:0:
192,256,51526,1,0,0:0:0:0:
192,256,51617,1,0,0:0:0:0:
320,256,51799,1,8,0:0:0:0:
192,256,51890,1,0,0:0:0:0:
320,256,51981,1,8,0:0:0:0:
320,256,52072,1,8,0:0:0:0:
192,256,52163,1,0,0:0:0:0:
320,256,52344,1,8,0:0:0:0:
320,256,52708,1,8,0:0:0:0:
192,256,52890,1,0,0:0:0:0:
192,256,53072,1,0,0:0:0:0:
192,256,53254,1,0,0:0:0:0:
192,256,53344,1,0,0:0:0:0:
320,256,53435,1,8,0:0:0:0:
192,256,53617,1,0,0:0:0:0:
320,256,53799,1,8,0:0:0:0:
192,256,53981,1,0,0:0:0:0:
320,256,54163,1,8,0:0:0:0:
320,256,54344,1,8,0:0:0:0:
192,256,54526,1,0,0:0:0:0:
192,256,54708,1,0,0:0:0:0:
320,256,54890,1,8,0:0:0:0:
320,256,55072,1,8,0:0:0:0:
192,256,55163,1,0,0:0:0:0:
320,256,55254,1,8,0:0:0:0:
192,256,55435,1,0,0:0:0:0:
320,256,55617,1,8,0:0:0:0:
192,256,55799,1,0,0:0:0:0:
192,256,55981,1,0,0:0:0:0:
192,256,56163,1,0,0:0:0:0:
320,256,56254,1,8,0:0:0:0:
320,256,56344,1,8,0:0:0:0:
192,256,56526,1,0,0:0:0:0:
320,256,56708,1,8,0:0:0:0:
192,256,56890,1,0,0:0:0:0:
320,256,57072,1,8,0:0:0:0:
192,256,57254,1,0,0:0:0:0:
320,256,57344,1,8,0:0:0:0:
192,256,57435,1,0,0:0:0:0:
320,256,57617,1,8,0:0:0:0:
192,256,57708,1,0,0:0:0:0:
320,256,57799,1,8,0:0:0:0:
320,256,57890,1,8,0:0:0:0:
192,256,57981,1,0,0:0:0:0:
320,256,58163,1,8,0:0:0:0:
192,256,58526,1,0,0:0:0:0:
192,256,58708,1,0,0:0:0:0:
320,256,58890,1,8,0:0:0:0:
192,256,59072,1,0,0:0:0:0:
320,256,59163,1,8,0:0:0:0:
320,256,59254,1,8,0:0:0:0:
192,256,59435,1,0,0:0:0:0:
320,256,59617,1,8,0:0:0:0:
192,256,59799,1,0,0:0:0:0:
320,256,59981,1,8,0:0:0:0:
320,256,60163,1,8,0:0:0:0:
192,256,60344,1,0,0:0:0:0:
192,256,60526,1,0,0:0:0:0:
320,256,60708,1,8,0:0:0:0:
192,256,60890,1,0,0:0:0:0:
320,256,60981,1,8,0:0:0:0:
192,256,61072,1,0,0:0:0:0:
192,256,61254,1,0,0:0:0:0:
320,256,61435,1,8,0:0:0:0:
192,256,61617,1,0,0:0:0:0:
320,256,61799,1,8,0:0:0:0:
192,256,61981,1,0,0:0:0:0:
320,256,62072,1,8,0:0:0:0:
320,256,62163,1,8,0:0:0:0:
192,256,62344,1,0,0:0:0:0:
192,256,62526,1,8,0:0:0:0:
192,256,62708,1,0,0:0:0:0:
320,256,62890,1,8,0:0:0:0:
192,256,63072,1,0,0:0:0:0:
320,256,63163,1,8,0:0:0:0:
192,256,63254,1,0,0:0:0:0:
320,256,63435,1,8,0:0:0:0:
192,256,63526,1,0,0:0:0:0:
320,256,63617,1,8,0:0:0:0:
320,256,63708,1,8,0:0:0:0:
192,256,63799,1,0,0:0:0:0:
320,256,63981,1,8,0:0:0:0:
320,256,64344,1,8,0:0:0:0:
192,256,64526,1,0,0:0:0:0:
192,256,64708,1,0,0:0:0:0:
192,256,64890,1,0,0:0:0:0:
320,256,64981,1,8,0:0:0:0:
320,256,65072,1,8,0:0:0:0:
192,256,65254,1,0,0:0:0:0:
192,256,65435,1,8,0:0:0:0:
192,256,65617,1,0,0:0:0:0:
320,256,65799,1,8,0:0:0:0:
320,256,65981,1,8,0:0:0:0:
192,256,66163,1,0,0:0:0:0:
192,256,66344,1,0,0:0:0:0:
320,256,66526,1,8,0:0:0:0:
192,256,66708,1,0,0:0:0:0:
192,256,66799,1,0,0:0:0:0:
320,256,66890,1,8,0:0:0:0:
192,256,67072,1,0,0:0:0:0:
320,256,67254,1,8,0:0:0:0:
192,256,67435,1,0,0:0:0:0:
192,256,67617,1,0,0:0:0:0:
320,256,67799,1,8,0:0:0:0:
320,256,67890,1,8,0:0:0:0:
192,256,67981,1,0,0:0:0:0:
192,256,68163,1,0,0:0:0:0:
320,256,68344,1,8,0:0:0:0:
192,256,68526,1,0,0:0:0:0:
320,256,68708,1,8,0:0:0:0:
192,256,68799,1,0,0:0:0:0:
320,256,68890,1,8,0:0:0:0:
192,256,69072,1,0,0:0:0:0:
192,256,69254,1,0,0:0:0:0:
192,256,69344,1,0,0:0:0:0:
320,256,69435,1,8,0:0:0:0:
320,256,69526,1,8,0:0:0:0:
192,256,69617,1,0,0:0:0:0:
320,256,69799,1,8,0:0:0:0:
192,256,70163,1,0,0:0:0:0:
192,256,70344,1,0,0:0:0:0:
320,256,70526,1,8,0:0:0:0:
320,256,70799,1,8,0:0:0:0:
192,256,70890,1,0,0:0:0:0:
192,256,71072,1,0,0:0:0:0:
192,256,71163,1,0,0:0:0:0:
320,256,71254,1,8,0:0:0:0:
320,256,71435,1,8,0:0:0:0:
192,256,71617,1,0,0:0:0:0:
192,256,71799,1,0,0:0:0:0:
320,256,71981,1,8,0:0:0:0:
192,256,72163,1,0,0:0:0:0:
192,256,72254,1,0,0:0:0:0:
320,256,72344,1,8,0:0:0:0:
320,256,72435,1,8,0:0:0:0:
192,256,72526,1,0,0:0:0:0:
320,256,72708,1,8,0:0:0:0:
192,256,73072,1,0,0:0:0:0:
320,256,73254,1,8,0:0:0:0:
320,256,73435,1,8,0:0:0:0:
320,256,73617,1,8,0:0:0:0:
192,256,73799,1,0,0:0:0:0:
320,256,73890,1,8,0:0:0:0:
192,256,73981,1,0,0:0:0:0:
192,256,74072,1,0,0:0:0:0:
320,256,74163,1,8,0:0:0:0:
320,256,74344,1,8,0:0:0:0:
192,256,74435,1,0,0:0:0:0:
320,256,74526,1,8,0:0:0:0:
192,256,74708,1,0,0:0:0:0:
320,256,74890,1,8,0:0:0:0:
320,256,75072,1,8,0:0:0:0:
320,256,75254,1,8,0:0:0:0:
320,256,75344,1,8,0:0:0:0:
192,256,75435,1,0,0:0:0:0:
192,256,75526,1,0,0:0:0:0:
320,256,75617,1,8,0:0:0:0:
192,256,75981,1,0,0:0:0:0:
192,256,76163,1,0,0:0:0:0:
192,256,76344,1,0,0:0:0:0:
320,256,76526,1,8,0:0:0:0:
192,256,76708,1,0,0:0:0:0:
320,256,76799,1,8,0:0:0:0:
192,256,76890,1,0,0:0:0:0:
192,256,76981,1,0,0:0:0:0:
320,256,77072,1,8,0:0:0:0:
320,256,77254,1,8,0:0:0:0:
192,256,77435,1,0,0:0:0:0:
192,256,77617,1,0,0:0:0:0:
320,256,77799,1,8,0:0:0:0:
192,256,77981,1,0,0:0:0:0:
192,256,78072,1,0,0:0:0:0:
320,256,78163,1,8,0:0:0:0:
192,256,78254,1,0,0:0:0:0:
320,256,78344,1,8,0:0:0:0:
320,256,78526,1,8,0:0:0:0:
192,256,78890,1,0,0:0:0:0:
320,256,79072,1,8,0:0:0:0:
192,256,79163,1,0,0:0:0:0:
320,256,79254,1,8,0:0:0:0:
320,256,79435,1,8,0:0:0:0:
320,256,79617,1,8,0:0:0:0:
192,256,79708,1,0,0:0:0:0:
192,256,79799,1,0,0:0:0:0:
192,256,79890,1,0,0:0:0:0:
320,256,79981,1,8,0:0:0:0:
320,256,80163,1,8,0:0:0:0:
192,256,80344,1,0,0:0:0:0:
192,256,80435,1,0,0:0:0:0:
192,256,80526,1,0,0:0:0:0:
320,256,80708,1,8,0:0:0:0:
320,256,80890,1,8,0:0:0:0:
320,256,81072,1,8,0:0:0:0:
192,256,81163,1,0,0:0:0:0:
192,256,81254,1,0,0:0:0:0:
320,256,81435,1,8,0:0:0:0:
192,256,81799,1,0,0:0:0:0:
320,256,81981,1,8,0:0:0:0:
320,256,82072,1,8,0:0:0:0:
320,256,82163,1,8,0:0:0:0:
192,256,82344,1,0,0:0:0:0:
320,256,82435,1,8,0:0:0:0:
192,256,82526,1,0,0:0:0:0:
192,256,82708,1,0,0:0:0:0:
320,256,82890,1,8,0:0:0:0:
320,256,83072,1,8,0:0:0:0:
192,256,83254,1,0,0:0:0:0:
320,256,83617,1,8,0:0:0:0:
192,256,83799,1,0,0:0:0:0:
320,256,83981,1,8,0:0:0:0:
320,256,84072,1,8,0:0:0:0:
192,256,84163,1,0,0:0:0:0:
320,256,84344,1,8,0:0:0:0:
320,256,84526,1,8,0:0:0:0:
192,256,84708,1,0,0:0:0:0:
192,256,84799,1,0,0:0:0:0:
320,256,84890,1,8,0:0:0:0:
192,256,85072,1,0,0:0:0:0:
320,256,85254,1,8,0:0:0:0:
320,256,85435,1,8,0:0:0:0:
192,256,85526,1,0,0:0:0:0:
192,256,85617,1,0,0:0:0:0:
320,256,85799,1,8,0:0:0:0:
320,256,85981,1,8,0:0:0:0:
192,256,86072,1,0,0:0:0:0:
320,256,86163,1,8,0:0:0:0:
320,256,86526,1,8,0:0:0:0:
192,256,86708,1,0,0:0:0:0:
320,256,86890,1,8,0:0:0:0:
320,256,86981,1,8,0:0:0:0:
192,256,87072,1,0,0:0:0:0:
320,256,87254,1,8,0:0:0:0:
320,256,87435,1,8,0:0:0:0:
192,256,87617,1,0,0:0:0:0:
320,256,87799,1,8,0:0:0:0:
320,256,87890,1,8,0:0:0:0:
192,256,87981,1,0,0:0:0:0:
320,256,88163,1,8,0:0:0:0:
192,256,88344,1,0,0:0:0:0:
320,256,88435,1,8,0:0:0:0:
192,256,88526,1,0,0:0:0:0:
192,256,88617,1,0,0:0:0:0:
320,256,88708,1,8,0:0:0:0:
320,256,88890,1,8,0:0:0:0:
192,256,89072,1,0,0:0:0:0:
192,256,89254,1,0,0:0:0:0:
320,256,89435,1,8,0:0:0:0:
320,256,89799,1,8,0:0:0:0:
192,256,89981,1,0,0:0:0:0:
320,256,90163,1,8,0:0:0:0:
320,256,90254,1,8,0:0:0:0:
320,256,90344,1,8,0:0:0:0:
320,256,90435,1,8,0:0:0:0:
192,256,90526,1,0,0:0:0:0:
320,256,90708,1,8,0:0:0:0:
320,256,90890,1,8,0:0:0:0:
320,256,91072,1,8,0:0:0:0:
192,256,91254,1,0,0:0:0:0:
192,256,91435,1,0,0:0:0:0:
192,256,91526,1,0,0:0:0:0:
320,256,91617,1,8,0:0:0:0:
320,256,91799,1,8,0:0:0:0:
192,256,91981,1,0,0:0:0:0:
192,256,92072,1,0,0:0:0:0:
192,256,92163,1,0,0:0:0:0:
320,256,92344,1,8,0:0:0:0:
320,256,92526,1,8,0:0:0:0:
320,256,92708,1,8,0:0:0:0:
320,256,92799,1,8,0:0:0:0:
192,256,92890,1,0,0:0:0:0:
192,256,92981,1,0,0:0:0:0:
320,256,93072,1,8,0:0:0:0:
320,256,93254,1,8,0:0:0:0:
192,128,93435,1,4,0:0:0:0:
