osu file format v14

[General]
AudioFilename: audio.mp3
AudioLeadIn: 0
PreviewTime: 11981
Countdown: 0
SampleSet: Normal
StackLeniency: 0
Mode: 1
LetterboxInBreaks: 0
WidescreenStoryboard: 1

[Editor]
Bookmarks: 11981,93435
DistanceSpacing: 2.7
BeatDivisor: 4
GridSize: 32
TimelineZoom: 1.6

[Metadata]
Title:Blammed
TitleUnicode:Blammed
Artist:Kawai Sprite
ArtistUnicode:Kawai Sprite
Creator:Orkay
Version:Futsuu
Source:Friday Night Funkin'
Tags:video game instrumental electronic breakbeat breakcore vgm fnf ost original soundtrack week three boyfriend pico girlfriend newgrounds skolodojko reficul midnaait 3
BeatmapID:3022659
BeatmapSetID:1408953

[Difficulty]
HPDrainRate:7
CircleSize:2
OverallDifficulty:4
ApproachRate:10
SliderMultiplier:1.4
SliderTickRate:1

[Events]
//Background and Video events
0,0,"bground.png",0,0
//Break Periods
//Storyboard Layer 0 (Background)
//Storyboard Layer 1 (Fail)
//Storyboard Layer 2 (Pass)
//Storyboard Layer 3 (Foreground)
//Storyboard Layer 4 (Overlay)
//Storyboard Sound Samples

[TimingPoints]
345,363.636363636363,4,1,0,60,1,0
35254,-100,4,1,0,70,0,0
46890,-100,4,1,0,80,0,1
70163,-100,4,1,0,70,0,0
81799,-100,4,1,0,60,0,0

[HitObjects]
192,256,11981,5,0,0:0:0:0:
192,256,12163,1,0,0:0:0:0:
320,256,12344,1,8,0:0:0:0:
320,256,12708,1,8,0:0:0:0:
192,256,13072,1,0,0:0:0:0:
192,256,13799,1,0,0:0:0:0:
320,256,14163,1,8,0:0:0:0:
192,256,14344,1,0,0:0:0:0:
320,256,14526,1,8,0:0:0:0:
192,256,14890,1,0,0:0:0:0:
192,256,15435,1,0,0:0:0:0:
320,256,15617,1,8,0:0:0:0:
192,256,15981,1,0,0:0:0:0:
192,256,16708,1,0,0:0:0:0:
320,256,17072,1,8,0:0:0:0:
192,256,17435,1,0,0:0:0:0:
192,256,17799,1,0,0:0:0:0:
320,256,17981,1,8,0:0:0:0:
320,256,18163,1,8,0:0:0:0:
320,256,18526,1,8,0:0:0:0:
192,256,18890,1,0,0:0:0:0:
192,256,19617,1,0,0:0:0:0:
320,256,19981,1,8,0:0:0:0:
192,256,20163,1,0,0:0:0:0:
192,256,20344,1,0,0:0:0:0:
192,256,20708,1,0,0:0:0:0:
192,256,21254,1,0,0:0:0:0:
320,256,21435,1,8,0:0:0:0:
192,256,21799,1,0,0:0:0:0:
192,256,22526,1,0,0:0:0:0:
320,256,22890,1,8,0:0:0:0:
192,256,23254,1,0,0:0:0:0:
192,256,23617,1,0,0:0:0:0:
320,256,23799,1,8,0:0:0:0:
192,256,23981,1,0,0:0:0:0:
320,256,24344,1,8,0:0:0:0:
192,256,24708,1,0,0:0:0:0:
192,256,25435,1,0,0:0:0:0:
320,256,25799,1,8,0:0:0:0:
320,256,25981,1,8,0:0:0:0:
192,256,26163,1,0,0:0:0:0:
192,256,26526,1,0,0:0:0:0:
320,256,26890,1,8,0:0:0:0:
192,256,27072,1,0,0:0:0:0:
320,256,27254,1,8,0:0:0:0:
192,256,27617,1,0,0:0:0:0:
192,256,28344,1,0,0:0:0:0:
320,256,28708,1,8,0:0:0:0:
192,256,29072,1,0,0:0:0:0:
192,256,29435,1,0,0:0:0:0:
320,256,29617,1,8,0:0:0:0:
192,256,29799,1,0,0:0:0:0:
320,256,30163,1,8,0:0:0:0:
192,256,30526,1,0,0:0:0:0:
192,256,31254,1,0,0:0:0:0:
320,256,31617,1,8,0:0:0:0:
192,256,31799,1,0,0:0:0:0:
192,256,31981,1,0,0:0:0:0:
192,256,32344,1,0,0:0:0:0:
192,256,32708,1,8,0:0:0:0:
192,256,32890,1,0,0:0:0:0:
320,256,33072,1,8,0:0:0:0:
192,256,33435,1,0,0:0:0:0:
192,256,34163,1,0,0:0:0:0:
320,256,34526,1,8,0:0:0:0:
320,256,34890,1,0,0:0:0:0:
192,256,35254,1,0,0:0:0:0:
192,256,35435,1,0,0:0:0:0:
320,256,35617,1,8,0:0:0:0:
320,256,35981,1,8,0:0:0:0:
192,256,36163,1,0,0:0:0:0:
320,256,36344,1,8,0:0:0:0:
192,256,36708,1,0,0:0:0:0:
192,256,37435,1,0,0:0:0:0:
320,256,37799,1,8,0:0:0:0:
192,256,38163,1,0,0:0:0:0:
320,256,38344,1,8,0:0:0:0:
320,256,38526,1,8,0:0:0:0:
192,256,38890,1,0,0:0:0:0:
320,256,39254,1,8,0:0:0:0:
192,256,39617,1,0,0:0:0:0:
192,256,40344,1,0,0:0:0:0:
320,256,40708,1,8,0:0:0:0:
320,256,40890,1,8,0:0:0:0:
192,256,41072,1,0,0:0:0:0:
192,256,41254,1,0,0:0:0:0:
320,256,41435,1,8,0:0:0:0:
320,256,41799,1,8,0:0:0:0:
320,256,41981,1,8,0:0:0:0:
192,256,42163,1,0,0:0:0:0:
192,256,42526,1,0,0:0:0:0:
192,256,43254,1,0,0:0:0:0:
320,256,43617,1,8,0:0:0:0:
192,256,43981,1,0,0:0:0:0:
320,256,44163,1,8,0:0:0:0:
192,256,44344,1,0,0:0:0:0:
192,256,44708,1,0,0:0:0:0:
320,256,45072,1,8,0:0:0:0:
192,256,45435,1,0,0:0:0:0:
320,256,46163,1,8,0:0:0:0:
192,256,46344,1,0,0:0:0:0:
320,256,46526,1,8,0:0:0:0:
192,128,46890,1,4,0:0:0:0:
192,256,47254,1,0,0:0:0:0:
320,256,47435,1,8,0:0:0:0:
320,256,47617,1,8,0:0:0:0:
192,256,47981,1,0,0:0:0:0:
320,256,48344,1,8,0:0:0:0:
192,256,48526,1,0,0:0:0:0:
192,256,48708,1,0,0:0:0:0:
320,256,49072,1,8,0:0:0:0:
320,256,49435,1,8,0:0:0:0:
192,256,49799,1,0,0:0:0:0:
192,256,49981,1,0,0:0:0:0:
320,256,50163,1,8,0:0:0:0:
192,256,50344,1,0,0:0:0:0:
320,256,50526,1,8,0:0:0:0:
192,256,50890,1,0,0:0:0:0:
320,256,51254,1,8,0:0:0:0:
192,256,51435,1,8,0:0:0:0:
192,256,51617,1,0,0:0:0:0:
320,256,51981,1,8,0:0:0:0:
192,256,52708,1,0,0:0:0:0:
320,256,53072,1,8,0:0:0:0:
192,256,53254,1,0,0:0:0:0:
320,256,53435,1,8,0:0:0:0:
192,256,53799,1,0,0:0:0:0:
320,256,54163,1,8,0:0:0:0:
192,256,54344,1,0,0:0:0:0:
192,256,54526,1,0,0:0:0:0:
320,256,54890,1,8,0:0:0:0:
320,256,55072,1,8,0:0:0:0:
192,256,55254,1,0,0:0:0:0:
192,256,55617,1,0,0:0:0:0:
320,256,55799,1,8,0:0:0:0:
192,256,55981,1,0,0:0:0:0:
192,256,56163,1,0,0:0:0:0:
320,256,56344,1,8,0:0:0:0:
192,256,56708,1,0,0:0:0:0:
320,256,57072,1,8,0:0:0:0:
192,256,57254,1,0,0:0:0:0:
192,256,57435,1,0,0:0:0:0:
320,256,57799,1,8,0:0:0:0:
192,256,58526,1,0,0:0:0:0:
192,256,58708,1,0,0:0:0:0:
320,256,58890,1,8,0:0:0:0:
320,256,59254,1,8,0:0:0:0:
192,256,59617,1,0,0:0:0:0:
320,256,59981,1,8,0:0:0:0:
192,256,60163,1,0,0:0:0:0:
192,256,60344,1,0,0:0:0:0:
320,256,60708,1,8,0:0:0:0:
320,256,61072,1,8,0:0:0:0:
192,256,61435,1,0,0:0:0:0:
192,256,61617,1,0,0:0:0:0:
320,256,61799,1,8,0:0:0:0:
192,256,61981,1,0,0:0:0:0:
320,256,62163,1,8,0:0:0:0:
192,256,62526,1,0,0:0:0:0:
320,256,62890,1,8,0:0:0:0:
192,256,63072,1,8,0:0:0:0:
192,256,63254,1,0,0:0:0:0:
320,256,63617,1,8,0:0:0:0:
192,256,64344,1,0,0:0:0:0:
320,256,64708,1,8,0:0:0:0:
192,256,64890,1,0,0:0:0:0:
320,256,65072,1,8,0:0:0:0:
192,256,65435,1,0,0:0:0:0:
320,256,65799,1,8,0:0:0:0:
192,256,65981,1,0,0:0:0:0:
192,256,66163,1,0,0:0:0:0:
320,256,66526,1,8,0:0:0:0:
320,256,66708,1,8,0:0:0:0:
192,256,66890,1,0,0:0:0:0:
192,256,67254,1,0,0:0:0:0:
320,256,67435,1,8,0:0:0:0:
192,256,67617,1,0,0:0:0:0:
192,256,67799,1,0,0:0:0:0:
320,256,67981,1,8,0:0:0:0:
192,256,68344,1,0,0:0:0:0:
320,256,68708,1,8,0:0:0:0:
192,256,69072,1,0,0:0:0:0:
192,256,69254,1,0,0:0:0:0:
320,256,69435,1,8,0:0:0:0:
192,256,69617,1,0,0:0:0:0:
320,256,69799,1,8,0:0:0:0:
192,256,70163,1,0,0:0:0:0:
192,256,70344,1,0,0:0:0:0:
320,256,70526,1,8,0:0:0:0:
320,256,70890,1,8,0:0:0:0:
192,256,71072,1,0,0:0:0:0:
320,256,71254,1,8,0:0:0:0:
192,256,71617,1,0,0:0:0:0:
192,256,72344,1,0,0:0:0:0:
320,256,72708,1,8,0:0:0:0:
192,256,73072,1,0,0:0:0:0:
320,256,73254,1,8,0:0:0:0:
320,256,73435,1,8,0:0:0:0:
192,256,73799,1,0,0:0:0:0:
320,256,74163,1,8,0:0:0:0:
192,256,74526,1,0,0:0:0:0:
192,256,75254,1,0,0:0:0:0:
320,256,75617,1,8,0:0:0:0:
320,256,75799,1,8,0:0:0:0:
192,256,75981,1,0,0:0:0:0:
192,256,76163,1,0,0:0:0:0:
320,256,76344,1,8,0:0:0:0:
320,256,76708,1,8,0:0:0:0:
320,256,76890,1,8,0:0:0:0:
192,256,77072,1,0,0:0:0:0:
192,256,77435,1,0,0:0:0:0:
192,256,78163,1,0,0:0:0:0:
320,256,78526,1,8,0:0:0:0:
192,256,78890,1,0,0:0:0:0:
320,256,79072,1,8,0:0:0:0:
192,256,79254,1,0,0:0:0:0:
192,256,79617,1,0,0:0:0:0:
320,256,79981,1,8,0:0:0:0:
192,256,80344,1,0,0:0:0:0:
320,256,81072,1,8,0:0:0:0:
192,256,81254,1,0,0:0:0:0:
320,256,81435,1,8,0:0:0:0:
192,256,81799,1,0,0:0:0:0:
320,256,81981,1,8,0:0:0:0:
320,256,82163,1,8,0:0:0:0:
192,256,82526,1,0,0:0:0:0:
192,256,82708,1,0,0:0:0:0:
320,256,82890,1,8,0:0:0:0:
192,256,83254,1,0,0:0:0:0:
192,256,83981,1,0,0:0:0:0:
320,256,84344,1,8,0:0:0:0:
192,256,84708,1,0,0:0:0:0:
320,256,84890,1,8,0:0:0:0:
320,256,85072,1,8,0:0:0:0:
192,256,85435,1,0,0:0:0:0:
320,256,85799,1,8,0:0:0:0:
192,256,86163,1,0,0:0:0:0:
192,256,86890,1,0,0:0:0:0:
320,256,87254,1,8,0:0:0:0:
320,256,87435,1,8,0:0:0:0:
192,256,87617,1,0,0:0:0:0:
320,256,87799,1,8,0:0:0:0:
320,256,87981,1,8,0:0:0:0:
320,256,88344,1,8,0:0:0:0:
320,256,88526,1,8,0:0:0:0:
192,256,88708,1,0,0:0:0:0:
192,256,89072,1,0,0:0:0:0:
192,256,89799,1,0,0:0:0:0:
320,256,90163,1,8,0:0:0:0:
320,256,90344,1,8,0:0:0:0:
192,256,90526,1,0,0:0:0:0:
320,256,90708,1,8,0:0:0:0:
192,256,90890,1,0,0:0:0:0:
192,256,91254,1,0,0:0:0:0:
320,256,91617,1,8,0:0:0:0:
192,256,91981,1,0,0:0:0:0:
320,256,92708,1,8,0:0:0:0:
192,256,92890,1,0,0:0:0:0:
320,256,93072,1,8,0:0:0:0:
192,128,93435,1,4,0:0:0:0:
