osu file format v14

[General]
AudioFilename: audio.mp3
AudioLeadIn: 0
PreviewTime: 131773
Countdown: 0
SampleSet: Soft
StackLeniency: 0.5
Mode: 0
LetterboxInBreaks: 0
WidescreenStoryboard: 1

[Editor]
DistanceSpacing: 1
BeatDivisor: 4
GridSize: 4
TimelineZoom: 0.9

[Metadata]
Title:u/n
TitleUnicode:u/n
Artist:Kawada Mami
ArtistUnicode:川田まみ
Creator:Reiji Maigo
Version:Insane
Source:灼眼のシャナIII-FINAL-
Tags:shakugan no shana III season 3rd insert song anime rock japanese pop full version serment 尾崎武士 中沢伴行 Mariko Sakuragi
BeatmapID:2470326
BeatmapSetID:1142576

[Difficulty]
HPDrainRate:5
CircleSize:5
OverallDifficulty:7
ApproachRate:7
SliderMultiplier:1.6
SliderTickRate:2

[Events]
//Background and Video events
0,0,"un1.jpg",0,0
//Break Periods
2,153169,156634
//Storyboard Layer 0 (Background)
//Storyboard Layer 1 (Fail)
//Storyboard Layer 2 (Pass)
//Storyboard Layer 3 (Foreground)
//Storyboard Layer 4 (Overlay)
//Storyboard Sound Samples

[TimingPoints]
1665,326.086956521739,4,2,1,20,1,0
1665,-133.333333333333,4,2,1,20,0,0
8675,-133.333333333333,4,2,1,20,0,0
8838,-133.333333333333,4,2,1,20,0,0
14219,-133.333333333333,4,2,1,20,0,0
15034,-133.333333333333,4,2,1,20,0,0
19110,-133.333333333333,4,2,1,20,0,0
19599,-133.333333333333,4,2,1,20,0,0
22371,-133.333333333333,4,2,1,5,0,0
23186,-133.333333333333,4,2,1,15,0,0
23838,-100,4,2,1,55,0,0
24164,-100,4,2,1,55,0,0
34273,-100,4,2,1,65,0,0
34517,-100,4,2,1,5,0,0
34599,-100,4,2,1,65,0,0
44708,-100,4,2,1,55,0,0
47561,-100,4,2,1,5,0,0
47643,-100,4,2,1,55,0,0
57751,-100,4,2,1,65,0,0
58078,-100,4,2,1,65,0,0
66882,-100,4,2,1,50,0,0
67534,-100,4,2,1,55,0,0
68186,-100,4,2,1,45,0,0
68838,-100,4,2,1,40,0,0
76175,-100,4,2,1,55,0,0
78621,-83.3333333333333,4,2,1,75,0,1
78865,-83.3333333333333,4,2,1,75,0,1
78947,-83.3333333333333,4,2,1,75,0,1
88567,-83.3333333333333,4,2,1,60,0,1
88730,-83.3333333333333,4,2,1,45,0,1
88893,-83.3333333333333,4,2,1,30,0,1
89056,-83.3333333333333,4,2,1,80,0,1
99328,-200,4,2,1,80,0,0
99572,-200,4,2,1,5,0,0
99654,-200,4,2,1,75,0,0
99817,-200,4,2,2,75,0,0
100143,-200,4,2,2,40,0,0
100795,-100,4,2,1,75,0,0
101121,-100,4,2,1,55,0,0
111230,-100,4,2,1,65,0,0
120360,-100,4,2,1,50,0,0
121664,-100,4,2,1,45,0,0
122154,-100,4,2,1,40,0,0
129654,-100,4,2,1,50,0,0
132099,-83.3333333333333,4,2,1,75,0,1
132343,-83.3333333333333,4,2,1,75,0,1
132425,-83.3333333333333,4,2,1,75,0,1
142045,-83.3333333333333,4,2,1,60,0,1
142208,-83.3333333333333,4,2,1,45,0,1
142371,-83.3333333333333,4,2,1,30,0,1
142534,-83.3333333333333,4,2,1,80,0,1
152969,-133.333333333333,4,2,2,60,0,0
157534,-133.333333333333,4,2,2,50,0,0
158186,-133.333333333333,4,2,1,55,0,0
162751,-133.333333333333,4,2,2,55,0,0
162995,-133.333333333333,4,2,1,5,0,0
163078,-133.333333333333,4,2,1,55,0,0
173838,-100,4,2,1,55,0,0
184029,-100,4,2,1,30,0,0
184273,-100,4,2,1,55,0,0
186148,-100,4,2,1,5,0,0
186230,-100,4,2,1,55,0,0
186637,-100,4,2,1,25,0,0
186882,-100,4,2,1,55,0,0
194708,-133.333333333333,4,2,1,40,0,0
198621,-133.333333333333,4,2,1,50,0,0
199273,-100,4,2,1,50,0,0
199925,-83.3333333333333,4,2,1,75,0,1
200251,-83.3333333333333,4,2,1,75,0,1
220224,-83.3333333333333,4,2,1,60,0,1
220795,-83.3333333333333,4,2,1,75,0,1
241664,-100,4,2,1,75,0,0

[Colours]
Combo1 : 213,121,165
Combo2 : 224,84,84
Combo3 : 218,150,82

[HitObjects]
368,288,1665,6,0,L|368:144,1,120.000004577637,2|2,0:0|0:0,0:0:0:0:
248,80,2317,1,0,0:0:0:0:
120,144,2643,2,0,P|71:116|106:71,1,120.000004577637,2|2,0:0|0:0,0:0:0:0:
216,160,3295,1,2,0:0:0:0:
336,72,3621,5,2,0:0:0:0:
352,216,3947,1,2,0:0:0:0:
248,312,4273,2,0,P|192:320|128:312,1,120.000004577637,2|0,0:0|0:0,0:0:0:0:
152,248,4762,2,0,P|117:203|92:144,1,120.000004577637,2|0,0:0|0:0,0:0:0:0:
159,132,5251,2,0,P|180:79|218:28,1,120.000004577637,2|0,0:0|0:0,0:0:0:0:
288,24,5741,1,0,0:0:0:0:
336,80,5904,2,0,L|416:80,1,60.0000022888184,2|0,0:0|0:0,0:0:0:0:
464,80,6230,1,2,0:0:0:0:
488,224,6556,1,2,0:0:0:0:
368,304,6882,6,0,B|256:272|256:272|136:304,1,240.000009155274,2|2,0:0|0:0,0:0:0:0:
136,80,7860,1,2,0:0:0:0:
136,80,8023,1,2,0:0:0:0:
136,80,8186,2,0,B|256:112|256:112|368:80,1,240.000009155274,2|2,0:0|0:0,0:0:0:0:
456,192,9164,1,2,0:0:0:0:
400,328,9491,2,0,B|320:296|312:192|312:192|256:256,1,240.000009155274,2|2,0:0|0:0,0:0:0:0:
176,324,10469,2,0,L|88:324,1,60.0000022888184,2|2,0:0|0:0,0:0:0:0:
8,192,11121,5,2,0:0:0:0:
8,192,11284,1,0,0:0:0:0:
8,192,11447,2,0,L|8:48,1,120.000004577637,2|0,0:0|0:0,0:0:0:0:
64,32,11936,1,2,0:0:0:0:
120,72,12099,1,2,0:0:0:0:
256,16,12425,6,0,L|328:16,1,60.0000022888184,2|2,0:0|0:0,0:0:0:0:
312,88,12751,2,0,L|392:88,1,60.0000022888184,2|2,0:0|0:0,0:0:0:0:
432,48,13078,1,0,0:0:0:0:
496,88,13241,2,0,L|496:152,1,60.0000022888184,2|0,0:0|0:0,0:0:0:0:
496,216,13567,2,0,P|360:264|208:208,1,300.000011444092,2|2,0:0|0:0,0:0:0:0:
192,152,14545,5,2,0:0:0:0:
192,152,14708,1,2,0:0:0:0:
56,192,15034,1,2,0:0:0:0:
96,336,15360,1,2,0:0:0:0:
96,336,15523,1,2,0:0:0:0:
240,352,15849,1,2,0:0:0:0:
304,224,16175,1,2,0:0:0:0:
448,248,16501,2,0,L|448:56,1,180.000006866455,2|2,0:0|0:0,0:0:0:0:
448,68,17317,1,2,0:0:0:0:
256,192,17643,12,2,19110,0:0:0:0:
112,208,19599,6,0,L|112:288,2,60.0000022888184,2|0|2,0:0|0:0|0:0,0:0:0:0:
112,208,20251,2,0,L|112:120,1,60.0000022888184,2|0,0:0|0:0,0:0:0:0:
112,80,20578,1,2,0:0:0:0:
112,80,20741,1,2,0:0:0:0:
112,80,20904,1,2,0:0:0:0:
184,80,21067,2,0,L|184:260,1,180.000006866455,2|2,0:0|0:0,0:0:0:0:
184,328,21719,1,2,0:0:0:0:
312,264,22045,1,2,0:0:0:0:
312,264,22208,2,0,L|312:184,2,60.0000022888184
176,192,23186,5,2,0:0:0:0:
176,192,23349,1,0,0:0:0:0:
336,192,23675,1,2,0:0:0:0:
336,192,23838,5,12,0:1:0:0:
336,192,24164,2,0,L|336:32,1,160,10|8,0:0|0:1,0:0:0:0:
256,32,24654,1,8,0:1:0:0:
256,112,24817,1,10,0:0:0:0:
256,192,24980,1,2,0:0:0:0:
256,192,25061,1,2,0:0:0:0:
256,192,25143,1,10,0:1:0:0:
416,192,25469,1,8,0:0:0:0:
336,328,25795,5,10,0:1:0:0:
256,192,26121,1,10,0:0:0:0:
108,256,26447,2,0,P|84:180|106:105,1,160,10|8,0:1|0:0,0:0:0:0:
180,72,26936,2,0,P|255:95|330:73,1,160,2|8,0:0|0:1,0:0:0:0:
396,112,27425,2,0,P|419:187|397:262,2,160,10|0|10,0:0|0:0|0:0,0:0:0:0:
256,24,28404,1,10,0:1:0:0:
124,116,28730,1,10,0:0:0:0:
176,328,29056,6,0,L|344:328,1,160,10|8,0:1|0:0,0:0:0:0:
496,272,29708,2,0,L|496:192,1,80,10|8,0:1|0:1,0:0:0:0:
416,176,30034,2,0,L|456:107,1,80,10|2,0:0|0:0,0:0:0:0:
496,32,30360,2,0,L|336:32,1,160,8|8,0:1|0:0,0:0:0:0:
176,32,31012,6,0,L|176:112,1,80,10|8,0:1|0:1,0:0:0:0:
104,152,31338,2,0,L|143:222,1,80,10|0,0:0|0:0,0:0:0:0:
104,296,31664,2,0,L|272:296,1,160,14|8,0:1|0:0,0:0:0:0:
408,368,32317,6,0,P|424:291|409:212,1,160,10|8,0:1|0:0,0:0:0:0:
266,140,32806,2,0,P|248:217|263:295,1,160,2|8,0:0|0:1,0:0:0:0:
300,368,33295,2,0,L|212:368,1,80,10|2,0:0|0:3,0:0:0:0:
180,368,33539,1,2,0:3:0:0:
180,368,33621,1,10,0:3:0:0:
112,324,33784,1,10,0:1:0:0:
152,256,33947,1,10,0:0:0:0:
152,256,34029,1,2,0:0:0:0:
152,256,34110,1,2,0:0:0:0:
152,256,34192,1,2,0:0:0:0:
152,256,34273,5,14,0:1:0:0:
152,256,34599,2,0,B|128:176|128:176|149:102,1,160,10|8,0:0|0:1,0:0:0:0:
192,32,35088,1,0,0:0:0:0:
256,80,35251,1,10,0:0:0:0:
344,72,35414,1,2,0:0:0:0:
344,72,35496,1,2,0:0:0:0:
344,72,35578,2,0,B|424:48|424:48|496:72,2,160,10|8|2,0:1|0:0|0:0,0:0:0:0:
312,144,36393,1,2,0:0:0:0:
312,144,36556,1,10,0:0:0:0:
176,64,36882,6,0,L|0:64,1,160,10|8,0:1|0:0,0:0:0:0:
312,144,37371,1,2,0:0:0:0:
312,144,37534,2,0,L|472:144,1,160,10|8,0:1|0:0,0:0:0:0:
176,224,38023,1,2,0:0:0:0:
176,224,38186,2,0,L|0:224,2,160,8|8|8,0:1|0:0|0:1,0:0:0:0:
320,312,39164,1,8,0:0:0:0:
320,312,39328,1,6,0:3:0:0:
320,312,39491,1,6,0:3:0:0:
392,272,39654,5,2,0:0:0:0:
392,192,39817,1,10,0:0:0:0:
256,48,40143,1,10,0:1:0:0:
256,128,40306,1,2,0:0:0:0:
136,296,40632,1,2,0:0:0:0:
16,192,40958,1,10,0:1:0:0:
64,128,41121,1,10,0:0:0:0:
64,128,41203,1,2,0:0:0:0:
64,128,41284,2,0,L|160:128,1,80,2|10,0:0|0:1,0:0:0:0:
224,128,41610,1,10,0:1:0:0:
224,48,41773,2,0,L|136:48,2,80,10|2|10,0:0|0:0|0:1,0:0:0:0:
384,88,42425,5,10,0:0:0:0:
384,88,42588,2,0,L|365:174,1,80,2|10,0:0|0:1,0:0:0:0:
288,184,42914,2,0,L|307:270,1,80,2|8,0:0|0:0,0:0:0:0:
368,312,43241,1,2,0:0:0:0:
296,352,43404,2,0,L|112:352,1,160,10|10,0:1|0:0,0:0:0:0:
56,352,43893,2,0,L|56:256,1,80,10|10,0:1|0:1,0:0:0:0:
120,224,44219,1,2,0:0:0:0:
120,224,44382,1,8,0:0:0:0:
120,224,44545,1,6,0:3:0:0:
256,192,44708,12,10,46338,0:0:0:0:
352,336,46664,6,0,L|352:248,1,80,2|10,0:0|0:1,0:0:0:0:
352,256,47154,1,6,0:0:0:0:
352,176,47317,6,0,L|528:176,2,160,12|10|8,0:1|0:0|0:1,0:0:0:0:
272,176,48132,2,0,L|272:256,1,80,0|10,0:0|0:0,0:0:0:0:
192,264,48458,2,0,L|192:352,2,80,2|8|0,0:0|0:1|0:0,0:0:0:0:
192,184,48947,2,0,L|192:96,1,80,8|0,0:0|0:0,0:0:0:0:
192,24,49273,1,10,0:1:0:0:
40,72,49599,1,10,0:0:0:0:
24,232,49925,5,10,0:1:0:0:
88,184,50088,2,0,L|184:184,1,80,2|8,0:0|0:0,0:0:0:0:
176,264,50414,2,0,P|256:248|344:264,1,160,2|8,0:0|0:1,0:0:0:0:
400,304,50904,2,0,P|416:224|400:136,1,160,10|0,0:0|0:0,0:0:0:0:
360,80,51393,2,0,L|281:96,1,80,2|10,0:0|0:0,0:0:0:0:
248,168,51719,2,0,L|169:151,1,80,2|10,0:0|0:1,0:0:0:0:
136,80,52045,1,8,0:1:0:0:
64,112,52208,2,0,L|64:200,1,80,10|0,0:0|0:0,0:0:0:0:
40,272,52534,6,0,B|104:264|104:264|224:312,1,160,10|8,0:1|0:0,0:0:0:0:
340,364,53186,1,10,0:1:0:0:
460,260,53512,1,10,0:0:0:0:
440,184,53675,1,2,0:0:0:0:
432,120,53838,1,10,0:1:0:0:
432,120,54164,1,8,0:0:0:0:
432,120,54491,1,10,0:1:0:0:
432,120,54654,1,8,0:1:0:0:
432,120,54817,2,0,L|344:120,1,80,10|0,0:0|0:0,0:0:0:0:
272,120,55143,6,0,B|248:192|248:192|272:272,2,160,14|8|10,0:1|0:0|0:1,0:0:0:0:
392,16,56121,1,10,0:0:0:0:
392,16,56284,1,2,0:0:0:0:
392,16,56447,1,2,0:0:0:0:
385,233,56773,5,10,0:0:0:0:
214,321,57099,1,10,0:1:0:0:
126,150,57425,1,10,0:0:0:0:
297,62,57751,1,6,0:1:0:0:
296,320,58078,6,0,L|136:320,1,160,10|10,0:0|0:1,0:0:0:0:
56,320,58567,2,0,P|72:272|96:248,1,80,10|8,0:1|0:0,0:0:0:0:
168,248,58893,2,0,P|155:210|128:181,1,80,2|8,0:0|0:1,0:0:0:0:
48,184,59219,1,2,0:0:0:0:
80,112,59382,2,0,L|256:112,1,160,8|2,0:0|0:0,0:0:0:0:
320,112,59871,2,0,L|320:192,1,80,2|8,0:0|0:0,0:0:0:0:
400,240,60197,1,2,0:0:0:0:
400,240,60279,1,2,0:0:0:0:
400,240,60360,6,0,L|400:64,1,160,10|10,0:1|0:0,0:0:0:0:
256,16,61012,2,0,L|256:112,1,80,10|10,0:1|0:1,0:0:0:0:
256,176,61338,1,8,0:0:0:0:
184,216,61501,1,2,0:0:0:0:
184,216,61583,1,2,0:0:0:0:
184,216,61664,1,10,0:1:0:0:
112,176,61828,1,2,0:0:0:0:
112,176,61991,1,10,0:0:0:0:
40,208,62154,1,2,0:0:0:0:
40,208,62235,1,2,0:0:0:0:
40,208,62317,6,0,B|56:248|56:248|40:288|40:288|48:336|104:344,1,160,2|10,0:0|0:0,0:0:0:0:
168,336,62806,1,4,0:3:0:0:
224,280,62969,1,10,0:1:0:0:
384,312,63295,6,0,L|384:128,2,160,14|8|10,0:0|0:1|0:0,0:0:0:0:
312,352,64110,2,0,B|272:368|272:368|224:352,1,80,2|10,0:0|0:1,0:0:0:0:
224,280,64436,2,0,B|184:264|184:264|136:280,1,80,2|10,0:0|0:0,0:0:0:0:
88,328,64762,1,2,0:0:0:0:
24,280,64925,2,0,B|8:240|8:240|24:192,1,80,10|2,0:1|0:0,0:0:0:0:
80,152,65251,1,10,0:0:0:0:
144,192,65414,1,8,0:0:0:0:
208,152,65578,1,12,0:1:0:0:
208,152,65904,6,0,P|288:136|328:72,1,160,10|10,0:0|0:1,0:0:0:0:
392,24,66393,2,0,B|432:16|432:16|480:24,1,80,2|10,0:0|0:0,0:0:0:0:
512,96,66719,1,2,0:0:0:0:
472,168,66882,5,4,0:3:0:0:
472,168,66963,1,4,0:3:0:0:
392,144,67126,1,4,0:3:0:0:
392,144,67208,1,12,0:3:0:0:
336,200,67371,1,10,0:1:0:0:
336,200,67453,1,10,0:1:0:0:
336,200,67534,1,10,0:1:0:0:
336,280,67697,1,10,0:1:0:0:
264,312,67860,1,10,0:0:0:0:
264,312,67942,1,10,0:0:0:0:
264,312,68023,1,10,0:0:0:0:
264,312,68105,1,10,0:0:0:0:
264,312,68186,1,14,0:1:0:0:
136,216,68512,5,10,0:0:0:0:
176,64,68838,2,0,L|344:64,1,160,10|8,0:0|0:1,0:0:0:0:
416,64,69328,1,10,0:0:0:0:
512,192,69654,1,10,0:0:0:0:
416,320,69980,1,10,0:0:0:0:
192,232,70469,2,0,L|192:144,2,80,8|2|12,0:1|0:0|0:1,0:0:0:0:
48,296,71121,5,10,0:0:0:0:
192,368,71447,2,0,L|376:368,1,160,10|8,0:0|0:1,0:0:0:0:
432,368,71936,1,10,0:0:0:0:
328,248,72262,1,10,0:0:0:0:
432,128,72588,1,10,0:0:0:0:
240,16,73078,1,2,0:3:0:0:
240,16,73159,1,2,0:3:0:0:
240,16,73241,1,2,0:3:0:0:
240,16,73322,1,2,0:3:0:0:
240,16,73404,1,2,0:3:0:0:
80,48,73730,5,10,0:0:0:0:
216,128,74056,2,0,L|216:296,1,160,10|8,0:0|0:1,0:0:0:0:
216,368,74545,1,10,0:0:0:0:
368,328,74871,1,10,0:0:0:0:
448,192,75197,1,10,0:0:0:0:
256,48,75686,2,0,L|160:48,2,80,10|2|10,0:1|0:0|0:1,0:0:0:0:
336,48,76175,6,0,B|352:88|352:88|336:144,1,80,2|10,0:0|0:0,0:0:0:0:
200,192,76664,2,0,B|184:232|184:232|200:288,2,80,10|10|10,0:0|0:1|0:0,0:0:0:0:
272,232,77154,2,0,L|456:232,1,160,10|8,0:0|0:3,0:0:0:0:
504,192,77643,1,10,0:1:0:0:
504,192,77806,1,10,0:0:0:0:
432,152,77969,1,10,0:0:0:0:
432,152,78050,1,10,0:0:0:0:
432,152,78132,1,10,0:0:0:0:
432,152,78213,1,10,0:0:0:0:
432,152,78295,1,10,0:0:0:0:
432,152,78376,1,10,0:0:0:0:
432,152,78458,1,10,0:0:0:0:
432,152,78539,1,10,0:0:0:0:
432,152,78621,5,14,0:1:0:0:
368,376,78947,1,10,0:0:0:0:
144,312,79273,2,0,P|120:224|160:112,1,191.999994140625,10|8,0:1|0:0,0:0:0:0:
240,80,79762,1,10,0:1:0:0:
240,80,79844,1,2,0:0:0:0:
240,80,79925,1,2,0:0:0:0:
336,96,80088,1,10,0:1:0:0:
400,24,80251,1,8,0:0:0:0:
504,192,80578,5,10,0:1:0:0:
336,288,80904,1,10,0:0:0:0:
336,288,81067,1,8,0:1:0:0:
336,288,81230,2,0,L|336:96,1,191.999994140625,10|10,0:1|0:0,0:0:0:0:
256,40,81719,2,0,L|256:152,1,95.9999970703126,2|8,0:0|0:1,0:0:0:0:
256,232,82045,1,10,0:1:0:0:
256,232,82126,1,2,0:0:0:0:
256,232,82208,1,10,0:0:0:0:
256,232,82371,1,2,0:0:0:0:
183,296,82534,6,0,P|92:320|0:296,1,191.999994140625,2|10,0:0|0:0,0:0:0:0:
40,208,83023,1,2,0:0:0:0:
16,112,83186,1,8,0:1:0:0:
104,64,83349,1,10,0:1:0:0:
176,0,83512,1,8,0:0:0:0:
264,32,83675,1,10,0:1:0:0:
256,128,83838,1,12,0:1:0:0:
440,184,84164,1,8,0:0:0:0:
304,320,84491,6,0,L|96:320,1,191.999994140625,10|10,0:1|0:0,0:0:0:0:
16,320,84980,1,10,0:1:0:0:
16,320,85061,1,2,0:0:0:0:
16,320,85143,1,2,0:0:0:0:
64,232,85306,1,8,0:1:0:0:
16,152,85469,1,8,0:0:0:0:
160,24,85795,5,10,0:1:0:0:
352,24,86121,1,10,0:0:0:0:
343,215,86447,2,0,P|255:183|167:216,1,191.999994140625,2|8,0:0|0:0,0:0:0:0:
112,296,86936,1,2,0:0:0:0:
112,296,87099,1,10,0:1:0:0:
168,64,87425,5,8,0:0:0:0:
168,64,87588,1,0,0:1:0:0:
168,64,87751,2,0,P|256:96|344:63,1,191.999994140625,10|10,0:1|0:0,0:0:0:0:
432,104,88241,2,0,L|420:215,1,95.9999970703126,10|6,0:1|0:3,0:0:0:0:
336,224,88567,1,4,0:3:0:0:
336,224,88648,1,4,0:3:0:0:
336,224,88730,2,0,L|347:335,1,95.9999970703126,8|8,0:1|0:1,0:0:0:0:
352,360,88974,1,8,0:1:0:0:
352,360,89056,5,14,0:1:0:0:
352,360,89219,1,2,0:0:0:0:
256,376,89382,1,10,0:0:0:0:
256,376,89545,1,2,0:0:0:0:
184,312,89708,1,8,0:0:0:0:
184,312,89871,1,10,0:1:0:0:
208,216,90034,1,8,0:0:0:0:
208,216,90197,1,10,0:1:0:0:
128,168,90360,1,10,0:0:0:0:
128,168,90686,1,10,0:0:0:0:
128,168,90849,1,0,0:0:0:0:
128,168,91012,6,0,L|128:40,1,95.9999970703126,10|8,0:0|0:1,0:0:0:0:
208,16,91338,1,10,0:0:0:0:
296,56,91501,1,8,0:1:0:0:
384,16,91664,6,0,L|384:120,2,95.9999970703126,14|0|10,0:0|0:0|0:0,0:0:0:0:
472,232,92154,2,0,L|472:136,2,95.9999970703126,10|8|2,0:1|0:0|0:0,0:0:0:0:
472,328,92643,1,10,0:0:0:0:
384,288,92806,1,0,0:0:0:0:
288,192,92969,6,0,L|384:192,2,95.9999970703126,14|0|8,0:0|0:0|0:0,0:0:0:0:
192,260,93458,2,0,L|96:260,2,95.9999970703126,10|8|8,0:1|0:0|0:1,0:0:0:0:
152,352,93947,1,10,0:0:0:0:
152,352,94029,1,2,0:0:0:0:
152,352,94110,1,10,0:1:0:0:
152,352,94273,5,14,0:0:0:0:
64,328,94436,1,0,0:0:0:0:
8,248,94599,1,10,0:0:0:0:
16,152,94762,1,8,0:1:0:0:
80,80,94925,1,10,0:0:0:0:
176,64,95088,1,8,0:1:0:0:
264,104,95251,1,10,0:0:0:0:
296,192,95414,1,8,0:1:0:0:
272,288,95578,1,10,0:0:0:0:
104,192,95904,5,10,0:0:0:0:
368,344,96230,1,10,0:0:0:0:
472,56,96556,1,10,0:0:0:0:
200,200,96882,6,0,P|168:280|56:272,1,191.999994140625,10|10,0:0|0:0,0:0:0:0:
24,200,97371,2,0,P|56:120|168:128,1,191.999994140625,2|2,0:0|0:0,0:0:0:0:
200,200,97860,2,0,L|304:200,1,95.9999970703126,10|8,0:0|0:1,0:0:0:0:
392,200,98186,6,0,P|440:184|472:136,1,95.9999970703126,10|2,0:1|0:0,0:0:0:0:
472,112,98431,1,10,0:1:0:0:
472,112,98512,1,10,0:0:0:0:
408,40,98675,1,2,0:0:0:0:
320,80,98838,1,6,0:3:0:0:
280,80,98920,1,4,0:3:0:0:
240,80,99001,1,4,0:3:0:0:
151,114,99164,1,4,0:3:0:0:
111,114,99246,1,4,0:3:0:0:
71,114,99327,1,4,0:3:0:0:
256,192,100795,5,12,0:1:0:0:
256,192,100958,1,0,0:0:0:0:
256,192,101121,2,0,L|256:352,2,160,10|8|10,0:0|0:1|0:0,0:0:0:0:
296,120,101936,1,2,0:0:0:0:
296,120,102018,1,2,0:0:0:0:
296,120,102099,1,10,0:1:0:0:
368,88,102262,1,0,0:0:0:0:
440,120,102425,1,8,0:0:0:0:
504,264,102751,5,10,0:1:0:0:
368,352,103078,1,10,0:0:0:0:
256,240,103404,2,0,P|176:224|88:248,1,160,10|10,0:1|0:0,0:0:0:0:
32,288,103893,2,0,P|16:208|40:120,1,160,2|8,0:0|0:1,0:0:0:0:
104,96,104382,2,0,P|184:112|272:88,2,160,10|0|10,0:0|0:0|0:0,0:0:0:0:
176,248,105360,1,10,0:1:0:0:
176,248,105523,1,8,0:1:0:0:
176,248,105686,2,0,L|280:248,1,80,10|0,0:0|0:0,0:0:0:0:
336,248,106012,6,0,P|412:216|432:128,1,160,10|8,0:1|0:0,0:0:0:0:
372,12,106664,1,10,0:1:0:0:
372,12,106746,1,2,0:0:0:0:
372,12,106828,2,0,L|284:12,1,80,10|10,0:1|0:0,0:0:0:0:
244,76,107155,2,0,L|148:76,1,80,2|8,0:0|0:1,0:0:0:0:
84,76,107480,1,0,0:0:0:0:
4,76,107643,1,10,0:0:0:0:
20,236,107969,6,0,P|76:180|172:188,1,160,10|10,0:1|0:0,0:0:0:0:
232,220,108458,1,2,0:0:0:0:
232,220,108539,1,2,0:0:0:0:
232,220,108621,1,14,0:1:0:0:
312,236,108784,1,0,0:0:0:0:
384,196,108947,1,8,0:0:0:0:
400,32,109273,5,10,0:1:0:0:
352,96,109436,2,0,B|320:120|320:120|256:120,1,80,8|10,0:1|0:0,0:0:0:0:
216,72,109762,2,0,B|176:72|176:72|144:96,1,80,2|0,0:0|0:0,0:0:0:0:
8,8,110251,6,0,L|8:184,1,160,10|10,0:0|0:1,0:0:0:0:
56,232,110741,1,10,0:1:0:0:
136,240,110904,1,8,0:0:0:0:
200,192,111067,1,10,0:0:0:0:
200,192,111148,1,10,0:0:0:0:
200,192,111230,1,6,0:1:0:0:
232,32,111556,5,10,0:0:0:0:
312,40,111719,1,0,0:0:0:0:
368,96,111882,1,10,0:1:0:0:
376,176,112045,1,10,0:1:0:0:
376,176,112126,1,2,0:0:0:0:
376,176,112208,1,10,0:0:0:0:
328,240,112371,1,2,0:0:0:0:
328,240,112453,1,2,0:0:0:0:
328,240,112534,1,10,0:1:0:0:
376,312,112697,1,2,0:0:0:0:
376,312,112860,1,10,0:0:0:0:
312,360,113023,1,2,0:0:0:0:
232,360,113186,1,0,0:0:0:0:
168,312,113349,1,2,0:0:0:0:
240,280,113512,1,8,0:0:0:0:
176,232,113675,1,2,0:0:0:0:
176,232,113757,1,2,0:0:0:0:
176,232,113838,6,0,L|176:48,2,160,0|10|10,0:0|0:0|0:1,0:0:0:0:
104,192,114654,2,0,L|104:96,1,80,10|8,0:1|0:0,0:0:0:0:
104,32,114980,1,2,0:0:0:0:
256,0,115306,1,2,0:0:0:0:
372,108,115632,1,2,0:0:0:0:
372,108,115713,1,2,0:0:0:0:
372,108,115795,1,2,0:0:0:0:
304,148,115958,1,10,0:1:0:0:
304,180,116039,1,2,0:0:0:0:
304,212,116121,1,10,0:0:0:0:
372,256,116284,1,4,0:3:0:0:
328,324,116447,1,14,0:1:0:0:
184,324,116610,5,2,0:0:0:0:
256,360,116773,1,10,0:0:0:0:
328,324,116936,1,2,0:0:0:0:
184,60,117262,1,10,0:1:0:0:
256,24,117425,1,10,0:0:0:0:
328,60,117588,1,2,0:0:0:0:
184,324,117914,1,2,0:0:0:0:
256,360,118077,1,10,0:0:0:0:
328,324,118240,1,2,0:0:0:0:
256,24,118730,5,10,0:0:0:0:
256,104,118893,1,10,0:0:0:0:
256,184,119056,1,8,0:1:0:0:
136,296,119382,6,0,P|56:296|80:224,1,160,8|10,0:0|0:1,0:0:0:0:
120,184,119871,1,10,0:1:0:0:
192,216,120034,1,8,0:0:0:0:
256,168,120197,1,2,0:0:0:0:
336,176,120360,5,4,0:3:0:0:
336,176,120442,1,4,0:3:0:0:
384,240,120605,1,4,0:3:0:0:
384,240,120686,1,8,0:0:0:0:
336,304,120849,1,2,0:0:0:0:
336,304,120931,1,2,0:0:0:0:
336,304,121012,1,10,0:0:0:0:
256,288,121175,1,10,0:1:0:0:
200,344,121338,1,2,0:3:0:0:
200,344,121420,1,2,0:3:0:0:
200,344,121501,1,2,0:3:0:0:
200,344,121583,1,2,0:3:0:0:
200,344,121664,1,14,0:1:0:0:
160,184,121991,5,10,0:0:0:0:
16,256,122317,2,0,L|16:96,1,160,10|8,0:0|0:1,0:0:0:0:
16,16,122806,1,10,0:0:0:0:
168,64,123132,1,10,0:0:0:0:
320,8,123458,1,10,0:0:0:0:
472,192,123947,2,0,L|384:192,2,80,8|2|12,0:1|0:0|0:1,0:0:0:0:
432,344,124599,5,10,0:0:0:0:
280,296,124925,2,0,L|112:296,1,160,10|8,0:0|0:1,0:0:0:0:
40,296,125414,1,10,0:0:0:0:
8,136,125741,1,10,0:0:0:0:
128,32,126067,1,10,0:0:0:0:
384,40,126556,1,2,0:3:0:0:
384,40,126637,1,2,0:3:0:0:
384,40,126719,1,2,0:3:0:0:
384,40,126800,1,2,0:3:0:0:
384,40,126882,1,2,0:3:0:0:
504,144,127208,5,10,0:0:0:0:
352,184,127534,2,0,L|352:352,1,160,10|8,0:0|0:1,0:0:0:0:
280,376,128023,1,10,0:0:0:0:
424,312,128349,1,10,0:0:0:0:
280,240,128675,1,10,0:0:0:0:
48,312,129164,2,0,L|136:312,2,80,10|2|8,0:1|0:0|0:1,0:0:0:0:
8,240,129654,6,0,B|0:200|0:200|16:144,1,80,2|10,0:0|0:0,0:0:0:0:
152,88,130143,2,0,B|160:128|160:128|144:184,2,80,10|10|10,0:0|0:1|0:0,0:0:0:0:
80,64,130632,2,0,P|136:8|216:48,1,160,10|8,0:0|0:3,0:0:0:0:
240,104,131121,1,10,0:1:0:0:
240,104,131284,1,10,0:0:0:0:
320,64,131447,1,10,0:0:0:0:
320,64,131529,1,10,0:0:0:0:
320,64,131610,1,10,0:0:0:0:
320,64,131692,1,10,0:0:0:0:
320,64,131773,1,10,0:0:0:0:
320,64,131855,1,10,0:0:0:0:
320,64,131936,1,10,0:0:0:0:
320,64,132018,1,10,0:0:0:0:
320,64,132099,5,14,0:1:0:0:
112,160,132425,1,10,0:0:0:0:
192,376,132751,2,0,P|272:352|312:248,1,191.999994140625,10|8,0:1|0:0,0:0:0:0:
264,184,133241,1,10,0:1:0:0:
264,184,133322,1,2,0:0:0:0:
264,184,133404,1,2,0:0:0:0:
360,176,133567,1,10,0:1:0:0:
400,88,133730,1,8,0:0:0:0:
488,256,134056,5,10,0:1:0:0:
312,312,134382,1,10,0:0:0:0:
312,312,134545,1,0,0:0:0:0:
312,312,134708,2,0,B|344:248|344:248|304:112,1,191.999994140625,10|10,0:1|0:0,0:0:0:0:
232,72,135197,2,0,B|184:88|184:88|120:64,1,95.9999970703126,2|2,0:0|0:0,0:0:0:0:
56,16,135523,1,10,0:1:0:0:
56,16,135605,1,2,0:0:0:0:
56,16,135686,1,10,0:0:0:0:
56,16,135849,1,2,0:0:0:0:
8,104,136012,6,0,P|64:152|80:280,1,191.999994140625,2|10,0:0|0:0,0:0:0:0:
32,344,136501,1,2,0:0:0:0:
120,376,136664,1,8,0:1:0:0:
184,304,136828,1,10,0:1:0:0:
280,288,136991,1,8,0:0:0:0:
376,336,137154,1,10,0:1:0:0:
376,336,137235,1,2,0:0:0:0:
376,336,137317,1,14,0:1:0:0:
504,192,137643,1,8,0:0:0:0:
424,16,137969,6,0,L|232:16,1,191.999994140625,10|10,0:1|0:0,0:0:0:0:
136,16,138458,1,10,0:1:0:0:
136,16,138539,1,2,0:0:0:0:
136,16,138621,1,2,0:0:0:0:
56,72,138784,1,8,0:1:0:0:
80,160,138947,1,8,0:0:0:0:
160,352,139273,5,10,0:1:0:0:
352,352,139599,1,10,0:0:0:0:
343,161,139925,2,0,P|255:193|167:160,1,191.999994140625,10|8,0:1|0:0,0:0:0:0:
112,80,140414,1,2,0:0:0:0:
112,80,140577,1,8,0:1:0:0:
168,312,140903,5,8,0:0:0:0:
168,312,141066,1,10,0:1:0:0:
168,312,141229,2,0,P|256:280|344:313,1,191.999994140625,10|10,0:1|0:0,0:0:0:0:
432,248,141719,2,0,B|448:200|448:200|432:128,1,95.9999970703126,10|6,0:1|0:3,0:0:0:0:
344,128,142045,1,4,0:3:0:0:
344,128,142126,1,4,0:3:0:0:
344,128,142208,2,0,B|328:80|328:80|344:8,1,95.9999970703126,8|8,0:1|0:1,0:0:0:0:
376,24,142453,1,8,0:1:0:0:
376,24,142534,5,14,0:1:0:0:
376,24,142697,1,2,0:0:0:0:
456,80,142860,1,10,0:0:0:0:
456,80,143023,1,2,0:0:0:0:
416,168,143186,1,8,0:0:0:0:
416,168,143349,1,10,0:1:0:0:
472,248,143512,1,8,0:0:0:0:
472,248,143675,1,10,0:1:0:0:
400,312,143838,1,10,0:0:0:0:
400,312,144164,1,10,0:0:0:0:
400,312,144328,1,0,0:0:0:0:
400,312,144491,6,0,L|288:312,1,95.9999970703126,10|0,0:0|0:0,0:0:0:0:
208,288,144817,1,10,0:0:0:0:
168,200,144980,1,0,0:0:0:0:
240,136,145143,6,0,L|240:32,2,95.9999970703126,14|8|10,0:0|0:1|0:0,0:0:0:0:
88,200,145632,2,0,L|88:296,2,95.9999970703126,2|8|2,0:0|0:0|0:0,0:0:0:0:
144,120,146121,1,10,0:0:0:0:
240,136,146284,1,8,0:1:0:0:
208,248,146447,6,0,L|208:344,2,95.9999970703126,14|8|8,0:0|0:1|0:0,0:0:0:0:
352,152,146936,2,0,L|352:56,2,95.9999970703126,10|8|10,0:1|0:0|0:1,0:0:0:0:
304,232,147425,1,10,0:0:0:0:
304,232,147507,1,2,0:0:0:0:
304,232,147588,1,10,0:1:0:0:
304,232,147751,5,14,0:0:0:0:
208,248,147914,1,0,0:0:0:0:
112,232,148078,1,10,0:0:0:0:
64,152,148241,1,8,0:1:0:0:
64,56,148404,1,10,0:0:0:0:
152,104,148567,1,8,0:1:0:0:
248,112,148730,1,10,0:0:0:0:
336,72,148893,1,8,0:1:0:0:
256,16,149056,1,10,0:0:0:0:
168,184,149382,5,10,0:0:0:0:
400,360,149708,1,10,0:0:0:0:
496,88,150034,1,10,0:0:0:0:
360,224,150360,6,0,P|296:152|312:40,1,191.999994140625,10|10,0:0|0:0,0:0:0:0:
392,88,150849,2,0,P|320:152|208:136,1,191.999994140625,2|0,0:0|0:0,0:0:0:0:
168,72,151338,2,0,P|120:56|64:80,1,95.9999970703126,10|8,0:0|0:1,0:0:0:0:
8,128,151664,6,0,L|8:232,1,95.9999970703126,10|2,0:1|0:0,0:0:0:0:
8,264,151909,1,10,0:1:0:0:
8,264,151991,1,10,0:0:0:0:
64,344,152154,1,10,0:1:0:0:
152,304,152317,1,4,0:3:0:0:
192,304,152398,1,4,0:3:0:0:
232,304,152480,1,4,0:3:0:0:
320,264,152643,1,4,0:3:0:0:
320,264,152724,1,4,0:3:0:0:
320,264,152806,1,4,0:3:0:0:
320,264,152969,5,2,0:0:0:0:
168,128,157534,5,8,0:0:0:0:
168,128,157697,1,8,0:0:0:0:
372,224,158186,5,12,0:1:0:0:
320,332,158512,1,2,0:0:0:0:
208,372,158838,1,8,0:0:0:0:
88,384,159164,2,0,L|16:384,1,60.0000022888184,2|8,0:0|0:1,0:0:0:0:
88,256,159654,2,0,L|176:256,2,60.0000022888184,2|8|2,0:0|0:1|0:0,0:0:0:0:
256,160,160306,2,0,L|196:160,2,60.0000022888184,2|2|2,0:3|0:3|0:3,0:0:0:0:
328,160,160795,5,8,0:1:0:0:
456,232,161121,1,2,0:0:0:0:
480,88,161447,1,8,0:0:0:0:
360,8,161773,2,0,L|280:8,1,60.0000022888184,2|8,0:0|0:1,0:0:0:0:
192,104,162262,2,0,L|120:104,2,60.0000022888184,2|8|0,0:0|0:1|0:0,0:0:0:0:
264,104,162751,1,8,0:0:0:0:
384,192,163078,6,0,B|392:224|392:224|384:264,1,60.0000022888184,2|2,0:0|0:0,0:0:0:0:
360,320,163404,1,8,0:1:0:0:
224,360,163730,1,2,0:0:0:0:
112,272,164056,1,8,0:0:0:0:
152,136,164382,2,0,L|232:136,1,60.0000022888184,2|8,0:0|0:1,0:0:0:0:
320,40,164871,2,0,L|240:40,2,60.0000022888184,2|8|0,0:0|0:1|0:0,0:0:0:0:
360,104,165360,2,0,L|440:104,3,60.0000022888184,8|8|2|2,0:0|0:0|0:0|0:0,0:0:0:0:
488,104,166012,5,8,0:1:0:0:
512,248,166338,1,2,0:0:0:0:
400,336,166664,1,8,0:0:0:0:
256,312,166991,2,0,L|256:240,1,60.0000022888184,2|8,0:0|0:1,0:0:0:0:
128,192,167480,2,0,L|128:256,2,60.0000022888184,8|8|0,0:0|0:1|0:0,0:0:0:0:
128,120,167969,1,8,0:0:0:0:
256,64,168295,2,0,L|256:0,2,60.0000022888184,2|8|12,0:0|0:0|0:1,0:0:0:0:
256,208,168947,5,2,0:0:0:0:
368,120,169273,1,8,0:0:0:0:
496,192,169599,2,0,L|496:264,1,60.0000022888184,2|8,0:0|0:1,0:0:0:0:
376,328,170088,2,0,L|376:256,2,60.0000022888184,2|8|0,0:0|0:1|0:0,0:0:0:0:
256,180,170741,2,0,L|256:240,2,60.0000022888184,2|2|2,0:3|0:3|0:3,0:0:0:0:
256,112,171230,5,8,0:1:0:0:
152,16,171556,1,2,0:0:0:0:
16,48,171882,1,8,0:0:0:0:
0,192,172208,1,2,0:0:0:0:
0,192,172371,2,0,L|72:192,1,60.0000022888184,8|8,0:1|0:0,0:0:0:0:
120,144,172697,2,0,L|160:213,1,60.0000022888184,2|10,0:0|0:0,0:0:0:0:
104,256,173023,1,8,0:1:0:0:
152,312,173186,1,10,0:0:0:0:
184,312,173268,1,8,0:0:0:0:
216,312,173349,1,10,0:0:0:0:
280,360,173512,1,8,0:0:0:0:
280,360,173594,1,8,0:0:0:0:
280,360,173675,1,10,0:0:0:0:
360,344,173838,6,0,P|336:272|368:176,1,160,14|10,0:1|0:0,0:0:0:0:
440,200,174328,2,0,P|432:160|400:120,1,80,10|0,0:1|0:0,0:0:0:0:
328,120,174654,2,0,P|344:82|383:50,1,80,10|10,0:1|0:0,0:0:0:0:
304,8,174980,2,0,L|136:8,1,160,10|10,0:1|0:1,0:0:0:0:
64,8,175469,1,10,0:0:0:0:
24,80,175632,2,0,L|208:80,1,160,8|8,0:1|0:1,0:0:0:0:
264,80,176121,1,8,0:0:0:0:
408,152,176447,5,2,0:0:0:0:
456,216,176610,1,10,0:1:0:0:
408,280,176773,1,10,0:0:0:0:
448,352,176936,2,0,P|368:360|328:288,1,160,2|2,0:0|0:0,0:0:0:0:
352,224,177425,2,0,P|276:231|247:302,1,160,10|0,0:0|0:0,0:0:0:0:
280,376,177914,2,0,P|231:382|184:356,1,80,2|10,0:0|0:0,0:0:0:0:
96,256,178404,2,0,L|96:80,1,160,10|8,0:1|0:0,0:0:0:0:
96,16,178893,1,4,0:3:0:0:
176,16,179056,6,0,L|176:72,2,40,12|0|2,0:1|0:0|0:0,0:0:0:0:
272,88,179382,2,0,L|272:48,2,40,8|0|2,0:0|0:0|0:0,0:0:0:0:
368,120,179708,1,8,0:1:0:0:
368,200,179871,1,8,0:1:0:0:
368,280,180034,1,8,0:0:0:0:
368,360,180197,1,8,0:1:0:0:
368,360,180523,5,2,0:0:0:0:
288,360,180686,1,8,0:0:0:0:
288,280,180849,1,2,0:0:0:0:
368,280,181012,1,8,0:1:0:0:
288,280,181175,1,2,0:0:0:0:
288,360,181338,1,8,0:0:0:0:
368,360,181501,1,6,0:3:0:0:
368,280,181664,6,0,L|368:224,2,40,12|0|2,0:1|0:0|0:0,0:0:0:0:
480,320,181991,2,0,L|480:384,2,40,8|0|2,0:0|0:0|0:0,0:0:0:0:
480,240,182317,1,8,0:1:0:0:
480,160,182480,1,8,0:0:0:0:
480,80,182643,1,8,0:1:0:0:
480,0,182806,1,8,0:1:0:0:
480,0,183132,5,8,0:1:0:0:
400,0,183295,2,0,L|304:0,1,80,8|2,0:0|0:0,0:0:0:0:
288,0,183539,1,8,0:0:0:0:
288,0,183621,1,8,0:1:0:0:
232,56,183784,1,8,0:1:0:0:
232,56,183866,1,8,0:0:0:0:
232,56,183947,1,8,0:0:0:0:
232,56,184029,1,8,0:1:0:0:
232,56,184110,1,8,0:1:0:0:
216,136,184273,6,0,B|168:112|168:112|48:136,1,160,14|10,0:1|0:0,0:0:0:0:
16,200,184762,1,2,0:0:0:0:
64,264,184925,1,10,0:1:0:0:
48,344,185088,1,10,0:0:0:0:
128,320,185251,1,10,0:1:0:0:
200,360,185414,2,0,P|264:320|368:320,1,160,10|10,0:1|0:1,0:0:0:0:
424,344,185904,1,10,0:0:0:0:
496,304,186067,2,0,P|504:264|496:216,1,80,2|8,0:0|0:1,0:0:0:0:
432,184,186393,1,2,0:0:0:0:
432,184,186474,1,8,0:0:0:0:
432,184,186556,1,8,0:0:0:0:
432,184,186637,1,2,0:0:0:0:
432,184,186719,6,0,B|392:200|392:200|344:184,1,80,8|14,0:1|0:1,0:0:0:0:
320,120,187045,2,0,B|280:104|280:104|232:120,1,80,2|10,0:0|0:0,0:0:0:0:
192,176,187371,1,2,0:0:0:0:
368,344,187860,5,10,0:0:0:0:
312,288,188023,1,2,0:0:0:0:
256,344,188186,1,8,0:1:0:0:
200,288,188349,1,2,0:0:0:0:
144,344,188512,1,10,0:0:0:0:
24,240,188838,1,10,0:1:0:0:
88,96,189164,1,10,0:0:0:0:
88,96,189328,1,8,0:1:0:0:
256,192,189491,12,8,191773,0:0:0:0:
344,112,192099,6,0,L|344:288,1,160,12|8,0:0|0:0,0:0:0:0:
256,328,192588,2,0,L|256:232,1,80,2|8,0:0|0:1,0:0:0:0:
176,232,192914,2,0,L|176:144,1,80,8|8,0:0|0:1,0:0:0:0:
176,72,193241,1,2,0:1:0:0:
192,72,193322,1,2,0:1:0:0:
208,72,193404,1,2,0:1:0:0:
224,72,193485,1,2,0:1:0:0:
240,72,193567,1,10,0:1:0:0:
256,72,193648,1,2,0:1:0:0:
272,72,193730,1,10,0:0:0:0:
288,72,193811,1,2,0:1:0:0:
304,72,193893,1,2,0:1:0:0:
320,72,193974,1,2,0:1:0:0:
336,72,194056,6,0,L|384:72,1,40,10|2,0:1|0:3,0:0:0:0:
392,56,194219,2,0,L|427:87,1,40,2|2,0:3|0:3,0:0:0:0:
448,80,194382,2,0,L|453:126,1,40,10|10,0:0|0:1,0:0:0:0:
472,136,194545,2,0,L|444:174,1,40,10|10,0:1|0:1,0:0:0:0:
384,240,194708,6,0,L|248:240,1,120.000004577637,8|2,0:1|0:1,0:0:0:0:
120,240,195360,1,10,0:1:0:0:
16,144,195686,1,2,0:1:0:0:
88,128,195849,2,0,L|88:48,1,60.0000022888184,10|2,0:1|0:0,0:0:0:0:
160,112,196175,2,0,L|160:32,1,60.0000022888184,2|10,0:1|0:1,0:0:0:0:
232,96,196501,2,0,L|232:16,1,60.0000022888184,2|10,0:1|0:1,0:0:0:0:
304,20,196828,1,2,0:1:0:0:
304,88,196991,1,10,0:1:0:0:
440,128,197317,6,0,L|440:248,1,120.000004577637,10|2,0:1|0:0,0:0:0:0:
336,344,197969,1,10,0:1:0:0:
200,296,198295,2,0,L|128:296,1,60.0000022888184,2|2,0:0|0:0,0:0:0:0:
144,224,198621,2,0,L|81:188,1,60.0000022888184,10|10,0:1|0:1,0:0:0:0:
136,136,198947,2,0,L|100:73,1,60.0000022888184,10|10,0:1|0:1,0:0:0:0:
184,48,199273,1,10,0:0:0:0:
184,48,199355,1,10,0:0:0:0:
184,48,199436,1,10,0:0:0:0:
184,48,199518,1,10,0:0:0:0:
184,48,199599,1,10,0:0:0:0:
184,48,199681,1,10,0:0:0:0:
184,48,199762,1,10,0:0:0:0:
184,48,199844,1,10,0:0:0:0:
184,48,199925,5,14,0:1:0:0:
0,192,200251,1,10,0:0:0:0:
160,360,200578,2,0,P|248:328|338:357,1,191.999994140625,2|8,0:0|0:0,0:0:0:0:
456,360,201067,1,10,0:1:0:0:
456,360,201148,1,2,0:0:0:0:
456,360,201230,1,2,0:0:0:0:
384,272,201393,1,10,0:1:0:0:
464,192,201556,1,8,0:0:0:0:
256,152,201882,5,10,0:1:0:0:
88,240,202208,1,10,0:0:0:0:
88,240,202371,1,8,0:1:0:0:
88,240,202534,2,0,P|112:144|80:40,1,191.999994140625,10|10,0:1|0:0,0:0:0:0:
168,0,203023,2,0,P|216:24|280:16,1,95.9999970703126,2|0,0:0|0:0,0:0:0:0:
352,0,203349,1,10,0:1:0:0:
352,0,203431,1,2,0:0:0:0:
352,0,203512,1,10,0:0:0:0:
352,0,203675,1,2,0:0:0:0:
432,56,203838,6,0,L|432:256,1,191.999994140625,2|10,0:0|0:0,0:0:0:0:
384,336,204328,1,2,0:0:0:0:
288,328,204491,1,8,0:1:0:0:
224,256,204654,1,10,0:1:0:0:
128,232,204817,1,8,0:0:0:0:
40,272,204980,1,10,0:1:0:0:
40,272,205061,1,2,0:0:0:0:
40,272,205143,1,14,0:1:0:0:
0,80,205469,1,8,0:0:0:0:
176,8,205795,6,0,B|224:32|224:32|376:16,1,191.999994140625,10|10,0:1|0:0,0:0:0:0:
448,64,206284,1,10,0:1:0:0:
448,64,206366,1,2,0:0:0:0:
448,64,206447,1,2,0:0:0:0:
368,112,206610,1,8,0:1:0:0:
384,208,206773,1,8,0:0:0:0:
256,352,207099,5,10,0:1:0:0:
72,304,207425,1,10,0:0:0:0:
24,120,207751,2,0,P|72:40|160:88,1,191.999994140625,10|8,0:1|0:0,0:0:0:0:
264,104,208241,2,0,P|179:77|137:155,1,191.999994140625,2|2,0:0|0:0,0:0:0:0:
152,248,208730,1,8,0:0:0:0:
232,312,208893,1,2,0:1:0:0:
232,312,208974,1,2,0:0:0:0:
232,312,209056,6,0,B|328:264|328:360|448:280,2,191.999994140625,10|10|10,0:1|0:0|0:0,0:0:0:0:
144,344,209871,1,10,0:0:0:0:
64,296,210034,1,10,0:0:0:0:
64,296,210116,1,10,0:0:0:0:
64,296,210197,1,10,0:0:0:0:
64,296,210279,1,10,0:0:0:0:
64,296,210360,6,0,B|48:248|48:248|64:192,1,95.9999970703126,14|2,0:1|0:0,0:0:0:0:
152,184,210686,1,8,0:0:0:0:
88,112,210849,1,2,0:0:0:0:
184,88,211012,2,0,L|288:88,1,95.9999970703126,10|0,0:1|0:0,0:0:0:0:
344,16,211338,2,0,L|396:106,1,95.9999970703126,8|10,0:0|0:1,0:0:0:0:
488,104,211664,2,0,L|435:194,1,95.9999970703126,2|2,0:1|0:0,0:0:0:0:
488,272,211991,2,0,L|383:272,1,95.9999970703126,8|0,0:0|0:0,0:0:0:0:
296,272,212317,5,10,0:1:0:0:
184,120,212643,1,10,0:0:0:0:
8,192,212969,2,0,L|8:288,2,95.9999970703126,14|0|8,0:1|0:0|0:0,0:0:0:0:
104,384,213458,2,0,L|104:288,2,95.9999970703126,2|0|0,0:0|0:0|0:0,0:0:0:0:
192,336,213947,2,0,B|240:352|240:352|296:328,1,95.9999970703126,10|0,0:0|0:0,0:0:0:0:
432,256,214273,6,0,L|336:256,2,95.9999970703126,2|0|8,0:0|0:0|0:0,0:0:0:0:
216,160,214762,2,0,L|312:160,2,95.9999970703126,2|0|2,0:0|0:1|0:0,0:0:0:0:
408,160,215251,2,0,B|424:112|424:112|408:48,1,95.9999970703126,10|2,0:0|0:0,0:0:0:0:
328,16,215578,6,0,P|264:48|128:48,1,191.999994140625,14|10,0:1|0:0,0:0:0:0:
64,0,216067,2,0,L|53:95,1,95.9999970703126,2|10,0:0|0:1,0:0:0:0:
136,144,216393,2,0,L|146:239,1,95.9999970703126,10|10,0:1|0:0,0:0:0:0:
80,312,216719,1,8,0:1:0:0:
160,368,216882,2,0,L|272:368,1,95.9999970703126,10|0,0:1|0:1,0:0:0:0:
352,368,217208,5,10,0:0:0:0:
504,192,217534,1,10,0:1:0:0:
352,16,217860,1,10,0:0:0:0:
208,192,218186,5,10,0:1:0:0:
288,248,218349,1,8,0:0:0:0:
288,248,218512,1,8,0:0:0:0:
287,247,218838,2,0,L|287:47,2,191.999994140625,8|8|10,0:1|0:0|0:1,0:0:0:0:
216,312,219654,1,2,0:0:0:0:
216,312,219735,1,2,0:0:0:0:
216,312,219817,2,0,P|168:320|104:304,1,95.9999970703126,10|2,0:0|0:0,0:0:0:0:
96,288,220061,1,2,0:0:0:0:
96,288,220143,1,2,0:0:0:0:
56,200,220306,1,8,0:1:0:0:
144,160,220469,1,8,0:1:0:0:
144,160,220550,1,8,0:1:0:0:
144,160,220632,1,8,0:1:0:0:
144,160,220713,1,8,0:1:0:0:
144,160,220795,5,14,0:1:0:0:
304,256,221121,1,10,0:0:0:0:
472,160,221447,1,10,0:0:0:0:
464,64,221610,1,8,0:1:0:0:
384,120,221773,1,10,0:0:0:0:
376,24,221936,1,8,0:1:0:0:
296,80,222099,1,10,0:0:0:0:
112,24,222425,5,10,0:0:0:0:
32,80,222588,1,8,0:1:0:0:
120,120,222751,1,10,0:0:0:0:
304,56,223078,1,10,0:0:0:0:
440,192,223404,5,10,0:0:0:0:
472,280,223567,1,0,0:0:0:0:
408,352,223730,1,10,0:0:0:0:
320,312,223893,1,8,0:1:0:0:
224,320,224056,1,10,0:0:0:0:
152,384,224219,1,8,0:1:0:0:
56,360,224382,1,10,0:0:0:0:
32,264,224545,1,8,0:1:0:0:
104,200,224708,6,0,P|128:104|96:0,1,191.999994140625,10|10,0:0|0:0,0:0:0:0:
240,16,225197,1,2,0:0:0:0:
240,16,225279,1,2,0:0:0:0:
240,16,225360,2,0,P|216:112|248:216,1,191.999994140625,10|10,0:0|0:0,0:0:0:0:
328,256,225849,1,10,0:1:0:0:
328,256,225931,1,2,0:0:0:0:
328,256,226012,1,14,0:0:0:0:
328,256,226338,5,10,0:0:0:0:
400,192,226501,1,0,0:0:0:0:
488,216,226664,1,10,0:0:0:0:
512,312,226828,1,8,0:1:0:0:
440,376,226991,1,10,0:0:0:0:
344,352,227154,1,0,0:0:0:0:
328,256,227317,1,10,0:0:0:0:
464,120,227643,5,10,0:0:0:0:
368,104,227806,1,2,0:0:0:0:
400,192,227969,1,10,0:0:0:0:
256,312,228295,1,10,0:0:0:0:
104,192,228621,6,0,P|88:144|120:80,1,95.9999970703126,8|2,0:0|0:0,0:0:0:0:
192,24,228947,2,0,P|208:72|176:136,1,95.9999970703126,10|2,0:0|0:0,0:0:0:0:
344,192,229273,2,0,L|248:192,2,95.9999970703126,10|10|10,0:0|0:1|0:0,0:0:0:0:
96,272,229762,2,0,L|192:272,2,95.9999970703126,10|8|2,0:1|0:3|0:0,0:0:0:0:
256,344,230251,2,0,L|368:344,1,95.9999970703126,8|2,0:0|0:0,0:0:0:0:
512,272,230578,2,0,L|400:272,1,95.9999970703126,10|2,0:0|0:0,0:0:0:0:
256,184,230904,2,0,L|368:184,1,95.9999970703126,4|2,0:3|0:3,0:0:0:0:
448,184,231230,5,14,0:1:0:0:
504,104,231393,1,0,0:0:0:0:
464,16,231556,1,10,0:0:0:0:
368,8,231719,1,0,0:0:0:0:
304,80,231882,1,10,0:0:0:0:
208,96,232045,1,0,0:0:0:0:
120,56,232208,1,10,0:0:0:0:
128,152,232371,1,8,0:1:0:0:
40,192,232534,5,10,0:0:0:0:
8,280,232697,1,0,0:0:0:0:
56,360,232860,1,10,0:0:0:0:
152,368,233023,1,0,0:0:0:0:
216,296,233186,1,10,0:0:0:0:
120,272,233349,1,8,0:1:0:0:
192,208,233512,1,10,0:0:0:0:
288,232,233675,1,8,0:1:0:0:
312,328,233838,6,0,P|384:280|368:176,1,191.999994140625,14|10,0:0|0:0,0:0:0:0:
288,144,234328,2,0,P|320:104|376:96,1,95.9999970703126,2|10,0:0|0:0,0:0:0:0:
448,128,234654,2,0,P|456:77|424:30,1,95.9999970703126,8|10,0:1|0:0,0:0:0:0:
352,0,234980,1,8,0:1:0:0:
256,56,235143,6,0,L|64:56,1,191.999994140625,10|8,0:0|0:0,0:0:0:0:
24,144,235632,2,0,L|128:144,1,95.9999970703126,10|8,0:1|0:0,0:0:0:0:
216,144,235958,2,0,B|232:192|232:192|208:248,1,95.9999970703126,10|8,0:1|0:0,0:0:0:0:
128,280,236284,1,2,0:0:0:0:
168,368,236447,5,10,0:0:0:0:
336,280,236773,2,0,L|336:176,1,95.9999970703126,10|10,0:0|0:1,0:0:0:0:
336,88,237099,1,10,0:0:0:0:
336,88,237262,1,0,0:0:0:0:
256,24,237425,2,0,L|256:128,1,95.9999970703126,10|0,0:0|0:0,0:0:0:0:
256,216,237751,6,0,B|184:208|160:128|160:128|144:160|104:176,1,191.999994140625,10|10,0:0|0:0,0:0:0:0:
32,200,238241,2,0,P|16:248|32:304,1,95.9999970703126,8|10,0:1|0:0,0:0:0:0:
88,360,238567,1,8,0:1:0:0:
176,328,238730,2,0,L|288:328,1,95.9999970703126,10|10,0:0|0:1,0:0:0:0:
360,360,239056,5,10,0:0:0:0:
496,128,239382,1,10,0:0:0:0:
256,8,239708,1,10,0:0:0:0:
16,128,240034,1,10,0:0:0:0:
256,192,240360,12,14,241664,0:1:0:0:
