osu file format v14

[General]
AudioFilename: audio.mp3
AudioLeadIn: 0
PreviewTime: 131773
Countdown: 0
SampleSet: Soft
StackLeniency: 0.4
Mode: 0
LetterboxInBreaks: 0
WidescreenStoryboard: 0

[Editor]
DistanceSpacing: 1.2
BeatDivisor: 4
GridSize: 4
TimelineZoom: 1

[Metadata]
Title:u/n
TitleUnicode:u/n
Artist:Kawada Mami
ArtistUnicode:川田まみ
Creator:Reiji Maigo
Version:Extra
Source:灼眼のシャナIII-FINAL-
Tags:shakugan no shana III season 3rd insert song anime rock japanese pop full version serment 尾崎武士 中沢伴行 Mariko Sakuragi
BeatmapID:2471454
BeatmapSetID:1142576

[Difficulty]
HPDrainRate:5
CircleSize:5
OverallDifficulty:8
ApproachRate:8
SliderMultiplier:1.9
SliderTickRate:2

[Events]
//Background and Video events
0,0,"un1.jpg",0,0
//Break Periods
//Storyboard Layer 0 (Background)
//Storyboard Layer 1 (Fail)
//Storyboard Layer 2 (Pass)
//Storyboard Layer 3 (Foreground)
//Storyboard Layer 4 (Overlay)
//Storyboard Sound Samples

[TimingPoints]
1665,326.086956521739,4,2,1,20,1,0
1665,-133.333333333333,4,2,1,20,0,0
22371,-133.333333333333,4,2,1,5,0,0
23186,-400,4,2,1,15,0,0
23838,-200,4,2,1,55,0,0
24164,-100,4,2,1,55,0,0
34273,-100,4,2,1,65,0,0
34517,-100,4,2,1,5,0,0
34599,-100,4,2,1,65,0,0
44708,-100,4,2,1,55,0,0
47561,-100,4,2,1,5,0,0
47643,-100,4,2,1,55,0,0
57751,-100,4,2,1,65,0,0
66882,-100,4,2,1,50,0,0
67534,-100,4,2,1,55,0,0
68186,-100,4,2,1,45,0,0
68838,-133.333333333333,4,2,1,40,0,0
76012,-100,4,2,1,40,0,0
76175,-100,4,2,1,55,0,0
78621,-71.4285714285714,4,2,1,75,0,1
83838,-83.3333333333333,4,2,1,75,0,1
88567,-83.3333333333333,4,2,1,60,0,1
88730,-83.3333333333333,4,2,1,45,0,1
88893,-83.3333333333333,4,2,1,30,0,1
89056,-71.4285714285714,4,2,1,80,0,1
94273,-83.3333333333333,4,2,1,80,0,1
99328,-200,4,2,1,80,0,0
99572,-200,4,2,1,5,0,0
99654,-200,4,2,1,75,0,0
99817,-200,4,2,2,75,0,0
100143,-200,4,2,2,40,0,0
100795,-100,4,2,1,75,0,0
101121,-100,4,2,1,55,0,0
111230,-100,4,2,1,65,0,0
120360,-100,4,2,1,50,0,0
121664,-100,4,2,1,45,0,0
122154,-133.333333333333,4,2,1,40,0,0
129491,-100,4,2,1,40,0,0
129654,-100,4,2,1,50,0,0
132099,-71.4285714285714,4,2,1,75,0,1
137317,-83.3333333333333,4,2,1,75,0,1
142045,-83.3333333333333,4,2,1,60,0,1
142208,-83.3333333333333,4,2,1,45,0,1
142371,-83.3333333333333,4,2,1,30,0,1
142534,-71.4285714285714,4,2,1,80,0,1
147751,-83.3333333333333,4,2,1,80,0,1
152969,-133.333333333333,4,2,2,60,0,0
153295,-133.333333333333,4,2,1,50,0,0
155251,-133.333333333333,4,2,2,50,0,0
155578,-133.333333333333,4,2,1,50,0,0
155904,-133.333333333333,4,2,2,50,0,0
156230,-133.333333333333,4,2,1,50,0,0
157534,-133.333333333333,4,2,2,50,0,0
158186,-133.333333333333,4,2,1,55,0,0
162751,-400,4,2,2,55,0,0
162995,-400,4,2,1,5,0,0
163078,-133.333333333333,4,2,1,55,0,0
173838,-100,4,2,1,55,0,0
184029,-100,4,2,1,30,0,0
184273,-100,4,2,1,55,0,0
186148,-100,4,2,1,5,0,0
186230,-100,4,2,1,55,0,0
186882,-100,4,2,1,55,0,0
194708,-133.333333333333,4,2,1,40,0,0
198621,-133.333333333333,4,2,1,50,0,0
199273,-100,4,2,1,50,0,0
199925,-71.4285714285714,4,2,1,75,0,1
205143,-83.3333333333333,4,2,1,75,0,1
210360,-71.4285714285714,4,2,1,75,0,1
215578,-83.3333333333333,4,2,1,75,0,1
220224,-83.3333333333333,4,2,1,60,0,1
220795,-71.4285714285714,4,2,1,75,0,1
241664,-100,4,2,1,75,0,0

[Colours]
Combo1 : 213,121,165
Combo2 : 224,84,84
Combo3 : 218,150,82

[HitObjects]
200,216,1665,5,2,0:0:0:0:
200,216,1991,2,0,B|272:196|272:244|352:216,1,142.500005435944,2|0,0:0|0:0,0:0:0:0:
396,176,2480,1,0,0:0:0:0:
396,176,2643,2,0,L|396:88,1,71.2500027179719,2|2,0:0|0:0,0:0:0:0:
468,33,2969,6,0,L|468:193,1,142.500005435944,2|2,0:0|0:0,0:0:0:0:
468,176,3458,1,2,0:0:0:0:
396,247,3621,2,0,L|396:147,1,71.2500027179719,2|0,0:0|0:0,0:0:0:0:
396,176,3947,1,2,0:0:0:0:
256,352,4273,5,2,0:0:0:0:
360,336,4436,1,2,0:0:0:0:
360,336,4762,2,0,P|372:264|360:180,1,142.500005435944,2|0,0:0|0:0,0:0:0:0:
292,196,5251,1,2,0:0:0:0:
292,196,5414,2,0,P|280:124|292:40,1,142.500005435944,2|0,0:0|0:0,0:0:0:0:
200,120,5904,6,0,L|116:120,1,71.2500027179719,2|0,0:0|0:0,0:0:0:0:
128,192,6230,2,0,L|200:192,1,71.2500027179719,2|0,0:0|0:0,0:0:0:0:
200,48,6556,2,0,L|112:48,1,71.2500027179719,2|0,0:0|0:0,0:0:0:0:
129,264,6882,6,0,L|272:264,1,142.500005435944,2|0,0:0|0:0,0:0:0:0:
344,264,7371,1,2,0:0:0:0:
344,264,7534,2,0,L|344:176,1,71.2500027179719,2|0,0:0|0:0,0:0:0:0:
344,48,7860,1,2,0:0:0:0:
344,120,8023,1,2,0:0:0:0:
344,120,8186,2,0,L|264:120,2,71.2500027179719,2|0|2,0:0|0:0|0:0,0:0:0:0:
344,48,8675,1,0,0:0:0:0:
416,48,8838,2,0,L|416:144,1,71.2500027179719,2|0,0:0|0:0,0:0:0:0:
488,120,9164,2,0,L|488:40,1,71.2500027179719,2|0,0:0|0:0,0:0:0:0:
488,192,9491,6,0,L|332:192,1,142.500005435944,2|0,0:0|0:0,0:0:0:0:
276,192,9980,1,2,0:0:0:0:
276,192,10143,2,0,P|264:232|280:276,1,71.2500027179719,2|0,0:0|0:0,0:0:0:0:
336,284,10469,1,2,0:0:0:0:
336,284,10632,2,0,P|348:324|332:368,1,71.2500027179719,2|0,0:0|0:0,0:0:0:0:
276,380,10958,1,2,0:0:0:0:
144,320,11121,6,0,L|224:320,1,71.2500027179719,2|0,0:0|0:0,0:0:0:0:
216,248,11447,1,2,0:0:0:0:
216,248,11610,2,0,L|120:248,1,71.2500027179719,2|0,0:0|0:0,0:0:0:0:
108,248,11855,1,0,0:0:0:0:
108,248,11936,1,2,0:0:0:0:
36,248,12099,5,0,0:0:0:0:
8,108,12425,1,2,0:0:0:0:
72,76,12588,1,2,0:0:0:0:
136,44,12751,1,2,0:0:0:0:
208,44,12914,2,0,L|296:44,1,71.2500027179719,2|0,0:0|0:0,0:0:0:0:
352,44,13241,2,0,P|364:84|348:128,1,71.2500027179719,2|0,0:0|0:0,0:0:0:0:
432,40,13567,6,0,P|440:108|400:192,1,142.500005435944,2|0,0:0|0:0,0:0:0:0:
352,212,14056,2,0,L|272:212,2,71.2500027179719,2|0|2,0:0|0:0|0:0,0:0:0:0:
352,354,14545,6,0,L|352:206,1,142.500005435944,2|0,0:0|0:0,0:0:0:0:
424,354,15034,2,0,L|424:282,1,71.2500027179719,2|0,0:0|0:0,0:0:0:0:
424,212,15360,1,2,0:0:0:0:
424,212,15523,2,0,L|424:116,1,71.2500027179719,2|0,0:0|0:0,0:0:0:0:
424,68,15849,6,0,B|388:56|388:56|332:72,1,71.2500027179719,2|0,0:0|0:0,0:0:0:0:
352,136,16175,2,0,B|316:148|316:148|260:132,1,71.2500027179719,2|0,0:0|0:0,0:0:0:0:
272,68,16501,2,0,B|204:48|204:48|112:72,1,142.500005435944,2|0,0:0|0:0,0:0:0:0:
92,124,16991,2,0,L|92:208,1,71.2500027179719,2|0,0:0|0:0,0:0:0:0:
92,268,17317,5,2,0:0:0:0:
220,328,17643,1,2,0:0:0:0:
220,328,17969,5,2,0:0:0:0:
292,328,18132,1,2,0:0:0:0:
364,328,18295,1,2,0:0:0:0:
220,328,18458,5,2,0:0:0:0:
292,328,18621,1,2,0:0:0:0:
364,328,18784,1,2,0:0:0:0:
220,328,18947,5,2,0:0:0:0:
292,328,19110,1,2,0:0:0:0:
364,328,19273,1,2,0:0:0:0:
220,328,19436,5,2,0:0:0:0:
220,328,19599,2,0,L|220:248,1,71.2500027179719,2|0,0:0|0:0,0:0:0:0:
220,184,19925,5,2,0:0:0:0:
332,96,20251,1,2,0:0:0:0:
404,96,20414,1,0,0:0:0:0:
368,160,20578,1,2,0:0:0:0:
332,96,20741,1,2,0:0:0:0:
332,96,20904,1,2,0:0:0:0:
292,36,21067,6,0,L|140:36,1,142.500005435944,2|0,0:0|0:0,0:0:0:0:
80,36,21556,1,2,0:0:0:0:
80,108,21719,2,0,L|168:108,1,71.2500027179719,2|0,0:0|0:0,0:0:0:0:
224,108,22045,2,0,L|224:260,1,142.500005435944,2|0,0:0|0:0,0:0:0:0:
224,250,23186,6,0,L|192:250,2,23.75,2|0|0,0:0|0:0|0:0,0:0:0:0:
276,300,23675,1,2,0:0:0:0:
276,300,23838,6,0,L|336:300,1,47.5,12|0,0:1|0:0,0:0:0:0:
408,344,24164,6,0,B|444:272|356:216|436:132,1,190,10|8,0:0|0:1,0:0:0:0:
484,92,24654,1,8,0:1:0:0:
484,92,24817,2,0,P|440:64|376:76,1,95,10|0,0:0|0:0,0:0:0:0:
324,124,25143,6,0,L|112:124,1,190,10|8,0:1|0:0,0:0:0:0:
134,124,25795,2,0,L|134:24,1,95,10|8,0:1|0:1,0:0:0:0:
40,124,26121,2,0,L|40:236,1,95,10|0,0:0|0:0,0:0:0:0:
132,312,26447,5,10,0:1:0:0:
256,224,26610,1,2,0:0:0:0:
256,224,26773,2,0,L|256:104,1,95,8|2,0:0|0:0,0:0:0:0:
256,36,27099,1,8,0:1:0:0:
340,80,27262,1,8,0:1:0:0:
256,36,27425,1,10,0:0:0:0:
340,80,27588,6,0,P|420:76|512:4,1,190,2|0,0:0|0:0,0:0:0:0:
476,140,28078,2,0,L|476:252,1,95,10|0,0:0|0:0,0:0:0:0:
368,336,28404,1,10,0:1:0:0:
368,240,28567,1,8,0:1:0:0:
476,45,28730,2,0,L|476:173,1,95,10|0,0:0|0:0,0:0:0:0:
368,336,29056,6,0,B|272:300|272:376|168:328,1,190,10|8,0:1|0:0,0:0:0:0:
108,276,29545,1,2,0:0:0:0:
108,276,29708,2,0,L|108:164,1,95,10|8,0:1|0:1,0:0:0:0:
204,116,30034,1,10,0:0:0:0:
204,116,30197,2,0,L|204:228,2,95,2|8|0,0:0|0:1|0:0,0:0:0:0:
204,20,30686,1,8,0:0:0:0:
204,20,30849,1,0,0:0:0:0:
288,64,31012,1,10,0:1:0:0:
204,20,31175,1,8,0:1:0:0:
288,64,31338,2,0,P|336:76|400:48,1,95,10|0,0:0|0:0,0:0:0:0:
452,4,31664,6,0,B|488:44|488:44|488:196,1,190,14|8,0:1|0:0,0:0:0:0:
356,320,32317,1,10,0:1:0:0:
260,320,32480,1,8,0:1:0:0:
356,320,32643,1,8,0:0:0:0:
260,320,32806,2,0,P|232:280|172:264,1,95,2|8,0:0|0:1,0:0:0:0:
96,264,33132,1,8,0:1:0:0:
144,180,33295,1,10,0:0:0:0:
160,344,33458,1,2,0:3:0:0:
160,344,33539,1,2,0:3:0:0:
132,344,33621,5,10,0:3:0:0:
104,344,33703,1,10,0:1:0:0:
76,344,33784,1,10,0:1:0:0:
48,344,33866,1,10,0:1:0:0:
20,344,33947,2,0,L|20:272,1,47.5,10|2,0:0|0:0,0:0:0:0:
20,128,34110,1,2,0:0:0:0:
20,156,34192,1,2,0:0:0:0:
20,184,34273,6,0,P|84:184|156:224,1,142.5,14|0,0:1|2:0,0:0:0:0:
172,240,34599,2,0,P|232:216|264:68,2,190,10|8|10,0:0|0:1|0:0,0:0:0:0:
260,320,35414,1,2,0:0:0:0:
260,320,35578,6,0,L|360:320,1,95,10|0,0:1|0:0,0:0:0:0:
424,236,35904,2,0,L|324:236,1,95,8|0,0:0|0:0,0:0:0:0:
496,284,36230,2,0,P|511:241|487:181,1,95,2|2,0:0|0:0,0:0:0:0:
424,42,36556,2,0,P|412:88|428:132,1,95,10|0,0:0|0:0,0:0:0:0:
512,84,36882,6,0,L|288:84,1,190,10|8,0:1|0:0,0:0:0:0:
228,84,37371,1,2,0:0:0:0:
228,84,37534,2,0,L|228:188,1,95,10|2,0:1|0:0,0:0:0:0:
228,272,37860,1,8,0:0:0:0:
228,368,38023,1,2,0:0:0:0:
132,272,38186,5,8,0:1:0:0:
48,224,38349,1,8,0:1:0:0:
48,128,38512,1,8,0:0:0:0:
132,80,38675,1,0,0:0:0:0:
132,272,38838,5,8,0:1:0:0:
132,176,39001,1,8,0:1:0:0:
132,80,39164,1,8,0:0:0:0:
132,272,39328,1,6,0:3:0:0:
132,176,39491,5,6,0:3:0:0:
204,16,39654,1,2,0:0:0:0:
240,104,39817,2,0,L|340:104,1,95,10|0,0:0|0:0,0:0:0:0:
484,280,40143,1,10,0:1:0:0:
448,192,40306,2,0,L|348:192,1,95,2|8,0:0|0:0,0:0:0:0:
416,104,40632,2,0,L|512:104,1,95,2|8,0:0|0:1,0:0:0:0:
448,192,40958,5,10,0:1:0:0:
332,16,41121,1,10,0:0:0:0:
332,16,41203,1,2,0:0:0:0:
332,16,41284,2,0,L|216:16,1,95,2|10,0:0|0:1,0:0:0:0:
208,16,41529,1,0,0:0:0:0:
208,16,41610,1,10,0:1:0:0:
112,16,41773,1,10,0:0:0:0:
16,16,41936,1,2,0:0:0:0:
16,16,42099,6,0,L|16:136,1,95,10|8,0:1|0:1,0:0:0:0:
112,204,42425,2,0,L|112:92,1,95,10|0,0:0|0:0,0:0:0:0:
112,16,42751,1,10,0:1:0:0:
208,16,42914,1,2,0:0:0:0:
208,112,43078,1,8,0:0:0:0:
208,208,43241,1,2,0:0:0:0:
208,208,43322,1,2,0:0:0:0:
208,208,43404,6,0,B|324:232|284:152|392:168,1,190,10|10,0:1|0:0,0:0:0:0:
468,212,43893,1,10,0:1:0:0:
468,240,43974,1,2,0:0:0:0:
468,268,44056,1,10,0:1:0:0:
368,376,44219,1,2,0:0:0:0:
368,376,44382,2,0,L|368:272,1,95,8|6,0:0|0:3,0:0:0:0:
368,252,44626,1,0,0:0:0:0:
368,252,44708,5,14,0:1:0:0:
100,32,45034,1,10,0:0:0:0:
0,364,45360,1,2,0:3:0:0:
76,364,45523,1,2,0:0:0:0:
152,364,45686,2,0,L|252:364,1,95,10|2,0:0|0:0,0:0:0:0:
284,364,45931,1,2,0:3:0:0:
320,364,46012,5,10,0:1:0:0:
396,364,46175,1,10,0:1:0:0:
472,364,46338,2,0,L|472:260,1,95,10|2,0:0|0:0,0:0:0:0:
472,192,46664,1,2,0:0:0:0:
472,116,46828,1,10,0:1:0:0:
472,192,46991,1,10,0:0:0:0:
472,116,47154,1,6,0:0:0:0:
472,269,47317,6,0,P|404:245|408:165,1,142.5,12|0,0:1|2:0,0:0:0:0:
408,156,47643,6,0,P|325:115|243:156,2,190,10|8|10,0:0|0:1|0:0,0:0:0:0:
460,40,48458,1,2,0:0:0:0:
460,40,48621,6,0,L|353:40,1,95,8|0,0:1|0:0,0:0:0:0:
284,96,48947,2,0,L|189:96,1,95,8|0,0:0|0:0,0:0:0:0:
92,96,49273,1,10,0:1:0:0:
92,192,49436,1,8,0:1:0:0:
92,288,49599,2,0,L|92:388,1,95,10|0,0:0|0:0,0:0:0:0:
188,292,49925,5,10,0:1:0:0:
284,292,50088,1,2,0:0:0:0:
284,292,50251,2,0,L|284:176,1,95,8|2,0:0|0:0,0:0:0:0:
284,96,50578,1,8,0:1:0:0:
360,40,50741,1,8,0:1:0:0:
284,96,50904,1,8,0:0:0:0:
360,40,51067,6,0,B|456:76|512:32|512:32|504:68,1,190,2|0,0:0|0:0,0:0:0:0:
448,152,51556,2,0,L|448:264,1,95,10|0,0:0|0:0,0:0:0:0:
348,344,51882,2,0,L|348:240,1,95,10|8,0:1|0:1,0:0:0:0:
448,56,52208,2,0,L|448:172,1,95,10|0,0:0|0:0,0:0:0:0:
348,344,52534,6,0,B|284:344|284:344|228:368|228:368|160:368,1,190,10|8,0:1|0:0,0:0:0:0:
72,368,53023,1,0,0:0:0:0:
72,368,53186,2,0,L|72:248,1,95,10|8,0:1|0:1,0:0:0:0:
160,192,53512,1,10,0:0:0:0:
160,192,53675,2,0,L|160:292,2,95,2|8|0,0:0|0:1|0:0,0:0:0:0:
160,96,54164,1,8,0:0:0:0:
160,96,54328,1,0,0:0:0:0:
76,144,54491,1,10,0:1:0:0:
160,96,54654,1,8,0:1:0:0:
76,144,54817,2,0,P|60:96|80:44,1,95,10|0,0:0|0:0,0:0:0:0:
256,96,55143,6,0,B|324:68|408:96|408:96|352:48,1,190,14|8,0:1|0:0,0:0:0:0:
456,160,55632,1,2,0:0:0:0:
456,160,55795,2,0,L|456:272,1,95,10|8,0:1|0:1,0:0:0:0:
456,348,56121,1,10,0:0:0:0:
328,236,56284,6,0,B|232:208|244:280|140:236,1,190,2|0,0:0|0:0,0:0:0:0:
84,164,56773,2,0,L|84:64,1,95,10|0,0:0|0:0,0:0:0:0:
84,40,57018,1,2,0:0:0:0:
84,40,57099,1,10,0:1:0:0:
172,80,57262,1,10,0:1:0:0:
260,40,57425,1,10,0:0:0:0:
356,40,57588,1,10,0:0:0:0:
356,88,57670,1,10,0:0:0:0:
356,136,57751,5,6,0:1:0:0:
484,328,58078,2,0,P|444:288|396:280,1,95,10|0,0:0|0:0,0:0:0:0:
324,328,58404,1,10,0:1:0:0:
228,328,58567,1,10,0:1:0:0:
180,244,58730,1,8,0:0:0:0:
228,160,58893,2,0,P|272:146|318:156,1,95,2|8,0:0|0:1,0:0:0:0:
180,244,59219,1,2,0:0:0:0:
180,244,59382,2,0,B|140:215|140:215|128:156,1,95,8|2,0:0|0:0,0:0:0:0:
164,88,59708,1,2,0:0:0:0:
256,68,59871,1,2,0:0:0:0:
228,160,60034,1,8,0:0:0:0:
40,160,60197,6,0,L|40:350,1,190,2|0,0:0|0:0,0:0:0:0:
136,350,60686,2,0,L|136:234,1,95,10|0,0:0|0:0,0:0:0:0:
136,160,61012,1,10,0:1:0:0:
136,64,61175,1,10,0:1:0:0:
136,160,61338,1,8,0:0:0:0:
136,64,61501,6,0,P|200:56|240:16,1,95,2|8,0:0|0:1,0:0:0:0:
320,164,61828,2,0,P|273:162|232:138,1,95,2|10,0:0|0:0,0:0:0:0:
408,260,62154,2,0,L|408:48,1,190,2|8,0:0|0:1,0:0:0:0:
492,16,62643,1,10,0:0:0:0:
492,112,62806,1,4,0:3:0:0:
492,160,62887,1,4,0:3:0:0:
492,208,62969,5,10,0:1:0:0:
492,208,63295,2,0,B|392:244|404:172|304:212,1,190,14|8,0:0|0:1,0:0:0:0:
236,272,63784,1,2,0:0:0:0:
236,272,63947,2,0,P|208:232|224:168,1,95,10|2,0:0|0:0,0:0:0:0:
280,124,64273,5,10,0:1:0:0:
220,52,64436,1,2,0:0:0:0:
368,28,64599,2,0,L|368:132,1,95,10|2,0:0|0:0,0:0:0:0:
368,216,64925,1,10,0:1:0:0:
272,216,65088,1,2,0:0:0:0:
368,216,65251,1,10,0:0:0:0:
176,216,65414,1,8,0:0:0:0:
368,216,65578,5,12,0:1:0:0:
368,216,65904,2,0,B|420:216|420:216|476:252,1,95,10|0,0:0|0:0,0:0:0:0:
468,332,66230,1,10,0:1:0:0:
380,372,66393,1,2,0:0:0:0:
320,300,66556,1,8,0:0:0:0:
256,372,66719,6,0,L|156:372,1,95,2|4,0:0|0:3,0:0:0:0:
136,372,66963,1,4,0:3:0:0:
136,372,67045,1,4,0:3:0:0:
40,372,67208,1,12,0:3:0:0:
12,280,67371,1,10,0:1:0:0:
20,252,67453,1,10,0:1:0:0:
36,228,67534,1,10,0:1:0:0:
60,212,67616,1,10,0:1:0:0:
88,208,67697,1,10,0:1:0:0:
116,212,67779,1,10,0:1:0:0:
152,244,67860,5,10,0:0:0:0:
196,264,67942,1,10,0:0:0:0:
244,268,68023,1,10,0:0:0:0:
288,248,68105,1,10,0:0:0:0:
308,204,68186,6,0,B|384:184|452:232|428:340,1,190,14|10,0:1|0:0,0:0:0:0:
504,156,68838,1,10,0:0:0:0:
504,84,69001,1,10,0:1:0:0:
504,12,69164,1,8,0:1:0:0:
440,48,69328,6,0,L|284:48,1,142.500005435944,10|2,0:0|0:0,0:0:0:0:
297,48,69817,1,8,0:0:0:0:
300,120,69980,2,0,L|212:120,1,71.2500027179719,2|8,0:0|0:1,0:0:0:0:
192,120,70224,1,0,0:0:0:0:
192,120,70306,1,10,0:0:0:0:
120,120,70469,1,8,0:1:0:0:
120,120,70632,1,2,0:0:0:0:
48,120,70795,5,12,0:1:0:0:
332,272,71121,1,10,0:0:0:0:
260,272,71284,1,2,0:0:0:0:
188,272,71447,1,10,0:0:0:0:
116,272,71610,2,0,L|32:272,1,71.2500027179719,2|8,0:0|0:1,0:0:0:0:
44,344,71855,1,2,0:0:0:0:
44,344,71936,6,0,L|200:344,1,142.500005435944,10|2,0:0|0:0,0:0:0:0:
260,344,72425,1,8,0:0:0:0:
260,344,72588,2,0,L|340:344,1,71.2500027179719,2|2,0:0|0:3,0:0:0:0:
368,344,72833,1,0,0:0:0:0:
368,344,72914,1,10,0:0:0:0:
440,344,73078,1,2,0:3:0:0:
440,308,73159,1,2,0:3:0:0:
440,272,73241,1,2,0:3:0:0:
440,236,73322,1,2,0:3:0:0:
440,200,73404,5,2,0:3:0:0:
440,200,73730,1,10,0:0:0:0:
440,128,73893,1,2,0:0:0:0:
440,56,74056,1,10,0:0:0:0:
512,56,74219,2,0,L|512:152,1,71.2500027179719,2|8,0:0|0:1,0:0:0:0:
512,200,74463,1,2,0:0:0:0:
512,200,74545,6,0,L|512:356,1,142.500005435944,10|2,0:0|0:0,0:0:0:0:
440,344,75034,1,8,0:0:0:0:
440,344,75197,2,0,L|440:256,1,71.2500027179719,2|2,0:0|0:0,0:0:0:0:
440,236,75442,1,0,0:0:0:0:
440,236,75523,1,10,0:0:0:0:
440,164,75686,1,10,0:1:0:0:
440,92,75849,1,2,0:0:0:0:
440,20,76012,5,10,0:1:0:0:
269,164,76175,1,2,0:0:0:0:
357,164,76338,2,0,P|312:148|256:180,1,95,10|0,0:0|0:0,0:0:0:0:
220,248,76664,1,10,0:0:0:0:
124,248,76828,1,10,0:1:0:0:
28,248,76991,1,10,0:0:0:0:
124,248,77154,1,10,0:0:0:0:
312,248,77317,5,10,0:3:0:0:
124,248,77480,1,8,0:3:0:0:
312,332,77643,1,10,0:1:0:0:
312,332,77724,1,2,0:0:0:0:
312,332,77806,1,2,0:0:0:0:
312,332,77887,1,2,0:0:0:0:
312,332,77969,5,10,0:0:0:0:
359,325,78050,1,10,0:0:0:0:
393,291,78132,1,10,0:0:0:0:
403,244,78213,1,10,0:0:0:0:
389,199,78295,1,10,0:0:0:0:
355,165,78376,1,10,0:0:0:0:
340,118,78458,1,10,0:0:0:0:
360,76,78539,1,10,0:0:0:0:
404,56,78621,6,0,P|442:56|478:79,1,66.4999979705811,14|0,0:1|0:0,0:0:0:0:
512,124,78784,1,2,0:0:0:0:
348,232,78947,2,0,P|352:168|428:132,1,132.999995941162,10|0,0:0|0:0,0:0:0:0:
512,320,79273,6,0,B|472:316|444:336|444:336|416:312|416:312|328:368|264:300,1,265.999991882324,10|8,0:1|0:0,0:0:0:0:
242,78,79762,2,0,P|342:90|326:247,1,265.999991882324,10|10,0:1|0:1,0:0:0:0:
120,228,80251,2,0,P|175:196|247:240,1,132.999995941162,8|0,0:0|0:0,0:0:0:0:
32,324,80578,6,0,L|32:184,1,132.999995941162,10|0,0:1|0:0,0:0:0:0:
120,0,80904,2,0,L|120:140,1,132.999995941162,10|8,0:0|0:1,0:0:0:0:
120,324,81230,2,0,B|152:320|176:336|176:336|200:324|200:324|248:336|248:336|256:312|316:296|396:328,1,265.999991882324,10|10,0:1|0:0,0:0:0:0:
480,208,81719,2,0,B|412:144|309:177|309:177|304:128|256:104,1,265.999991882324,2|8,0:0|0:1,0:0:0:0:
132,108,82208,1,10,0:0:0:0:
44,208,82371,1,2,0:0:0:0:
120,352,82534,6,0,L|260:352,1,132.999995941162,2|8,0:0|0:1,0:0:0:0:
412,352,82860,1,10,0:0:0:0:
480,208,83023,2,0,P|496:148|476:64,1,132.999995941162,2|8,0:0|0:1,0:0:0:0:
376,0,83349,2,0,P|360:60|380:144,1,132.999995941162,10|8,0:1|0:0,0:0:0:0:
288,232,83675,1,10,0:1:0:0:
288,232,83757,1,2,0:0:0:0:
288,232,83838,6,0,L|160:232,1,113.999996520996,12|0,0:1|0:0,0:0:0:0:
4,124,84164,2,0,L|132:124,1,113.999996520996,8|0,0:0|0:0,0:0:0:0:
288,124,84491,1,10,0:1:0:0:
400,124,84654,1,8,0:1:0:0:
288,124,84817,1,10,0:0:0:0:
400,124,84980,6,0,P|489:183|467:306,1,227.999993041992,10|8,0:1|0:1,0:0:0:0:
376,356,85469,2,0,B|336:356|336:356|296:336|296:336|240:336,1,113.999996520996,8|0,0:0|0:0,0:0:0:0:
152,336,85795,1,10,0:1:0:0:
72,256,85958,1,8,0:1:0:0:
72,256,86121,2,0,L|72:136,1,113.999996520996,10|8,0:0|0:1,0:0:0:0:
8,48,86447,6,0,B|120:-8|124:88|252:36,1,227.999993041992,2|8,0:0|0:0,0:0:0:0:
336,4,86936,1,2,0:0:0:0:
336,4,87099,2,0,P|396:24|424:76,1,113.999996520996,10|0,0:1|0:0,0:0:0:0:
424,180,87425,2,0,L|424:308,1,113.999996520996,8|0,0:0|0:1,0:0:0:0:
424,372,87670,1,2,0:0:0:0:
424,372,87751,6,0,B|360:348|360:348|196:372,1,227.999993041992,10|10,0:1|0:0,0:0:0:0:
88,368,88241,1,10,0:1:0:0:
88,368,88322,1,2,0:0:0:0:
88,368,88404,2,0,P|68:324|96:256,1,113.999996520996,6|4,0:3|0:3,0:0:0:0:
111,249,88648,1,4,0:3:0:0:
138,258,88730,1,8,0:1:0:0:
166,262,88811,1,8,0:1:0:0:
194,263,88893,1,8,0:1:0:0:
222,261,88974,1,8,0:1:0:0:
249,252,89056,5,14,0:1:0:0:
192,132,89219,1,2,0:0:0:0:
248,280,89382,1,10,0:0:0:0:
292,64,89545,1,2,0:0:0:0:
96,168,89708,5,8,0:0:0:0:
68,168,89871,1,10,0:1:0:0:
344,180,90034,1,8,0:0:0:0:
372,180,90197,1,10,0:1:0:0:
80,44,90360,5,10,0:0:0:0:
212,44,90523,1,0,0:0:0:0:
344,180,90686,1,10,0:0:0:0:
212,180,90849,1,0,0:0:0:0:
368,92,91012,6,0,P|428:128|420:216,1,132.999995941162,10|8,0:0|0:1,0:0:0:0:
277,274,91338,2,0,P|288:210|345:179,1,132.999995941162,10|8,0:0|0:1,0:0:0:0:
344,376,91664,6,0,L|196:376,1,132.999995941162,14|0,0:0|0:0,0:0:0:0:
344,376,91991,1,10,0:0:0:0:
79,180,92154,2,0,L|227:180,1,132.999995941162,10|8,0:1|0:0,0:0:0:0:
79,180,92481,1,2,0:0:0:0:
296,200,92643,2,0,P|289:131|214:86,1,132.999995941162,10|0,0:0|0:0,0:0:0:0:
140,304,92969,6,0,L|424:304,1,265.999991882324,14|8,0:0|0:0,0:0:0:0:
508,20,93458,2,0,L|224:20,1,265.999991882324,10|8,0:1|0:1,0:0:0:0:
120,20,93947,2,0,P|76:56|51:146,1,132.999995941162,10|8,0:0|0:1,0:0:0:0:
48,228,94273,5,14,0:0:0:0:
76,328,94436,1,0,0:0:0:0:
164,384,94599,1,10,0:0:0:0:
264,360,94762,1,8,0:1:0:0:
332,280,94925,1,10,0:0:0:0:
432,296,95088,1,8,0:1:0:0:
504,224,95251,1,10,0:0:0:0:
468,128,95414,1,8,0:1:0:0:
500,28,95578,5,10,0:0:0:0:
400,48,95741,1,0,0:0:0:0:
368,144,95904,2,0,P|316:160|244:124,1,113.999996520996,10|8,0:0|0:1,0:0:0:0:
208,88,96148,1,2,0:0:0:0:
208,88,96230,2,0,P|156:72|84:108,1,113.999996520996,10|0,0:0|0:0,0:0:0:0:
24,212,96556,2,0,L|24:356,1,113.999996520996,10|0,0:0|0:0,0:0:0:0:
156,384,96882,6,0,L|156:136,3,227.999993041992,10|10|10|10,0:0|0:0|0:0|0:0,0:0:0:0:
156,44,98023,1,8,0:1:0:0:
256,96,98186,2,0,L|384:96,1,113.999996520996,10|2,0:1|0:0,0:0:0:0:
416,96,98431,1,10,0:1:0:0:
460,96,98512,1,10,0:0:0:0:
368,12,98675,1,2,0:0:0:0:
316,188,98838,1,6,0:3:0:0:
270,187,98920,1,4,0:3:0:0:
229,208,99001,1,4,0:3:0:0:
208,248,99083,1,4,0:3:0:0:
168,272,99164,5,4,0:3:0:0:
156,272,99246,1,4,0:3:0:0:
144,272,99328,2,0,L|65:272,1,71.25,4|0,0:3|2:0,0:0:0:0:
4,272,99654,1,10,0:1:0:0:
140,352,99817,5,8,0:0:0:0:
140,192,99980,2,0,L|140:128,1,47.5,8|0,0:0|0:0,0:0:0:0:
140,116,100224,1,2,0:0:0:0:
140,116,100306,1,2,0:0:0:0:
140,44,100469,1,2,0:0:0:0:
200,80,100632,1,2,0:0:0:0:
432,216,100795,5,12,0:1:0:0:
432,216,100958,1,2,0:0:0:0:
480,152,101121,6,0,B|392:104|384:196|268:128,1,190,10|8,0:0|0:1,0:0:0:0:
220,96,101610,1,10,0:1:0:0:
220,96,101773,2,0,L|220:0,1,95,10|2,0:0|0:0,0:0:0:0:
124,0,102099,6,0,L|124:204,1,190,10|8,0:1|0:0,0:0:0:0:
124,190,102751,1,10,0:1:0:0:
124,284,102914,1,8,0:1:0:0:
204,340,103078,2,0,L|320:340,1,95,10|0,0:0|0:0,0:0:0:0:
392,340,103404,5,10,0:1:0:0:
456,268,103567,1,2,0:0:0:0:
456,268,103730,2,0,L|456:164,1,95,10|2,0:0|0:0,0:0:0:0:
456,80,104056,1,8,0:1:0:0:
512,12,104219,1,8,0:1:0:0:
456,80,104382,1,10,0:0:0:0:
388,12,104545,6,0,P|308:40|192:40,1,190,2|0,0:0|0:0,0:0:0:0:
112,12,105034,2,0,P|108:64|144:120,1,95,10|0,0:0|0:0,0:0:0:0:
212,136,105360,1,10,0:1:0:0:
168,220,105523,1,8,0:1:0:0:
312,304,105686,2,0,L|416:304,1,95,10|0,0:0|0:0,0:0:0:0:
324,220,106012,6,0,P|240:252|248:356,1,190,10|8,0:1|0:0,0:0:0:0:
152,384,106501,1,2,0:0:0:0:
152,384,106664,2,0,L|40:384,1,95,10|8,0:1|0:1,0:0:0:0:
0,300,106991,1,10,0:0:0:0:
0,300,107154,2,0,L|100:300,2,95,2|8|0,0:0|0:1|0:0,0:0:0:0:
48,216,107643,1,10,0:0:0:0:
48,216,107806,1,2,0:0:0:0:
0,132,107969,1,10,0:1:0:0:
48,216,108132,1,8,0:1:0:0:
0,132,108295,2,0,P|50:117|112:145,1,95,10|0,0:0|0:0,0:0:0:0:
316,196,108621,6,0,P|226:223|136:197,1,190,14|8,0:1|0:0,0:0:0:0:
104,108,109110,1,2,0:0:0:0:
104,108,109273,2,0,L|104:4,1,95,10|8,0:1|0:1,0:0:0:0:
20,60,109599,1,10,0:0:0:0:
196,56,109762,6,0,B|284:8|292:100|408:32,1,190,2|0,0:0|0:0,0:0:0:0:
464,4,110251,2,0,P|473:55|443:114,1,95,10|0,0:0|0:0,0:0:0:0:
440,120,110496,1,2,0:0:0:0:
440,120,110578,1,10,0:1:0:0:
492,200,110741,1,10,0:1:0:0:
432,272,110904,1,8,0:0:0:0:
336,272,111067,1,10,0:0:0:0:
288,272,111148,1,10,0:0:0:0:
240,272,111230,5,6,0:1:0:0:
44,68,111556,2,0,P|92:80|156:56,1,95,10|0,0:0|0:0,0:0:0:0:
224,32,111882,1,10,0:1:0:0:
312,64,112045,1,10,0:1:0:0:
360,144,112208,1,8,0:0:0:0:
360,240,112371,2,0,P|346:287|293:330,1,95,2|8,0:0|0:1,0:0:0:0:
184,240,112697,1,2,0:0:0:0:
184,240,112860,2,0,B|228:221|228:221|289:247,1,95,8|2,0:0|0:0,0:0:0:0:
228,324,113186,1,2,0:0:0:0:
132,324,113349,1,2,0:0:0:0:
88,240,113512,1,8,0:0:0:0:
271,49,113675,6,0,L|271:265,1,190,2|0,0:0|0:0,0:0:0:0:
356,200,114164,2,0,L|356:88,1,95,10|0,0:0|0:0,0:0:0:0:
356,8,114491,1,10,0:1:0:0:
444,40,114654,1,10,0:1:0:0:
448,136,114817,1,8,0:0:0:0:
448,232,114980,2,0,L|448:352,1,95,2|8,0:0|0:1,0:0:0:0:
356,200,115306,2,0,L|356:320,1,95,2|10,0:0|0:0,0:0:0:0:
264,73,115632,6,0,L|264:288,1,190,2|8,0:0|0:1,0:0:0:0:
264,336,116039,1,2,0:0:0:0:
264,336,116121,1,10,0:0:0:0:
176,372,116284,1,4,0:3:0:0:
88,336,116447,5,14,0:1:0:0:
10,158,116610,1,2,0:0:0:0:
80,224,116773,1,10,0:0:0:0:
169,263,116936,2,0,L|281:263,1,95,2|8,0:0|0:1,0:0:0:0:
10,132,117262,1,10,0:1:0:0:
80,198,117425,1,10,0:0:0:0:
169,237,117588,2,0,L|281:237,1,95,2|8,0:0|0:1,0:0:0:0:
10,104,117914,1,2,0:0:0:0:
80,170,118077,1,10,0:0:0:0:
169,209,118240,2,0,L|281:209,2,95,2|8|8,0:0|0:1|0:1,0:0:0:0:
352,112,118730,5,10,0:0:0:0:
352,208,118893,1,10,0:0:0:0:
352,16,119056,5,8,0:1:0:0:
77,210,119382,2,0,P|125:198|189:222,1,95,8|0,0:0|0:0,0:0:0:0:
228,284,119708,1,10,0:1:0:0:
324,284,119871,1,10,0:1:0:0:
372,368,120034,1,8,0:0:0:0:
408,236,120197,6,0,P|372:201|305:190,1,95,2|4,0:0|0:3,0:0:0:0:
296,188,120442,1,4,0:3:0:0:
296,188,120523,1,4,0:3:0:0:
232,256,120686,1,8,0:0:0:0:
136,256,120849,1,2,0:0:0:0:
136,256,120931,1,2,0:0:0:0:
108,256,121012,1,10,0:0:0:0:
82,243,121094,1,10,0:1:0:0:
67,218,121175,1,10,0:1:0:0:
67,189,121257,1,10,0:1:0:0:
89,147,121338,5,2,0:3:0:0:
135,156,121420,1,2,0:3:0:0:
180,145,121501,1,2,0:3:0:0:
217,115,121583,1,2,0:3:0:0:
230,69,121664,6,0,P|320:96|416:60,1,190,14|10,0:1|0:0,0:0:0:0:
488,16,122154,1,2,0:0:0:0:
488,88,122317,1,10,0:0:0:0:
488,160,122480,1,10,0:1:0:0:
488,232,122643,1,8,0:1:0:0:
488,304,122806,6,0,L|336:304,1,142.500005435944,10|2,0:0|0:0,0:0:0:0:
345,304,123295,1,8,0:0:0:0:
348,376,123458,2,0,L|268:376,1,71.2500027179719,2|8,0:0|0:1,0:0:0:0:
240,376,123703,1,0,0:0:0:0:
240,376,123784,1,10,0:0:0:0:
168,376,123947,1,8,0:1:0:0:
168,376,124110,1,2,0:0:0:0:
96,376,124273,5,12,0:1:0:0:
420,232,124599,1,10,0:0:0:0:
348,232,124762,1,2,0:0:0:0:
276,232,124925,1,10,0:0:0:0:
204,232,125088,2,0,L|120:232,1,71.2500027179719,2|8,0:0|0:1,0:0:0:0:
132,304,125333,1,2,0:0:0:0:
132,304,125414,6,0,L|274:304,1,142.500005435944,10|2,0:0|0:0,0:0:0:0:
348,304,125904,1,8,0:0:0:0:
348,304,126067,2,0,L|432:304,1,71.2500027179719,2|2,0:0|0:3,0:0:0:0:
456,304,126311,1,0,0:0:0:0:
456,304,126393,1,10,0:0:0:0:
456,232,126556,1,2,0:3:0:0:
456,196,126637,1,2,0:3:0:0:
456,160,126719,1,2,0:3:0:0:
456,124,126800,1,2,0:3:0:0:
456,88,126882,5,2,0:3:0:0:
456,88,127208,1,10,0:0:0:0:
384,88,127371,1,2,0:0:0:0:
312,88,127534,1,10,0:0:0:0:
240,88,127697,2,0,L|144:88,1,71.2500027179719,2|8,0:0|0:1,0:0:0:0:
168,160,127942,1,2,0:0:0:0:
168,160,128023,6,0,L|16:160,1,142.500005435944,10|2,0:0|0:0,0:0:0:0:
24,232,128512,1,8,0:0:0:0:
24,232,128675,2,0,L|116:232,1,71.2500027179719,2|2,0:0|0:0,0:0:0:0:
132,232,128920,1,0,0:0:0:0:
132,232,129001,1,10,0:0:0:0:
204,232,129164,1,10,0:1:0:0:
276,232,129328,1,2,0:0:0:0:
348,232,129491,5,8,0:1:0:0:
132,232,129654,1,2,0:0:0:0:
132,318,129817,2,0,P|116:286|132:230,1,95,10|0,0:0|0:0,0:0:0:0:
188,156,130143,1,10,0:0:0:0:
284,156,130306,1,10,0:1:0:0:
380,156,130469,1,10,0:0:0:0:
284,156,130632,1,10,0:0:0:0:
92,156,130795,5,8,0:3:0:0:
284,156,130958,1,8,0:3:0:0:
400,308,131121,1,10,0:1:0:0:
400,308,131203,1,2,0:0:0:0:
400,308,131284,1,2,0:0:0:0:
400,308,131366,1,2,0:0:0:0:
400,308,131447,5,10,0:0:0:0:
447,311,131529,1,10,0:0:0:0:
480,278,131610,1,10,0:0:0:0:
491,234,131692,1,10,0:0:0:0:
473,188,131773,1,10,0:0:0:0:
432,165,131855,1,10,0:0:0:0:
385,169,131936,1,10,0:0:0:0:
350,199,132018,1,10,0:0:0:0:
339,246,132099,6,0,P|304:253|256:233,1,66.4999979705811,14|0,0:1|0:0,0:0:0:0:
220,196,132262,1,2,0:0:0:0:
376,320,132425,2,0,P|309:335|239:318,1,132.999995941162,10|0,0:0|0:0,0:0:0:0:
100,96,132751,6,0,B|172:132|192:72|252:104|252:104|304:72|364:100,1,265.999991882324,10|8,0:1|0:0,0:0:0:0:
460,308,133241,2,0,B|456:268|424:248|424:248|440:216|440:216|400:160|480:144|444:56,1,265.999991882324,10|10,0:1|0:1,0:0:0:0:
308,176,133730,2,0,L|308:309,1,132.999995941162,8|0,0:0|0:0,0:0:0:0:
188,372,134056,1,10,0:1:0:0:
72,308,134219,1,0,0:0:0:0:
72,176,134382,2,0,L|72:28,1,132.999995941162,10|0,0:0|0:0,0:0:0:0:
200,252,134708,6,0,B|240:256|260:236|260:236|292:260|292:260|316:236|384:280|468:244,1,265.999991882324,10|10,0:1|0:0,0:0:0:0:
512,60,135197,2,0,B|452:120|336:104|336:104|388:128|384:180,1,265.999991882324,2|8,0:0|0:1,0:0:0:0:
360,352,135686,1,10,0:0:0:0:
228,352,135849,1,2,0:0:0:0:
68,352,136012,6,0,P|22:304|0:242,1,132.999995941162,2|8,0:0|0:1,0:0:0:0:
4,84,136338,1,10,0:0:0:0:
148,12,136501,2,0,P|212:-3|276:11,1,132.999995941162,2|8,0:0|0:1,0:0:0:0:
452,112,136828,2,0,P|387:126|323:112,1,132.999995941162,10|8,0:1|0:0,0:0:0:0:
216,196,137154,1,10,0:1:0:0:
216,196,137235,1,2,0:0:0:0:
216,196,137317,6,0,L|216:324,1,113.999996520996,12|0,0:1|0:0,0:0:0:0:
376,196,137643,2,0,L|376:68,1,113.999996520996,8|0,0:0|0:0,0:0:0:0:
216,0,137969,1,10,0:1:0:0:
104,0,138132,1,8,0:1:0:0:
216,0,138295,1,10,0:0:0:0:
104,0,138458,6,0,P|13:61|61:165,1,227.999993041992,10|8,0:1|0:1,0:0:0:0:
128,220,138947,2,0,P|144:280|112:348,1,113.999996520996,8|0,0:0|0:0,0:0:0:0:
28,272,139273,1,10,0:1:0:0:
128,96,139436,1,10,0:1:0:0:
128,96,139599,2,0,L|252:96,1,113.999996520996,10|8,0:0|0:1,0:0:0:0:
352,64,139925,6,0,B|352:128|352:128|300:220|300:220|300:304,1,227.999993041992,10|8,0:1|0:0,0:0:0:0:
400,376,140414,1,2,0:0:0:0:
400,376,140578,2,0,L|400:256,1,113.999996520996,8|2,0:1|0:0,0:0:0:0:
488,188,140904,2,0,L|488:52,1,113.999996520996,8|10,0:0|0:1,0:0:0:0:
496,0,141148,1,2,0:0:0:0:
496,0,141230,6,0,B|364:0|452:112|292:96,1,227.999993041992,10|10,0:1|0:0,0:0:0:0:
188,96,141719,1,10,0:1:0:0:
188,96,141800,1,2,0:0:0:0:
188,96,141882,2,0,P|144:139|137:214,1,113.999996520996,6|4,0:3|0:3,0:0:0:0:
140,216,142126,1,4,0:3:0:0:
156,240,142208,1,8,0:1:0:0:
176,260,142289,1,8,0:1:0:0:
200,276,142371,1,8,0:1:0:0:
228,284,142453,1,8,0:1:0:0:
256,288,142534,5,14,0:1:0:0:
340,184,142697,1,2,0:0:0:0:
372,368,142860,1,10,0:0:0:0:
184,372,143023,1,2,0:0:0:0:
40,264,143186,5,8,0:0:0:0:
40,236,143349,1,10,0:1:0:0:
256,312,143512,1,8,0:0:0:0:
256,340,143675,1,10,0:1:0:0:
400,252,143838,5,10,0:0:0:0:
256,192,144001,1,0,0:0:0:0:
112,252,144164,1,10,0:0:0:0:
256,312,144328,1,0,0:0:0:0:
360,164,144491,6,0,L|360:24,1,132.999995941162,10|0,0:0|0:0,0:0:0:0:
184,192,144817,2,0,L|184:332,1,132.999995941162,10|0,0:0|0:0,0:0:0:0:
140,92,145143,6,0,P|201:72|254:108,1,132.999995941162,14|8,0:0|0:1,0:0:0:0:
140,92,145469,1,10,0:0:0:0:
0,240,145632,2,0,P|53:275|114:256,1,132.999995941162,2|8,0:0|0:1,0:0:0:0:
0,240,145958,1,2,0:0:0:0:
248,356,146121,2,0,L|116:356,1,132.999995941162,10|8,0:0|0:1,0:0:0:0:
248,260,146447,6,0,B|312:256|352:316|340:376|340:376|380:320|448:336,1,265.999991882324,14|8,0:0|0:0,0:0:0:0:
500,60,146936,2,0,P|396:92|412:240,1,265.999991882324,10|10,0:1|0:1,0:0:0:0:
272,156,147425,2,0,P|207:148|163:194,1,132.999995941162,10|8,0:0|0:1,0:0:0:0:
160,296,147751,5,14,0:0:0:0:
60,308,147914,1,0,0:0:0:0:
0,224,148078,1,10,0:0:0:0:
60,140,148241,1,8,0:1:0:0:
60,36,148404,1,10,0:0:0:0:
156,0,148567,1,8,0:1:0:0:
232,68,148730,1,10,0:0:0:0:
332,40,148893,1,8,0:1:0:0:
432,12,149056,5,10,0:0:0:0:
408,112,149219,1,0,0:0:0:0:
472,192,149382,2,0,L|472:320,1,113.999996520996,10|8,0:0|0:1,0:0:0:0:
472,376,149626,1,2,0:0:0:0:
472,376,149708,2,0,P|420:392|348:356,1,113.999996520996,10|0,0:0|0:0,0:0:0:0:
300,280,150034,2,0,P|248:264|176:300,1,113.999996520996,10|0,0:0|0:0,0:0:0:0:
108,360,150360,6,0,P|48:268|148:200,3,227.999993041992,10|10|10|10,0:0|0:0|0:0|0:0,0:0:0:0:
236,176,151501,1,8,0:1:0:0:
236,176,151664,6,0,P|252:124|216:52,1,113.999996520996,10|2,0:1|0:0,0:0:0:0:
200,36,151909,1,10,0:1:0:0:
156,24,151991,1,10,0:0:0:0:
44,24,152154,1,10,0:1:0:0:
0,128,152317,1,4,0:3:0:0:
0,172,152398,1,4,0:3:0:0:
32,204,152480,1,4,0:3:0:0:
76,200,152561,1,4,0:3:0:0:
116,220,152643,5,4,0:3:0:0:
116,232,152724,1,4,0:3:0:0:
116,244,152806,1,4,0:3:0:0:
232,352,152969,6,0,B|181:352|181:352|168:344|168:344|156:344|156:344|144:332|144:332|80:332,1,142.500005435944,2|8,0:0|0:1,0:0:0:0:
96,332,153621,1,8,0:0:0:0:
96,332,153947,1,2,0:0:0:0:
320,139,154273,5,8,0:1:0:0:
320,352,154599,1,8,0:1:0:0:
320,139,154925,2,0,B|336:141|352:133|352:133|371:139|371:139|404:121|404:121|432:121|432:121|451:117|451:117|464:121,1,142.500005435944,8|2,0:0|0:0,0:0:0:0:
144,4,155578,6,0,B|188:56|188:56|188:124|188:124|192:140|192:140|192:272,1,285.000010871888,8|8,0:1|0:0,0:0:0:0:
320,352,156556,1,2,0:0:0:0:
320,352,156719,2,0,B|320:268|320:268|324:256|324:256|324:176|324:176|320:164|320:164|320:128,1,213.750008153916,8|8,0:1|0:1,0:0:0:0:
320,12,157534,5,8,0:0:0:0:
108,88,157697,1,8,0:0:0:0:
36,328,158186,6,0,B|88:328|88:328|120:352|120:352|184:352,1,142.500005435944,12|2,0:1|0:0,0:0:0:0:
240,352,158675,1,0,0:0:0:0:
240,352,158838,2,0,L|324:352,1,71.2500027179719,8|0,0:0|0:0,0:0:0:0:
384,352,159164,1,2,0:0:0:0:
456,352,159328,5,8,0:1:0:0:
456,352,159654,1,2,0:0:0:0:
456,280,159817,1,8,0:1:0:0:
456,352,159980,1,2,0:0:0:0:
456,136,160143,5,8,0:0:0:0:
456,208,160306,5,2,0:3:0:0:
456,136,160469,1,2,0:3:0:0:
456,64,160632,1,2,0:3:0:0:
352,244,160795,6,0,B|300:244|300:244|268:268|268:268|204:268,1,142.500005435944,8|2,0:1|0:0,0:0:0:0:
220,344,161284,1,0,0:0:0:0:
220,344,161447,2,0,L|144:344,1,71.2500027179719,8|0,0:0|0:0,0:0:0:0:
76,344,161773,1,2,0:0:0:0:
4,344,161936,6,0,L|4:256,1,71.2500027179719,8|0,0:1|0:0,0:0:0:0:
76,272,162262,1,2,0:0:0:0:
76,200,162425,2,0,L|76:120,1,71.2500027179719,8|0,0:1|0:0,0:0:0:0:
76,56,162751,6,0,L|32:56,1,35.625,8|0,0:0|2:0,0:0:0:0:
4,56,163078,5,2,0:0:0:0:
144,56,163241,1,2,0:0:0:0:
272,164,163404,6,0,B|236:128|236:128|124:128,1,142.500005435944,8|2,0:1|0:0,0:0:0:0:
144,56,163893,1,0,0:0:0:0:
144,56,164056,2,0,L|232:56,1,71.2500027179719,8|0,0:0|0:0,0:0:0:0:
288,56,164382,1,2,0:0:0:0:
360,56,164545,6,0,B|400:56|400:56|440:24,1,71.2500027179719,8|0,0:1|0:0,0:0:0:0:
496,36,164871,1,2,0:0:0:0:
496,108,165034,1,8,0:1:0:0:
496,180,165197,1,0,0:0:0:0:
496,36,165360,5,8,0:0:0:0:
496,180,165523,1,8,0:0:0:0:
496,252,165686,1,2,0:0:0:0:
496,324,165849,1,2,0:0:0:0:
304,372,166012,6,0,B|340:336|340:336|340:224,1,142.500005435944,8|2,0:1|0:0,0:0:0:0:
340,172,166501,1,0,0:0:0:0:
340,172,166664,2,0,L|340:84,1,71.2500027179719,8|0,0:0|0:0,0:0:0:0:
340,28,166991,1,2,0:0:0:0:
268,28,167154,6,0,L|268:116,1,71.2500027179719,8|0,0:1|0:0,0:0:0:0:
268,240,167480,1,8,0:0:0:0:
268,168,167643,1,8,0:1:0:0:
268,99,167806,1,0,0:0:0:0:
268,240,167969,5,8,0:0:0:0:
124,240,168132,1,8,0:0:0:0:
52,240,168295,1,2,0:0:0:0:
196,240,168458,1,8,0:0:0:0:
124,240,168621,6,0,B|124:188|124:188|100:156|100:156|100:92,1,142.500005435944,12|2,0:1|0:0,0:0:0:0:
100,36,169110,1,0,0:0:0:0:
100,36,169273,2,0,L|28:36,1,71.2500027179719,8|0,0:0|0:0,0:0:0:0:
28,108,169599,1,2,0:0:0:0:
28,180,169762,6,0,L|28:264,1,71.2500027179719,8|0,0:1|0:0,0:0:0:0:
28,324,170088,1,2,0:0:0:0:
100,324,170251,1,8,0:1:0:0:
172,324,170414,1,0,0:0:0:0:
316,324,170578,5,8,0:0:0:0:
172,324,170741,5,2,0:3:0:0:
100,324,170904,1,2,0:3:0:0:
28,324,171067,1,2,0:3:0:0:
316,324,171230,6,0,B|368:324|368:324|400:300|400:300|464:300,1,142.500005435944,8|2,0:1|0:0,0:0:0:0:
452,228,171719,1,0,0:0:0:0:
452,228,171882,2,0,L|360:228,1,71.2500027179719,8|0,0:0|0:0,0:0:0:0:
384,156,172208,1,2,0:0:0:0:
456,156,172371,1,8,0:1:0:0:
312,156,172534,5,8,0:0:0:0:
456,156,172697,1,2,0:0:0:0:
240,156,172860,1,10,0:0:0:0:
384,156,173023,1,8,0:1:0:0:
240,156,173186,1,10,0:0:0:0:
240,192,173268,1,8,0:0:0:0:
240,228,173349,2,0,L|240:263,1,35.625001358986,10|2,0:0|0:0,0:0:0:0:
144,372,173512,1,8,0:0:0:0:
144,336,173594,1,8,0:0:0:0:
144,299,173675,2,0,L|144:264,1,35.625001358986,10|0,0:0|0:0,0:0:0:0:
144,100,173838,6,0,P|172:60|228:48,1,95,14|2,0:1|0:0,0:0:0:0:
296,96,174164,1,10,0:0:0:0:
296,96,174328,2,0,P|342:111|394:88,1,95,10|0,0:1|0:0,0:0:0:0:
448,28,174654,1,10,0:1:0:0:
512,100,174817,1,10,0:0:0:0:
448,172,174980,6,0,L|448:372,1,190,10|10,0:1|0:1,0:0:0:0:
352,364,175469,1,10,0:0:0:0:
276,308,175632,2,0,L|164:308,1,95,8|0,0:1|0:0,0:0:0:0:
181,308,175958,1,8,0:1:0:0:
100,356,176121,2,0,P|84:309|107:257,1,95,8|0,0:0|0:0,0:0:0:0:
176,216,176447,5,2,0:0:0:0:
0,272,176610,1,10,0:1:0:0:
136,140,176773,1,10,0:0:0:0:
220,292,176936,2,0,L|336:292,1,95,2|8,0:0|0:1,0:0:0:0:
408,292,177262,1,2,0:0:0:0:
464,216,177425,1,10,0:0:0:0:
408,140,177588,6,0,P|320:104|216:164,1,190,2|0,0:0|0:0,0:0:0:0:
176,216,178078,2,0,P|127:206|93:160,1,95,10|0,0:0|0:0,0:0:0:0:
144,92,178404,1,10,0:1:0:0:
48,92,178567,2,0,P|10:124|4:181,1,95,2|8,0:0|0:0,0:0:0:0:
36,256,178893,1,4,0:3:0:0:
217,359,179056,5,12,0:1:0:0:
303,302,179219,1,2,0:0:0:0:
246,216,179382,1,8,0:0:0:0:
160,271,179545,1,2,0:0:0:0:
136,268,179708,5,8,0:1:0:0:
249,196,179871,1,8,0:1:0:0:
321,309,180034,1,8,0:0:0:0:
212,384,180197,1,8,0:1:0:0:
212,384,180523,5,2,0:0:0:0:
232,292,180686,1,8,0:0:0:0:
380,272,180849,5,2,0:0:0:0:
360,180,181012,1,8,0:1:0:0:
220,128,181175,5,2,0:0:0:0:
240,36,181338,1,8,0:0:0:0:
220,128,181501,1,6,0:3:0:0:
495,165,181664,5,12,0:1:0:0:
388,179,181828,1,2,0:0:0:0:
313,102,181991,1,8,0:0:0:0:
416,85,182154,1,2,0:0:0:0:
423,64,182317,5,8,0:1:0:0:
294,94,182480,1,8,0:0:0:0:
379,200,182643,1,8,0:1:0:0:
512,168,182806,1,8,0:1:0:0:
512,168,183132,5,8,0:1:0:0:
471,252,183295,1,8,0:0:0:0:
244,169,183458,5,2,0:0:0:0:
265,211,183540,1,8,0:0:0:0:
286,252,183621,1,8,0:1:0:0:
471,252,183784,5,8,0:1:0:0:
492,211,183865,1,8,0:0:0:0:
512,168,183947,5,8,0:0:0:0:
512,152,184029,1,8,0:1:0:0:
512,136,184110,1,8,0:1:0:0:
512,120,184192,1,8,0:1:0:0:
512,104,184273,6,0,L|512:0,1,95,14|2,0:1|0:0,0:0:0:0:
379,105,184599,2,0,L|379:225,1,95,10|2,0:0|0:0,0:0:0:0:
376,296,184925,1,10,0:1:0:0:
300,352,185088,1,10,0:0:0:0:
224,296,185251,1,10,0:1:0:0:
148,352,185414,6,0,P|120:260|208:212,1,190,10|10,0:1|0:1,0:0:0:0:
280,204,185904,2,0,P|312:144|284:68,1,142.5,10|0,0:0|2:0,0:0:0:0:
268,52,186230,2,0,P|224:64|152:36,1,95,8|2,0:1|0:0,0:0:0:0:
148,32,186474,1,8,0:0:0:0:
120,12,186556,1,8,0:0:0:0:
87,7,186637,1,2,0:0:0:0:
55,17,186719,1,8,0:1:0:0:
16,152,186882,5,14,0:1:0:0:
76,228,187045,1,2,0:0:0:0:
172,228,187208,1,10,0:0:0:0:
232,152,187371,2,0,P|276:136|336:160,2,95,2|8|8,0:0|0:1|0:1,0:0:0:0:
280,232,187860,1,10,0:0:0:0:
396,200,188023,6,0,P|412:156|388:96,1,95,2|8,0:0|0:1,0:0:0:0:
488,200,188349,1,2,0:0:0:0:
488,200,188512,2,0,P|504:156|480:96,1,95,10|0,0:0|0:0,0:0:0:0:
436,32,188838,2,0,P|390:20|333:50,1,95,10|8,0:1|0:1,0:0:0:0:
308,124,189164,1,10,0:0:0:0:
212,136,189328,1,8,0:1:0:0:
144,280,189491,6,0,P|104:196|0:148,3,190,10|10|10|10,0:1|0:0|0:1|0:0,0:0:0:0:
20,56,190632,1,0,0:0:0:0:
20,56,190795,6,0,B|56:24|56:24|102:24,1,95,10|0,0:1|0:0,0:0:0:0:
184,76,191121,2,0,B|220:108|220:108|266:108,1,95,8|0,0:0|0:0,0:0:0:0:
356,76,191447,1,8,0:1:0:0:
444,108,191610,1,8,0:0:0:0:
464,152,191692,1,8,0:0:0:0:
448,196,191773,1,8,0:0:0:0:
376,256,191936,1,2,0:0:0:0:
376,256,192018,1,8,0:1:0:0:
376,256,192099,6,0,P|288:232|184:260,1,190,12|8,0:0|0:0,0:0:0:0:
132,324,192588,1,2,0:0:0:0:
132,324,192751,2,0,P|100:284|112:224,1,95,8|8,0:1|0:0,0:0:0:0:
156,164,193078,1,8,0:1:0:0:
252,224,193241,1,2,0:1:0:0:
252,224,193322,1,2,0:1:0:0:
252,224,193404,1,2,0:1:0:0:
252,224,193485,1,2,0:1:0:0:
252,224,193567,2,0,L|324:224,1,47.5,10|2,0:1|0:1,0:0:0:0:
408,224,193730,5,10,0:0:0:0:
388,180,193811,1,2,0:1:0:0:
392,132,193893,1,2,0:1:0:0:
424,96,193974,1,2,0:1:0:0:
472,92,194056,2,0,P|488:68|492:36,1,47.5,10|2,0:1|0:3,0:0:0:0:
332,20,194219,2,0,P|338:42|352:61,1,47.5,2|2,0:3|0:3,0:0:0:0:
472,172,194382,5,10,0:0:0:0:
484,192,194463,1,10,0:1:0:0:
491,214,194545,1,10,0:1:0:0:
494,237,194626,1,10,0:1:0:0:
494,260,194708,6,0,B|494:303|494:303|472:324|472:324|436:324|436:324|404:352,1,142.500005435944,8|2,0:1|0:1,0:0:0:0:
336,348,195197,1,2,0:1:0:0:
336,348,195360,2,0,L|260:348,1,71.2500027179719,10|0,0:1|0:0,0:0:0:0:
192,348,195686,1,2,0:1:0:0:
120,348,195849,1,10,0:1:0:0:
84,348,195931,1,2,0:0:0:0:
48,348,196012,5,2,0:0:0:0:
0,296,196175,1,2,0:1:0:0:
0,224,196338,1,10,0:1:0:0:
48,172,196501,1,2,0:1:0:0:
116,192,196664,1,10,0:1:0:0:
188,192,196828,1,2,0:1:0:0:
116,192,196991,1,10,0:1:0:0:
188,192,197154,1,2,0:0:0:0:
256,212,197317,6,0,B|308:212|308:212|340:236|340:236|404:236,1,142.500005435944,10|2,0:1|0:0,0:0:0:0:
460,236,197806,1,2,0:0:0:0:
460,236,197969,2,0,L|460:148,1,71.2500027179719,10|0,0:1|0:0,0:0:0:0:
460,92,198295,1,2,0:0:0:0:
416,36,198458,1,2,0:0:0:0:
380,36,198539,1,2,0:0:0:0:
344,36,198621,5,10,0:1:0:0:
260,36,198784,1,10,0:1:0:0:
168,72,198947,1,10,0:1:0:0:
128,180,199110,1,10,0:1:0:0:
168,300,199273,5,10,0:0:0:0:
215,302,199355,1,10,0:0:0:0:
259,286,199436,1,10,0:0:0:0:
281,243,199518,1,10,0:0:0:0:
326,229,199599,1,10,0:0:0:0:
372,240,199681,1,10,0:0:0:0:
400,277,199762,1,10,0:0:0:0:
401,324,199844,1,10,0:0:0:0:
381,367,199925,6,0,P|348:380|304:376,1,66.4999979705811,14|0,0:1|0:0,0:0:0:0:
244,368,200088,1,2,0:0:0:0:
128,276,200251,2,0,P|120:216|160:128,1,132.999995941162,10|0,0:0|0:0,0:0:0:0:
476,73,200578,6,0,P|384:165|255:191,1,265.999991882324,2|8,0:0|0:0,0:0:0:0:
34,311,201067,2,0,P|124:219|279:196,1,265.999991882324,10|10,0:1|0:1,0:0:0:0:
328,304,201556,2,0,P|400:320|464:300,1,132.999995941162,8|0,0:0|0:0,0:0:0:0:
492,176,201882,1,10,0:1:0:0:
428,60,202045,1,0,0:0:0:0:
292,60,202208,2,0,L|152:60,1,132.999995941162,10|8,0:0|0:1,0:0:0:0:
52,148,202534,6,0,P|40:252|140:192,1,265.999991882324,10|10,0:1|0:0,0:0:0:0:
439,264,203023,2,0,P|347:175|212:151,1,265.999991882324,2|8,0:0|0:1,0:0:0:0:
216,284,203512,1,10,0:0:0:0:
112,364,203675,1,2,0:0:0:0:
0,248,203838,6,0,L|0:112,1,132.999995941162,2|8,0:0|0:1,0:0:0:0:
160,92,204164,1,10,0:0:0:0:
304,20,204328,2,0,P|364:8|447:31,1,132.999995941162,2|8,0:0|0:1,0:0:0:0:
512,140,204654,2,0,P|452:124|368:144,1,132.999995941162,10|8,0:1|0:0,0:0:0:0:
273,210,204980,1,10,0:1:0:0:
273,210,205061,1,2,0:0:0:0:
273,210,205143,6,0,L|273:324,1,113.999996520996,12|0,0:1|0:0,0:0:0:0:
160,206,205469,2,0,L|160:93,1,113.999996520996,8|0,0:0|0:0,0:0:0:0:
384,12,205795,1,10,0:1:0:0:
496,12,205958,1,8,0:1:0:0:
384,12,206121,1,10,0:0:0:0:
496,12,206284,6,0,P|452:112|464:252,1,227.999993041992,10|8,0:1|0:1,0:0:0:0:
384,324,206773,2,0,P|328:336|252:312,1,113.999996520996,8|0,0:0|0:0,0:0:0:0:
208,228,207099,1,10,0:1:0:0:
96,228,207262,1,10,0:1:0:0:
96,228,207425,2,0,P|57:270|40:348,1,113.999996520996,10|0,0:0|0:0,0:0:0:0:
208,228,207751,6,0,P|176:132|52:128,1,227.999993041992,10|8,0:1|0:0,0:0:0:0:
12,24,208241,1,2,0:0:0:0:
12,24,208322,1,2,0:0:0:0:
12,24,208404,2,0,P|68:0|136:4,1,113.999996520996,8|2,0:1|0:0,0:0:0:0:
172,100,208730,2,0,P|228:124|296:120,1,113.999996520996,8|2,0:0|0:1,0:0:0:0:
336,68,208974,1,2,0:0:0:0:
336,68,209056,6,0,B|404:176|284:176|376:316,1,227.999993041992,10|10,0:1|0:0,0:0:0:0:
460,336,209545,1,10,0:1:0:0:
252,240,209708,5,10,0:0:0:0:
424,224,209871,1,10,0:0:0:0:
502,68,210034,1,10,0:0:0:0:
463,43,210116,1,10,0:0:0:0:
419,32,210197,1,10,0:0:0:0:
374,43,210279,1,10,0:0:0:0:
336,68,210360,5,14,0:1:0:0:
252,172,210523,1,2,0:0:0:0:
420,120,210686,1,8,0:0:0:0:
512,256,210849,1,2,0:0:0:0:
344,308,211012,6,0,P|280:320|224:368,1,132.999995941162,10|0,0:1|0:0,0:0:0:0:
96,364,211338,1,8,0:0:0:0:
12,260,211501,2,0,P|120:204|176:56,1,265.999991882324,10|2,0:1|0:0,0:0:0:0:
32,4,211991,2,0,P|30:69|65:133,1,132.999995941162,8|0,0:0|0:0,0:0:0:0:
228,208,212317,2,0,L|372:208,1,132.999995941162,10|8,0:1|0:1,0:0:0:0:
480,96,212643,2,0,L|336:96,1,132.999995941162,10|8,0:0|0:1,0:0:0:0:
148,320,212969,6,0,L|416:320,1,265.999991882324,14|8,0:1|0:0,0:0:0:0:
480,68,213458,2,0,L|212:68,1,265.999991882324,2|0,0:0|0:0,0:0:0:0:
80,68,213947,2,0,P|35:114|18:185,1,132.999995941162,10|0,0:0|0:0,0:0:0:0:
284,360,214273,6,0,P|236:239|102:153,1,265.999991882324,2|8,0:0|0:0,0:0:0:0:
504,204,214762,2,0,P|397:127|348:5,1,265.999991882324,2|2,0:0|0:0,0:0:0:0:
192,68,215251,2,0,L|40:68,1,132.999995941162,10|2,0:0|0:0,0:0:0:0:
16,192,215578,5,14,0:1:0:0:
88,264,215741,1,0,0:0:0:0:
120,360,215904,1,10,0:0:0:0:
220,376,216067,1,0,0:0:0:0:
296,308,216230,1,10,0:1:0:0:
396,328,216393,1,8,0:1:0:0:
476,264,216556,1,10,0:0:0:0:
456,164,216719,1,8,0:1:0:0:
508,76,216882,5,10,0:1:0:0:
404,76,217045,1,0,0:1:0:0:
352,164,217208,2,0,L|238:164,1,113.999996520996,10|0,0:0|0:0,0:0:0:0:
124,72,217534,2,0,L|238:72,1,113.999996520996,10|0,0:1|0:0,0:0:0:0:
124,164,217860,2,0,L|-16:164,1,113.999996520996,10|0,0:0|0:0,0:0:0:0:
60,252,218186,5,10,0:1:0:0:
124,72,218349,5,8,0:0:0:0:
312,16,218512,1,8,0:0:0:0:
312,16,218838,5,8,0:1:0:0:
388,40,219001,1,2,0:0:0:0:
312,16,219164,1,8,0:0:0:0:
388,40,219328,1,10,0:1:0:0:
424,112,219491,6,0,P|404:168|416:232,1,113.999996520996,10|0,0:1|0:0,0:0:0:0:
411,220,219817,1,10,0:0:0:0:
296,356,219980,2,0,P|316:300|304:236,1,113.999996520996,2|8,0:0|0:1,0:0:0:0:
268,192,220224,1,8,0:1:0:0:
256,189,220306,1,8,0:1:0:0:
244,190,220387,1,8,0:1:0:0:
235,196,220469,1,8,0:1:0:0:
228,205,220550,1,8,0:1:0:0:
226,215,220632,1,8,0:1:0:0:
227,226,220713,1,8,0:1:0:0:
208,248,220795,6,0,P|144:264|64:232,1,132.999995941162,14|0,0:1|0:0,0:0:0:0:
297,109,221121,2,0,P|361:93|441:125,1,132.999995941162,10|0,0:0|0:0,0:0:0:0:
496,224,221447,1,10,0:0:0:0:
496,252,221610,1,8,0:1:0:0:
297,109,221773,1,10,0:0:0:0:
297,81,221936,1,8,0:1:0:0:
360,224,222099,6,0,L|360:368,1,132.999995941162,10|0,0:0|0:0,0:0:0:0:
188,224,222425,1,10,0:0:0:0:
188,356,222588,1,8,0:1:0:0:
188,224,222751,2,0,L|188:88,1,132.999995941162,10|8,0:0|0:1,0:0:0:0:
296,12,223078,1,10,0:0:0:0:
500,88,223241,1,2,0:0:0:0:
500,88,223322,1,2,0:0:0:0:
500,88,223404,6,0,B|428:88|428:88|360:140,1,132.999995941162,10|0,0:0|0:0,0:0:0:0:
188,224,223730,2,0,B|260:224|260:224|328:172,1,132.999995941162,10|8,0:0|0:1,0:0:0:0:
324,12,224056,1,10,0:0:0:0:
176,72,224219,1,8,0:1:0:0:
16,88,224382,1,10,0:0:0:0:
164,148,224545,1,8,0:1:0:0:
304,224,224708,6,0,L|304:364,1,132.999995941162,10|0,0:0|0:0,0:0:0:0:
304,224,225034,1,10,0:0:0:0:
304,357,225197,1,2,0:0:0:0:
436,224,225360,2,0,L|436:84,1,132.999995941162,10|8,0:0|0:1,0:0:0:0:
436,224,225686,1,10,0:0:0:0:
436,356,225849,1,10,0:1:0:0:
304,224,226012,6,0,B|244:208|244:208|175:225,1,132.999995941162,14|0,0:0|0:0,0:0:0:0:
24,328,226338,2,0,B|84:344|84:344|152:326,1,132.999995941162,10|0,0:0|0:0,0:0:0:0:
244,132,226664,1,10,0:0:0:0:
244,292,226828,1,8,0:1:0:0:
84,236,226991,2,0,B|68:176|68:176|85:107,1,132.999995941162,10|0,0:0|0:0,0:0:0:0:
244,8,227317,5,10,0:0:0:0:
112,20,227480,1,0,0:0:0:0:
156,176,227643,1,10,0:0:0:0:
288,188,227806,1,2,0:0:0:0:
416,112,227969,6,0,P|373:61|290:40,1,132.999995941162,10|0,0:0|0:0,0:0:0:0:
188,84,228295,1,10,0:0:0:0:
220,212,228458,1,0,0:0:0:0:
372,260,228621,5,8,0:0:0:0:
260,344,228784,1,2,0:0:0:0:
324,128,228947,1,10,0:0:0:0:
372,260,229110,1,2,0:0:0:0:
176,324,229273,5,10,0:0:0:0:
344,364,229436,1,10,0:1:0:0:
372,260,229599,1,10,0:0:0:0:
176,324,229762,1,10,0:1:0:0:
60,256,229925,6,0,P|44:192|76:120,1,132.999995941162,8|2,0:3|0:0,0:0:0:0:
96,100,230170,1,2,0:3:0:0:
136,92,230251,1,8,0:0:0:0:
252,156,230414,1,2,0:0:0:0:
376,104,230578,1,10,0:0:0:0:
396,56,230659,1,8,0:0:0:0:
376,8,230741,1,8,0:0:0:0:
252,64,230904,1,4,0:3:0:0:
336,184,231067,1,2,0:3:0:0:
204,316,231230,5,14,0:1:0:0:
35,277,231393,1,0,0:0:0:0:
173,174,231556,1,10,0:0:0:0:
340,212,231719,1,0,0:0:0:0:
280,360,231882,5,10,0:0:0:0:
256,188,232045,1,0,0:0:0:0:
120,296,232208,1,10,0:0:0:0:
272,212,232371,1,8,0:1:0:0:
408,320,232534,5,10,0:0:0:0:
448,221,232697,1,0,0:0:0:0:
346,181,232860,1,10,0:0:0:0:
305,280,233023,1,0,0:0:0:0:
448,221,233186,5,10,0:0:0:0:
372,112,233349,1,8,0:1:0:0:
424,236,233512,1,10,0:0:0:0:
396,104,233675,1,8,0:1:0:0:
264,104,233838,6,0,L|128:104,1,132.999995941162,14|0,0:0|0:0,0:0:0:0:
96,260,234164,1,10,0:0:0:0:
328,168,234328,1,2,0:0:0:0:
328,168,234409,1,2,0:0:0:0:
328,168,234491,2,0,P|355:101|318:35,1,132.999995941162,10|8,0:0|0:1,0:0:0:0:
196,196,234817,2,0,L|196:336,1,132.999995941162,10|8,0:0|0:1,0:0:0:0:
92,184,235143,6,0,P|52:72|184:40,1,265.999991882324,10|8,0:0|0:0,0:0:0:0:
356,128,235632,1,10,0:1:0:0:
356,128,235713,1,2,0:0:0:0:
356,128,235795,2,0,P|288:153|223:113,1,132.999995941162,8|10,0:0|0:1,0:0:0:0:
356,24,236121,1,8,0:0:0:0:
460,108,236284,1,2,0:0:0:0:
356,256,236447,6,0,L|216:256,1,132.999995941162,10|0,0:0|0:0,0:0:0:0:
32,312,236773,1,10,0:0:0:0:
104,372,236936,1,10,0:1:0:0:
104,372,237099,2,0,B|160:244|40:244|128:100,3,265.999991882324,10|10|10|10,0:0|0:0|0:0|0:0,0:0:0:0:
228,200,238241,1,8,0:1:0:0:
228,200,238322,1,2,0:0:0:0:
228,200,238404,2,0,L|360:200,1,132.999995941162,10|8,0:0|0:1,0:0:0:0:
472,124,238730,1,10,0:0:0:0:
348,76,238893,1,10,0:1:0:0:
300,200,239056,6,0,P|280:264|308:340,1,132.999995941162,10|0,0:0|0:0,0:0:0:0:
432,364,239382,1,10,0:0:0:0:
496,268,239545,1,10,0:1:0:0:
496,268,239626,1,2,0:0:0:0:
496,268,239708,2,0,P|432:248|356:276,1,132.999995941162,10|8,0:0|0:1,0:0:0:0:
236,380,240034,1,10,0:0:0:0:
108,340,240197,1,10,0:1:0:0:
108,176,240360,6,0,P|122:110|184:58,1,132.999995941162,10|0,0:1|0:0,0:0:0:0:
212,56,240605,1,8,0:0:0:0:
212,56,240686,2,0,P|276:76|352:48,1,132.999995941162,10|0,0:0|0:0,0:0:0:0:
460,0,241012,1,8,0:0:0:0:
480,48,241093,1,8,0:0:0:0:
460,96,241175,1,2,0:0:0:0:
364,192,241338,5,14,0:1:0:0:
364,192,241664,5,14,0:1:0:0:
