osu file format v14

[General]
AudioFilename: audio.mp3
AudioLeadIn: 0
PreviewTime: 23174
Countdown: 0
SampleSet: Soft
StackLeniency: 0.5
Mode: 0
LetterboxInBreaks: 0
WidescreenStoryboard: 0

[Editor]
Bookmarks: 1653,23826,34261,44696,47305,57739,68174,78609,99316
DistanceSpacing: 1.3
BeatDivisor: 4
GridSize: 8
TimelineZoom: 1.8

[Metadata]
Title:u/n (Cut Ver.)
TitleUnicode:u/n (Cut Ver.)
Artist:Kawada Mami
ArtistUnicode:川田まみ
Creator:Kerupt
Version:Insane
Source:灼眼のシャナⅢ-FINAL-
Tags:Serment Japanese Anime Shakugan no Shana 3 three
BeatmapID:2776173
BeatmapSetID:1340027

[Difficulty]
HPDrainRate:5
CircleSize:4
OverallDifficulty:8
ApproachRate:9
SliderMultiplier:1.1
SliderTickRate:1

[Events]
//Background and Video events
0,0,"bg2.png",0,0
//Break Periods
2,44896,46705
//Storyboard Layer 0 (Background)
//Storyboard Layer 1 (Fail)
//Storyboard Layer 2 (Pass)
//Storyboard Layer 3 (Foreground)
//Storyboard Layer 4 (Overlay)
//Storyboard Sound Samples

[TimingPoints]
1653,326.086956521739,4,2,1,55,1,0
23826,-90.9090909090909,4,2,1,60,0,0
33935,-76.9230769230769,4,2,1,60,0,0
34261,-71.4285714285714,4,2,1,70,0,0
44696,-71.4285714285714,4,2,1,60,0,0
47305,-83.3333333333333,4,2,1,60,0,0
57739,-71.4285714285714,4,2,1,70,0,0
68174,-90.9090909090909,4,2,1,60,0,0
76326,-71.4285714285714,4,2,1,60,0,0
77957,-71.4285714285714,4,2,1,70,0,0
78609,-62.5,4,2,1,80,0,1
88392,-62.5,4,2,1,70,0,0
89044,-58.8235294117647,4,2,1,80,0,1
98174,-62.5,4,2,1,80,0,1
99316,-62.5,4,2,1,80,0,0
100131,-62.5,4,2,1,50,0,0

[Colours]
Combo1 : 188,158,237
Combo2 : 255,70,74
Combo3 : 163,189,250
Combo4 : 248,235,165

[HitObjects]
378,247,1653,21,0,0:0:0:0:
378,247,1979,2,0,P|367:292|396:354,2,110,2|2|0,0:0|0:0|0:0,0:0:0:0:
284,137,2794,2,0,P|297:217|262:290,1,165,2|0,0:0|0:0,0:0:0:0:
156,197,3609,1,2,0:0:0:0:
158,209,3935,1,0,0:0:0:0:
160,221,4261,5,2,0:0:0:0:
90,162,4424,2,0,L|95:107,1,55,0|2,0:0|0:0,0:0:0:0:
160,221,4750,2,0,L|180:384,1,165,0|2,0:0|0:0,0:0:0:0:
250,246,5402,2,0,L|264:360,1,110
315,178,5892,6,0,P|293:161|267:152,1,55,2|0,0:0|0:0,0:0:0:0:
437,232,6218,2,0,P|462:222|484:206,1,55,0|2,0:0|0:0,0:0:0:0:
401,113,6544,1,0,0:0:0:0:
381,277,6870,6,0,L|401:114,1,165,2|0,0:0|0:0,0:0:0:0:
356,44,7522,2,0,P|308:70|243:63,1,110,2|0,0:0|0:0,0:0:0:0:
193,16,8011,2,0,P|112:5|39:41,1,165,2|0,0:0|0:0,0:0:0:0:
39,40,8826,2,0,L|52:149,1,110,2|0,0:0|0:0,0:0:0:0:
93,221,9479,6,0,P|173:210|246:246,1,165,2|0,0:0|0:0,0:0:0:0:
316,277,10131,2,0,P|364:251|429:258,1,110,2|0,0:0|0:0,0:0:0:0:
260,376,10620,2,0,L|253:321,1,55,0|2,0:0|0:0,0:0:0:0:
417,253,11109,2,0,L|410:307,1,55,0|2,0:0|0:0,0:0:0:0:
260,376,11598,2,0,L|253:321,1,55,0|2,0:0|0:0,0:0:0:0:
417,253,12087,1,0,0:0:0:0:
359,193,12413,6,0,P|305:202|255:180,1,110,2|0,0:0|0:0,0:0:0:0:
138,121,12902,2,0,P|172:162|179:216,1,110,2|0,0:0|0:0,0:0:0:0:
186,348,13392,2,0,P|204:297|248:264,1,110,2|2,0:0|0:0,0:0:0:0:
294,363,13881,2,0,L|348:356,1,55
418,316,14207,2,0,L|472:322,1,55,0|2,0:0|0:0,0:0:0:0:
247,106,14696,6,0,L|129:121,2,110,0|2|0,0:0|0:0|0:0,0:0:0:0:
219,183,15511,2,0,L|109:197,1,110,2|0,0:0|0:0,0:0:0:0:
191,260,16000,2,0,L|81:274,1,110,2|0,0:0|0:0,0:0:0:0:
25,337,16489,2,0,P|8:315|-1:289,1,55,2|0,0:0|0:0,0:0:0:0:
83,147,16816,2,0,P|99:168|108:194,2,55,2|0|0,0:0|0:0|0:0,0:0:0:0:
81,274,17305,5,0,0:0:0:0:
11,226,17631,2,0,P|54:194|108:195,1,110,2|0,0:0|0:0,0:0:0:0:
185,184,18120,2,0,P|228:215|282:214,1,110,2|0,0:0|0:0,0:0:0:0:
355,240,18609,2,0,P|398:208|452:209,1,110,2|0,0:0|0:0,0:0:0:0:
510,260,19098,2,0,L|503:314,2,55,2|0|2,0:0|0:0|0:0,0:0:0:0:
501,332,19587,1,0,0:0:0:0:
499,350,19913,5,0,0:0:0:0:
355,240,20239,1,2,0:0:0:0:
357,258,20566,1,0,0:0:0:0:
282,214,20729,2,0,L|288:159,1,55,2|0,0:0|0:0,0:0:0:0:
346,108,21055,2,0,P|291:130|211:73,1,165,2|0,0:0|0:0,0:0:0:0:
151,25,21707,2,0,P|114:74|56:76,1,110,2|0,0:0|0:0,0:0:0:0:
6,34,22196,1,0,0:0:0:0:
259,195,23826,5,6,3:2:0:0:
192,152,24152,2,0,P|132:158|73:193,1,121.000003692627,8|0,0:0|0:0,0:0:0:0:
107,261,24642,1,2,3:2:0:0:
182,291,24805,2,0,P|187:263|188:230,1,60.5000018463135,8|2,0:0|0:2,0:0:0:0:
259,195,25131,2,0,P|311:224|371:229,1,121.000003692627,0|8,3:3|0:0,0:0:0:0:
438,188,25620,1,2,3:2:0:0:
438,188,25783,2,0,P|437:157|431:128,2,60.5000018463135,0|2|8,3:2|0:2|0:0,0:0:0:0:
413,365,26435,5,0,3:0:0:0:
444,292,26598,2,0,P|472:280|501:274,1,60.5000018463135,2|8,3:2|0:0,0:0:0:0:
403,377,26924,2,0,P|343:371|290:342,1,121.000003692627,2|0,3:2|3:0,0:0:0:0:
321,269,27413,1,8,0:0:0:0:
242,270,27576,2,0,P|189:299|129:304,1,121.000003692627,2|2,3:2|3:2,0:0:0:0:
179,146,28066,2,0,P|208:151|236:163,1,60.5000018463135,8|2,0:0|3:2,0:0:0:0:
57,328,28392,2,0,P|27:322|-1:310,1,60.5000018463135,0|2,3:0|3:2,0:0:0:0:
114,192,28718,2,0,L|125:282,1,90.7500027694703,10|0,0:0|0:0,0:0:0:0:
129,304,29044,5,6,3:2:0:0:
297,89,29370,2,0,L|289:28,1,60.5000018463135,8|2,0:0|0:0,0:0:0:0:
231,142,29696,2,0,P|274:173|339:167,1,121.000003692627,0|10,3:3|0:0,0:0:0:0:
404,210,30185,2,0,P|447:179|512:185,1,121.000003692627,0|2,3:3|3:2,0:0:0:0:
474,264,30674,1,8,0:0:0:0:
297,89,31000,2,0,L|305:28,1,60.5000018463135,0|2,3:0|0:2,0:0:0:0:
411,150,31326,2,0,L|403:210,1,60.5000018463135,8|2,0:0|0:2,0:0:0:0:
267,272,31652,6,0,P|325:264|375:296,2,121.000003692627,0|10|0,3:3|0:0|3:0,0:0:0:0:
202,317,32468,1,2,3:2:0:0:
131,281,32631,2,0,P|102:269|67:269,1,60.5000018463135,8|2,0:0|3:2,0:0:0:0:
202,317,32957,5,6,3:2:0:0:
176,143,33120,1,2,3:2:0:0:
299,377,33283,5,14,0:0:0:0:
325,188,33446,1,8,3:0:0:0:
376,280,33609,5,12,0:0:0:0:
350,295,33690,1,8,0:0:0:0:
318,297,33772,1,8,0:0:0:0:
288,293,33853,1,8,0:0:0:0:
259,271,33935,2,0,L|263:230,1,35.749998363495,8|8,3:0|3:0,0:0:0:0:
397,111,34098,2,0,L|391:152,1,35.749998363495,4|4,3:0|3:0,0:0:0:0:
325,188,34261,1,4,1:0:0:0:
81,89,34587,6,0,P|142:45|218:58,1,153.999995300293,12|0,0:0|3:0,0:0:0:0:
325,188,35076,1,2,3:0:0:0:
164,142,35239,1,8,0:0:0:0:
303,16,35402,2,0,L|314:107,2,76.9999976501466,0|0|2,3:0|3:0|3:0,0:0:0:0:
164,142,35892,1,8,0:0:0:0:
234,304,36055,1,0,3:0:0:0:
234,304,36136,1,0,3:0:0:0:
234,304,36218,2,0,L|245:213,1,76.9999976501466,0|2,3:0|3:0,0:0:0:0:
439,173,36544,2,0,L|429:249,1,76.9999976501466,8|2,0:0|3:0,0:0:0:0:
352,384,36870,6,0,L|333:231,1,153.999995300293,4|8,1:0|0:0,0:0:0:0:
347,134,37359,1,2,0:3:0:0:
439,173,37522,2,0,P|477:170|510:151,1,76.9999976501466,0|0,3:0|3:0,0:0:0:0:
353,33,37848,2,0,P|315:35|282:54,1,76.9999976501466,8|2,0:0|3:0,0:0:0:0:
337,210,38174,2,0,L|348:119,1,76.9999976501466,0|2,3:0|3:0,0:0:0:0:
254,138,38500,2,0,L|235:290,1,153.999995300293,8|0,0:0|3:0,0:0:0:0:
222,384,38989,1,2,3:0:0:0:
49,254,39152,5,8,0:0:0:0:
65,356,39316,1,8,3:0:0:0:
47,238,39479,1,4,1:0:0:0:
44,217,39805,70,0,P|84:218|129:241,1,76.9999976501466,14|0,0:0|3:0,0:0:0:0:
197,294,40049,1,0,3:0:0:0:
197,294,40131,2,0,P|235:293|270:278,1,76.9999976501466,0|2,3:0|3:0,0:0:0:0:
204,131,40457,1,8,0:0:0:0:
61,304,40620,2,0,L|71:388,1,76.9999976501466,2|0,0:3|3:0,0:0:0:0:
214,207,40946,2,0,L|203:122,1,76.9999976501466,2|8,3:0|0:0,0:0:0:0:
98,79,41272,2,0,L|116:231,1,153.999995300293,2|0,0:3|3:0,0:0:0:0:
293,77,41761,1,10,0:0:0:0:
370,231,41924,1,2,3:0:0:0:
370,231,42006,1,0,3:0:0:0:
370,231,42087,6,0,P|334:245|296:246,1,76.9999976501466,4|0,1:0|3:0,0:0:0:0:
439,150,42413,2,0,P|477:150|512:165,1,76.9999976501466,8|2,0:0|3:0,0:0:0:0:
448,327,42739,1,0,3:3:0:0:
448,327,42902,2,0,L|459:231,1,76.9999976501466,2|8,3:3|0:0,0:0:0:0:
353,384,43229,2,0,L|371:231,1,153.999995300293,2|2,0:3|3:0,0:0:0:0:
439,150,43718,1,8,0:0:0:0:
358,89,43881,2,0,P|286:104|206:61,1,153.999995300293,0|2,3:0|3:0,0:0:0:0:
168,141,44370,2,0,P|133:127|96:134,1,76.9999976501466,8|4,0:0|3:0,0:0:0:0:
24,192,44696,1,2,3:0:0:0:
472,86,47305,5,4,3:1:0:0:
475,76,47631,2,0,B|425:52|377:73|393:94|330:117|285:91,1,197.99999395752,10|0,0:0|3:0,0:0:0:0:
327,13,48283,1,10,0:0:0:0:
438,152,48446,2,0,L|421:283,1,131.99999597168,2|0,0:0|3:0,0:0:0:0:
328,333,48935,2,0,L|336:267,1,65.9999979858399,8|0,0:0|0:0,0:0:0:0:
472,356,49261,2,0,P|442:370|409:370,1,65.9999979858399,2|0,0:0|0:3,0:0:0:0:
323,186,49587,2,0,P|355:186|385:200,1,65.9999979858399,10|2,0:0|0:0,0:0:0:0:
328,333,49913,5,0,3:0:0:0:
328,333,50076,2,0,L|249:342,1,65.9999979858399,2|8,0:0|0:0,0:0:0:0:
195,297,50402,2,0,L|57:313,1,131.99999597168,2|0,0:0|3:0,0:0:0:0:
216,209,50892,2,0,P|249:221|280:253,1,65.9999979858399,10|2,0:0|0:0,0:0:0:0:
181,384,51218,2,0,P|148:372|117:340,1,65.9999979858399,0|0,3:0|0:0,0:0:0:0:
0,242,51544,6,0,L|65:233,1,65.9999979858399,10|0,0:0|0:0,0:0:0:0:
36,160,51870,2,0,L|101:151,1,65.9999979858399,2|2,3:2|3:2,0:0:0:0:
71,78,52196,2,0,L|181:64,1,98.9999969787599,14|0,0:0|0:0,0:0:0:0:
228,126,52522,6,0,P|260:75|393:72,1,197.99999395752,4|2,1:0|0:0,0:0:0:0:
459,113,53174,2,0,L|451:178,1,65.9999979858399,2|0,3:2|3:0,0:0:0:0:
371,198,53500,1,10,0:0:0:0:
371,198,53663,2,0,L|388:53,2,131.99999597168,2|2|0,0:0|0:0|0:0,0:0:0:0:
356,345,54479,6,0,L|348:279,1,65.9999979858399,2|0,3:2|3:3,0:0:0:0:
282,235,54805,2,0,L|274:169,1,65.9999979858399,10|2,0:0|0:0,0:0:0:0:
215,105,55131,5,6,1:2:0:0:
215,105,55457,2,0,P|242:87|276:83,1,65.9999979858399,8|0,0:0|3:0,0:0:0:0:
348,111,55783,2,0,P|409:129|468:103,1,131.99999597168,2|10,3:2|0:0,0:0:0:0:
404,33,56272,1,2,0:0:0:0:
274,170,56435,2,0,L|282:235,1,65.9999979858399,0|0,3:0|3:0,0:0:0:0:
438,368,56761,2,0,L|430:303,1,65.9999979858399,10|2,0:0|3:0,0:0:0:0:
486,228,57006,1,0,3:0:0:0:
486,228,57087,2,0,P|453:213|414:212,1,65.9999979858399,0|2,3:0|3:0,0:0:0:0:
332,315,57413,2,0,P|299:330|260:331,1,65.9999979858399,14|8,0:0|0:0,0:0:0:0:
204,284,57658,1,8,0:0:0:0:
204,284,57739,6,0,L|184:123,1,153.999995300293,6|10,1:2|0:0,0:0:0:0:
112,92,58229,1,2,3:3:0:0:
112,92,58310,1,0,3:0:0:0:
112,92,58392,1,0,3:0:0:0:
182,34,58555,2,0,P|222:51|262:46,1,76.9999976501466,2|10,3:0|0:0,0:0:0:0:
483,75,58881,2,0,P|444:73|410:89,1,76.9999976501466,2|0,3:0|3:0,0:0:0:0:
320,181,59207,2,0,L|339:20,1,153.999995300293,2|2,3:0|0:3,0:0:0:0:
466,157,59696,2,0,L|456:238,2,76.9999976501466,0|2|8,3:0|3:0|0:0,0:0:0:0:
450,347,60185,1,2,3:2:0:0:
450,347,60267,1,0,3:0:0:0:
450,347,60348,6,0,P|385:308|310:317,2,153.999995300293,6|8|0,1:2|0:0|3:0,0:0:0:0:
233,283,61163,2,0,P|198:298|145:297,1,76.9999976501466,2|10,3:0|0:0,0:0:0:0:
103,247,61489,2,0,L|112:165,1,76.9999976501466,2|0,0:3|3:0,0:0:0:0:
331,69,61816,2,0,L|321:145,1,76.9999976501466,2|8,3:0|0:0,0:0:0:0:
233,283,62142,2,0,L|214:130,1,153.999995300293,2|2,0:3|3:0,0:0:0:0:
157,354,62631,1,8,0:0:0:0:
68,288,62794,1,8,3:0:0:0:
68,288,62875,1,8,3:0:0:0:
68,288,62957,6,0,P|125:242|214:259,2,153.999995300293,6|8|0,1:2|0:0|3:0,0:0:0:0:
157,354,63772,1,2,3:0:0:0:
233,283,63935,2,0,L|223:207,1,76.9999976501466,8|0,0:0|0:0,0:0:0:0:
29,115,64261,2,0,P|86:161|175:144,2,153.999995300293,0|8|0,3:0|0:0|3:0,0:0:0:0:
118,49,65076,1,2,3:0:0:0:
233,283,65239,1,10,0:0:0:0:
303,167,65402,1,8,0:0:0:0:
303,167,65484,1,8,0:0:0:0:
303,167,65566,1,6,1:2:0:0:
302,167,65892,6,0,P|341:167|376:182,1,76.9999976501466,10|2,0:0|3:0,0:0:0:0:
438,256,66136,1,0,3:0:0:0:
438,256,66218,2,0,P|476:255|512:240,1,76.9999976501466,2|2,3:0|3:0,0:0:0:0:
421,111,66544,1,8,0:0:0:0:
322,255,66707,2,0,L|331:331,1,76.9999976501466,2|0,0:3|3:0,0:0:0:0:
339,359,66951,1,8,0:0:0:0:
339,359,67033,1,0,3:0:0:0:
439,257,67196,2,0,L|424:142,1,115.49999647522,14|0,0:0|0:0,0:0:0:0:
360,78,67522,5,0,3:0:0:0:
349,102,67604,1,8,0:0:0:0:
329,119,67685,1,2,3:0:0:0:
302,126,67767,1,0,3:0:0:0:
275,129,67848,2,0,L|215:121,1,38.4999988250733,8|0,0:0|3:0,0:0:0:0:
153,113,68011,1,8,0:0:0:0:
153,113,68093,1,8,0:0:0:0:
153,113,68174,1,4,1:2:0:0:
186,248,68500,6,0,B|175:275|175:275|186:308,1,60.5000018463135,10|0,0:0|3:0,0:0:0:0:
346,354,68826,2,0,B|355:324|355:324|344:297,1,60.5000018463135,10|0,0:0|3:0,0:0:0:0:
267,284,69152,1,0,3:0:0:0:
267,284,69316,2,0,L|392:268,1,121.000003692627,10|2,0:0|3:2,0:0:0:0:
481,257,69805,1,8,0:0:0:0:
481,257,70131,2,0,B|492:230|492:230|482:200,1,60.5000018463135,0|8,3:0|0:0,0:0:0:0:
347,131,70457,2,0,B|337:160|337:160|348:187,1,60.5000018463135,0|0,3:0|0:0,0:0:0:0:
387,268,70783,1,6,1:2:0:0:
445,86,71109,5,10,0:0:0:0:
347,131,71435,1,10,0:0:0:0:
347,131,71598,2,0,L|286:123,1,60.5000018463135,2|0,3:2|3:0,0:0:0:0:
210,159,71924,2,0,L|67:141,1,121.000003692627,10|2,0:2|0:0,0:0:0:0:
5,132,72413,1,8,0:0:0:0:
52,283,72739,2,0,L|112:275,1,60.5000018463135,0|8,3:0|0:0,0:0:0:0:
316,255,73066,1,10,3:2:0:0:
287,251,73147,1,0,3:0:0:0:
260,247,73229,1,2,3:2:0:0:
232,244,73310,1,0,3:0:0:0:
205,241,73392,1,4,1:2:0:0:
453,378,73718,6,0,B|477:343|477:343|464:245,1,121.000003692627,10|10,0:0|0:0,0:0:0:0:
386,190,74207,2,0,L|393:129,1,60.5000018463135,2|0,3:2|3:0,0:0:0:0:
493,61,74533,2,0,L|475:203,1,121.000003692627,10|2,0:0|3:2,0:0:0:0:
467,266,75022,1,8,0:0:0:0:
386,190,75185,2,0,L|401:69,1,121.000003692627,2|8,0:0|0:0,0:0:0:0:
493,61,75674,2,0,L|485:121,1,60.5000018463135,2|2,3:2|0:0,0:0:0:0:
467,266,76000,1,6,1:2:0:0:
333,38,76326,6,0,P|293:39|248:62,1,76.9999976501466,14|0,0:0|3:0,0:0:0:0:
180,115,76570,1,0,3:0:0:0:
180,115,76652,2,0,P|142:114|107:99,1,76.9999976501466,14|2,0:0|3:2,0:0:0:0:
164,10,76979,1,2,3:2:0:0:
256,192,77142,1,10,0:0:0:0:
17,183,77305,5,8,3:0:0:0:
80,315,77468,1,8,3:0:0:0:
148,238,77631,2,0,L|95:231,2,38.4999988250733,6|2|6,3:0|3:0|3:0,3:0:0:0:
278,378,77957,5,8,0:0:0:0:
276,359,78039,1,8,0:0:0:0:
274,340,78120,1,8,0:0:0:0:
270,322,78202,1,8,0:0:0:0:
268,297,78283,1,8,0:0:0:0:
265,271,78365,1,8,0:0:0:0:
262,245,78446,1,8,0:0:0:0:
258,219,78528,1,8,0:0:0:0:
255,191,78609,5,6,3:1:0:0:
339,67,78772,1,2,3:0:0:0:
465,215,78935,2,0,P|426:235|382:240,1,88,10|0,1:2|0:0,0:0:0:0:
95,125,79261,2,0,P|133:104|177:99,1,88,2|0,3:0|3:0,0:0:0:0:
255,191,79587,1,10,0:0:0:0:
186,292,79750,1,2,3:0:0:0:
164,289,79831,1,0,3:0:0:0:
142,286,79913,6,0,L|54:275,1,88,2|2,3:1|0:3,0:0:0:0:
255,191,80239,2,0,L|381:206,1,88,8|0,1:2|3:0,0:0:0:0:
150,372,80566,2,0,P|139:318|146:270,1,88,2|0,3:0|3:0,0:0:0:0:
246,105,80892,2,0,P|257:148|255:192,1,88,10|0,1:2|3:0,0:0:0:0:
118,100,81218,6,0,L|299:77,1,176,6|10,1:0|1:2,0:0:0:0:
430,214,81707,2,0,L|338:201,2,88,2|0|0,3:0|3:0|3:0,0:0:0:0:
271,286,82196,1,10,1:2:0:0:
381,348,82359,1,2,3:0:0:0:
403,345,82440,1,0,3:0:0:0:
425,342,82522,6,0,L|512:331,1,88,2|2,1:0|3:0,0:0:0:0:
419,199,82848,1,10,1:2:0:0:
493,142,83011,2,0,P|514:183|505:231,1,88,2|0,0:3|3:0,0:0:0:0:
329,223,83337,2,0,P|324:179|344:141,1,88,2|8,3:3|1:2,0:0:0:0:
419,199,83663,1,2,3:0:0:0:
271,286,83826,6,0,L|81:262,1,176,6|8,1:0|1:2,0:0:0:0:
0,251,84316,1,0,3:0:0:0:
155,104,84479,2,0,P|173:143|174:187,1,88,2|0,3:0|3:0,0:0:0:0:
19,334,84805,2,0,P|0:294|0:250,1,88,10|2,1:2|3:0,0:0:0:0:
271,286,85131,2,0,L|96:263,1,176,2|8,1:0|1:2,0:0:0:0:
300,178,85620,1,0,3:0:0:0:
365,274,85783,2,0,P|364:317|345:357,1,88,2|0,3:0|3:0,0:0:0:0:
173,310,86109,2,0,P|173:266|192:226,1,88,10|0,1:2|3:0,0:0:0:0:
269,95,86435,6,0,B|314:74|358:96|342:107|391:138|436:113,1,176,6|8,1:0|1:2,0:0:0:0:
407,27,86924,1,2,3:0:0:0:
300,178,87087,2,0,L|312:276,1,88,0|0,3:0|3:0,0:0:0:0:
135,87,87413,2,0,L|145:0,1,88,8|0,1:2|3:0,0:0:0:0:
0,151,87739,2,0,B|44:127|93:158|77:169|120:190|166:170,1,176,2|8,1:0|1:2,0:0:0:0:
135,87,88229,1,0,3:0:0:0:
32,232,88392,1,10,1:2:0:0:
34,253,88473,1,0,3:0:0:0:
37,275,88555,1,0,3:0:0:0:
40,297,88636,1,0,3:0:0:0:
42,319,88718,2,0,L|47:362,1,44,8|8,3:0|3:0,0:0:0:0:
172,213,88881,2,0,L|166:169,1,44,4|4,3:0|3:0,0:0:0:0:
113,279,89044,6,0,P|153:300|199:298,1,93.500001783371,6|0,1:0|3:0,0:0:0:0:
438,251,89370,2,0,P|397:229|352:231,1,93.500001783371,10|0,1:2|3:0,0:0:0:0:
289,384,89696,2,0,L|266:198,1,187.000003566742,10|10,1:2|0:0,0:0:0:0:
506,87,90185,1,2,3:0:0:0:
506,87,90266,1,0,3:0:0:0:
506,87,90348,2,0,L|494:179,1,93.500001783371,6|0,1:0|3:0,0:0:0:0:
438,251,90674,2,0,P|397:229|352:231,1,93.500001783371,8|0,1:2|3:0,0:0:0:0:
205,265,91000,2,8,P|242:240|264:199,1,93.500001783371,10|0,1:2|3:2,1:2:0:0:
311,56,91326,2,0,P|312:102|336:140,1,93.500001783371,10|0,1:2|3:0,0:0:0:0:
288,383,91652,6,0,L|264:197,1,187.000003566742,6|8,1:0|1:2,0:0:0:0:
59,148,92142,1,2,3:0:0:0:
56,170,92223,1,0,3:0:0:0:
53,192,92305,2,0,L|41:287,1,93.500001783371,8|2,1:2|3:0,0:0:0:0:
337,140,92631,2,0,L|325:46,1,93.500001783371,10|0,1:2|3:0,0:0:0:0:
174,234,92957,6,0,P|241:294|329:272,1,187.000003566742,6|8,1:0|1:2,0:0:0:0:
426,339,93446,1,2,3:0:0:0:
423,317,93527,1,0,3:0:0:0:
420,295,93609,2,0,L|408:202,1,93.500001783371,8|2,1:2|3:0,0:0:0:0:
253,104,93935,2,0,L|264:197,1,93.500001783371,10|0,1:2|3:0,0:0:0:0:
325,47,94261,1,6,1:0:0:0:
42,287,94587,5,8,1:2:0:0:
73,133,94750,1,0,3:0:0:0:
186,375,94913,5,8,1:2:0:0:
154,222,95076,1,0,3:0:0:0:
261,295,95239,5,8,1:2:0:0:
292,141,95402,1,0,3:0:0:0:
404,367,95565,5,6,1:0:0:0:
374,230,95728,1,0,3:0:0:0:
483,323,95892,6,0,P|448:355|395:367,1,93.500001783371,10|0,1:2|3:0,0:0:0:0:
402,99,96218,2,0,P|447:113|484:153,1,93.500001783371,10|0,1:2|3:0,0:0:0:0:
243,280,96544,2,0,P|232:233|248:181,1,93.500001783371,10|0,1:2|3:0,0:0:0:0:
374,230,96870,1,6,1:0:0:0:
374,230,97196,5,8,1:2:0:0:
342,383,97359,1,0,3:0:0:0:
230,141,97522,5,8,1:2:0:0:
261,294,97685,1,0,3:0:0:0:
154,221,97848,5,8,1:2:0:0:
123,375,98011,1,0,3:0:0:0:
10,132,98174,5,6,1:0:0:0:
41,286,98337,1,0,3:0:0:0:
41,286,98419,1,8,0:0:0:0:
41,286,98500,2,0,L|137:297,1,88,12|2,1:2|3:0,0:0:0:0:
324,164,98826,5,12,1:2:0:0:
302,166,98907,1,0,3:0:0:0:
281,169,98989,1,8,3:0:0:0:
259,172,99071,1,8,3:0:0:0:
237,174,99152,2,0,L|193:179,1,44,6|4,3:0|3:0,0:0:0:0:
256,360,99316,2,0,L|299:354,1,44,8|8,0:0|0:0,0:0:0:0:
10,132,99642,5,0,3:0:0:0:
41,286,99805,2,0,L|137:297,1,88,8|8,3:0|3:3,0:0:0:0:
237,174,100131,6,0,L|193:179,2,44,8|8|8,0:2|0:2|0:2,0:2:0:0:
161,327,100457,1,8,0:2:0:0:
