osu file format v14

[General]
AudioFilename: audio.mp3
AudioLeadIn: 0
PreviewTime: 23174
Countdown: 0
SampleSet: Soft
StackLeniency: 0.5
Mode: 0
LetterboxInBreaks: 0
WidescreenStoryboard: 1

[Editor]
Bookmarks: 1653,23826,34261,44696,47305,57739,68174,78609,99316
DistanceSpacing: 1.5
BeatDivisor: 4
GridSize: 8
TimelineZoom: 1.4

[Metadata]
Title:u/n (Cut Ver.)
TitleUnicode:u/n (Cut Ver.)
Artist:Kawada Mami
ArtistUnicode:川田まみ
Creator:Kerupt
Version:Hard
Source:灼眼のシャナⅢ-FINAL-
Tags:Serment Japanese Anime Shakugan no Shana 3 three
BeatmapID:2777062
BeatmapSetID:1340027

[Difficulty]
HPDrainRate:5
CircleSize:3.7
OverallDifficulty:6
ApproachRate:8
SliderMultiplier:1.2
SliderTickRate:1

[Events]
//Background and Video events
0,0,"bg2.png",0,0
//Break Periods
2,44896,46555
//Storyboard Layer 0 (Background)
//Storyboard Layer 1 (Fail)
//Storyboard Layer 2 (Pass)
//Storyboard Layer 3 (Foreground)
//Storyboard Layer 4 (Overlay)
//Storyboard Sound Samples

[TimingPoints]
1653,326.086956521739,4,2,1,55,1,0
1653,-125,4,2,1,55,0,0
23826,-100,4,2,1,60,0,0
33935,-100,4,2,1,60,0,0
34261,-83.3333333333333,4,2,1,70,0,0
44696,-100,4,2,1,60,0,0
47305,-100,4,2,1,60,0,0
57739,-83.3333333333333,4,2,1,70,0,0
68174,-100,4,2,1,60,0,0
76326,-100,4,2,1,60,0,0
77957,-100,4,2,1,70,0,0
78609,-83.3333333333333,4,2,1,80,0,1
88392,-83.3333333333333,4,2,1,70,0,0
89044,-83.3333333333333,4,2,1,80,0,1
99316,-100,4,2,1,80,0,0
100131,-100,4,2,1,50,0,0

[Colours]
Combo1 : 188,158,237
Combo2 : 255,70,74
Combo3 : 163,189,250
Combo4 : 248,235,165

[HitObjects]
78,279,1653,5,0,0:0:0:0:
78,279,1979,2,0,B|122:257|178:282|156:300|203:326|258:307,1,192,2|0,0:0|0:0,0:0:0:0:
303,289,2794,2,0,L|322:131,1,144,2|0,0:0|0:0,0:0:0:0:
237,132,3609,2,0,L|225:227,1,96,2|2,0:0|0:0,0:0:0:0:
303,289,4261,1,2,0:0:0:0:
379,231,4587,6,0,P|411:216|481:230,1,96,2|0,0:0|0:0,0:0:0:0:
432,307,5239,2,0,L|437:354,1,48,2|2,0:0|0:0,0:0:0:0:
303,289,5892,2,0,L|315:384,2,96,2|2|2,0:0|0:0|0:0,0:0:0:0:
373,238,6870,6,0,P|331:204|243:217,1,144,2|0,0:0|0:0,0:0:0:0:
211,240,7522,2,0,P|166:256|120:247,1,96,2|2,0:0|0:0,0:0:0:0:
81,228,8011,2,0,L|100:70,1,144,2|0,0:0|0:0,0:0:0:0:
12,93,8826,2,0,L|0:188,1,96,2|2,0:0|0:0,0:0:0:0:
81,228,9479,6,0,B|125:206|181:231|159:249|206:275|261:256,1,192,2|2,0:0|0:0,0:0:0:0:
228,175,10457,2,0,L|233:127,2,48,2|2|0,0:0|0:0|0:0,0:0:0:0:
261,255,11109,2,0,P|308:249|351:268,2,96,2|2|0,0:0|0:0|0:0,0:0:0:0:
181,289,12087,5,0,0:0:0:0:
247,345,12413,2,0,P|265:301|260:254,1,96,2|2,0:0|0:0,0:0:0:0:
244,213,12902,2,0,P|238:165|257:122,1,96,2|2,0:0|0:0,0:0:0:0:
334,180,13555,2,0,L|143:156,1,192,2|0,0:0|0:0,0:0:0:0:
71,93,14533,6,0,P|42:158|70:222,1,144,2|2,0:0|0:0,0:0:0:0:
143,156,15348,2,0,L|211:164,1,48,2|2,0:0|0:0,0:0:0:0:
264,100,15837,2,0,L|378:114,2,96,2|2|2,0:0|0:0|0:0,0:0:0:0:
306,237,16979,1,2,0:0:0:0:
400,221,17305,1,2,0:0:0:0:
462,280,17631,2,0,P|421:307|373:302,1,96,2|0,0:0|0:0,0:0:0:0:
338,282,18120,2,0,P|290:278|251:305,1,96,2|0,0:0|0:0,0:0:0:0:
225,339,18609,2,0,P|177:342|138:315,1,96,2|0,0:0|0:0,0:0:0:0:
110,283,19098,2,0,P|69:256|21:261,1,96,2|0,0:0|0:0,0:0:0:0:
3,289,19587,6,0,L|14:384,1,96,2|0,0:0|0:0,0:0:0:0:
96,357,20239,2,0,L|84:261,1,96,2|2,0:0|0:0,0:0:0:0:
79,223,20729,1,2,0:0:0:0:
7,160,21055,6,0,P|49:134|153:162,1,144,2|2,0:0|0:0,0:0:0:0:
176,177,21707,2,0,P|212:192|270:178,1,96,2|2,0:0|0:0,0:0:0:0:
300,163,22196,1,0,0:0:0:0:
423,201,23826,5,4,3:2:0:0:
409,321,24152,2,0,L|425:189,1,120,10|0,0:0|3:0,0:0:0:0:
437,115,24642,1,0,3:0:0:0:
437,115,24805,2,0,P|465:122|487:141,1,60,10|2,0:0|0:0,0:0:0:0:
423,201,25131,2,0,P|371:220|311:202,1,120,0|8,3:2|0:0,0:0:0:0:
181,106,25783,6,0,L|172:171,1,60,2|0,3:2|3:0,0:0:0:0:
90,125,26109,2,0,L|83:184,1,60,10|0,0:0|0:0,0:0:0:0:
23,62,26435,5,2,3:2:0:0:
23,62,26598,2,0,P|77:34|137:46,1,120,2|2,0:0|0:0,0:0:0:0:
181,106,27087,2,0,L|173:165,1,60,0|0,3:0|3:0,0:0:0:0:
163,248,27413,1,10,0:0:0:0:
370,240,27739,6,0,P|311:230|259:258,1,120,0|10,3:0|0:0,0:0:0:0:
317,384,28392,2,0,L|325:325,1,60,2|0,3:2|3:0,0:0:0:0:
370,240,28718,2,0,L|359:150,1,90,10|0,2:2|0:0,0:0:0:0:
355,125,29044,5,6,3:2:0:0:
512,48,29370,2,0,P|479:69|392:53,1,120,8|2,0:0|3:2,0:0:0:0:
339,0,29859,1,0,3:0:0:0:
278,58,30022,2,0,P|245:37|158:53,2,120,10|0|8,0:0|3:0|0:0,0:0:0:0:
206,183,31000,6,0,L|215:124,1,60,2|0,3:2|0:0,0:0:0:0:
123,202,31326,2,0,L|131:142,1,60,10|0,0:2|0:0,0:0:0:0:
44,250,31652,6,0,P|88:288|147:290,2,120,2|8|2,3:2|0:0|3:2,0:0:0:0:
206,183,32631,1,10,0:0:0:0:
282,230,32794,2,0,P|326:192|385:190,1,120,2|0,0:2|3:0,0:0:0:0:
454,237,33283,6,0,L|446:296,2,60,10|0|10,0:0|3:0|0:0,0:0:0:0:
512,183,33772,1,8,3:0:0:0:
410,124,33935,6,0,L|404:171,2,30,10|8|6,3:0|3:0|3:0,0:0:0:0:
421,23,34261,1,6,1:2:0:0:
267,52,34587,6,0,B|234:35|192:54|208:67|173:87|132:72,1,143.999995605469,10|0,0:2|3:0,0:0:0:0:
51,40,35076,1,0,0:0:0:0:
0,110,35239,2,0,L|8:181,1,71.9999978027344,10|2,0:0|0:0,0:0:0:0:
86,142,35566,2,0,L|68:0,1,143.999995605469,0|10,3:0|0:0,0:0:0:0:
168,202,36218,6,0,P|196:184|235:183,1,71.9999978027344,2|0,3:2|0:0,0:0:0:0:
303,234,36544,2,0,P|331:251|370:252,1,71.9999978027344,10|0,0:2|0:0,0:0:0:0:
454,242,36870,6,0,L|436:384,2,143.999995605469,2|8|2,3:2|0:0|3:2,0:0:0:0:
402,112,37848,1,8,0:0:0:0:
402,112,38011,2,0,P|359:151|266:127,1,143.999995605469,2|0,0:0|3:0,0:0:0:0:
214,89,38500,1,8,0:0:0:0:
157,221,38826,2,0,L|146:138,2,71.9999978027344,0|0|8,3:0|3:0|0:0,0:0:0:0:
214,89,39479,1,6,1:2:0:0:
214,89,39805,6,0,L|223:17,1,71.9999978027344,10|0,0:0|0:0,0:0:0:0:
275,156,40131,1,2,3:2:0:0:
275,156,40294,2,0,P|220:181|139:137,2,143.999995605469,2|2|2,3:2|0:0|3:2,0:0:0:0:
333,102,41109,1,10,0:0:0:0:
385,161,41272,2,0,P|440:136|521:180,1,143.999995605469,2|2,3:2|0:0,0:0:0:0:
446,223,41761,2,0,L|455:300,2,71.9999978027344,8|2|0,0:0|0:0|3:0,0:0:0:0:
368,344,42413,6,0,B|335:327|293:346|309:359|274:379|233:364,1,143.999995605469,10|2,0:2|3:2,0:0:0:0:
171,302,42902,2,0,P|130:294|94:301,1,71.9999978027344,2|8,3:2|0:0,0:0:0:0:
16,321,43229,2,0,L|35:161,1,143.999995605469,2|0,0:0|3:0,0:0:0:0:
88,111,43718,1,10,0:0:0:0:
145,175,43881,2,0,P|186:183|289:144,1,143.999995605469,2|2,3:2|3:2,0:0:0:0:
405,205,44370,2,0,P|369:203|335:214,2,71.9999978027344,8|8|0,0:2|3:0|3:0,0:0:0:0:
144,233,47305,5,4,3:2:0:0:
105,313,47631,2,0,P|52:235|89:162,1,180,10|0,0:0|3:0,0:0:0:0:
144,232,48283,2,0,L|212:225,1,60,10|2,0:0|0:0,0:0:0:0:
258,297,48609,2,0,L|387:282,1,120,0|8,3:0|0:0,0:0:0:0:
441,80,49261,6,0,L|376:89,1,60,2|0,3:2|3:0,0:0:0:0:
422,171,49587,2,0,L|363:179,1,60,10|0,0:0|0:0,0:0:0:0:
485,238,49913,5,2,3:2:0:0:
485,238,50076,2,0,P|513:184|501:124,1,120,2|2,0:0|0:0,0:0:0:0:
441,80,50565,2,0,L|382:88,2,60,0|0|10,3:0|3:0|0:0,0:0:0:0:
421,170,51055,2,0,L|302:184,1,120,2|0,0:0|0:0,0:0:0:0:
212,178,51544,6,0,P|217:148|232:122,1,60,10|0,0:0|0:0,0:0:0:0:
166,247,51870,2,0,P|143:227|128:201,1,60,2|0,3:2|0:0,0:0:0:0:
202,321,52196,2,0,P|173:330|143:331,1,60,10|0,0:2|0:0,0:0:0:0:
255,254,52522,6,0,B|301:230|360:256|337:275|386:303|444:282,1,180,6|0,3:2|0:2,0:0:0:0:
502,257,53174,2,0,L|494:198,2,60,2|0|10,3:2|3:0|0:0,0:0:0:0:
423,287,53663,2,0,L|408:167,1,120,2|0,0:0|3:0,0:0:0:0:
435,88,54152,1,8,0:0:0:0:
297,19,54479,6,0,L|356:10,1,60,2|0,3:2|0:0,0:0:0:0:
278,102,54805,2,0,L|338:94,1,60,10|0,0:2|0:0,0:0:0:0:
230,181,55131,6,0,P|192:137|190:78,2,120,2|8|2,3:2|0:0|3:2,0:0:0:0:
397,87,56110,1,10,0:0:0:0:
397,87,56272,2,0,L|258:104,1,120,2|8,3:2|0:0,0:0:0:0:
190,77,56761,5,10,0:0:0:0:
121,243,57087,2,0,L|186:251,2,60,2|0|8,3:2|3:0|0:0,0:0:0:0:
40,233,57576,1,8,0:0:0:0:
40,233,57658,1,8,0:0:0:0:
40,233,57739,1,6,1:2:0:0:
258,204,58066,6,0,P|270:238|270:274,1,71.9999978027344,10|0,0:0|0:0,0:0:0:0:
192,319,58392,2,0,P|180:285|179:249,2,71.9999978027344,2|2|8,3:2|3:2|0:0,0:0:0:0:
267,364,58881,1,2,0:0:0:0:
267,364,59207,2,0,P|311:341|431:352,1,143.999995605469,2|0,3:2|0:0,0:0:0:0:
475,291,59696,2,0,P|403:295|338:267,1,143.999995605469,0|8,3:2|0:0,0:0:0:0:
285,199,60185,6,0,L|302:56,1,143.999995605469,2|0,0:2|3:0,0:0:0:0:
387,43,60674,2,0,L|377:124,1,71.9999978027344,10|0,0:0|0:0,0:0:0:0:
454,163,61000,2,0,L|462:91,2,71.9999978027344,2|2|8,3:2|0:0|0:0,0:0:0:0:
508,241,61489,2,0,P|457:260|378:217,1,143.999995605469,2|2,0:0|3:2,0:0:0:0:
325,155,61979,1,8,0:0:0:0:
273,224,62142,2,0,P|222:205|143:248,1,143.999995605469,2|2,0:0|3:2,0:0:0:0:
140,329,62631,5,10,0:0:0:0:
220,297,62794,1,8,3:0:0:0:
207,382,62957,1,6,1:2:0:0:
146,243,63283,6,0,L|172:25,1,215.999993408203,10|0,0:0|3:0,0:0:0:0:
253,57,63935,2,0,L|244:128,1,71.9999978027344,8|0,0:0|3:0,0:0:0:0:
232,214,64261,1,0,3:0:0:0:
366,322,64587,2,0,P|295:320|236:360,1,143.999995605469,8|0,0:0|3:0,0:0:0:0:
156,329,65076,5,0,3:0:0:0:
146,243,65239,1,10,0:0:0:0:
61,254,65402,1,8,0:2:0:0:
70,340,65566,1,4,3:2:0:0:
236,360,65892,6,0,P|295:320|366:322,1,143.999995605469,10|2,0:0|3:2,0:0:0:0:
435,374,66381,2,0,P|451:338|443:286,1,71.9999978027344,2|8,3:2|0:0,0:0:0:0:
395,239,66707,2,0,P|371:171|394:101,1,143.999995605469,2|0,0:0|3:0,0:0:0:0:
467,63,67196,1,10,0:0:0:0:
401,6,67359,2,0,L|329:14,2,71.9999978027344,2|0|10,3:2|3:0|3:0,0:0:0:0:
391,104,67848,1,8,0:0:0:0:
391,104,67930,1,0,3:0:0:0:
391,104,68011,1,8,0:0:0:0:
271,114,68174,6,0,B|238:85|238:85|158:96,1,120,4|10,1:2|0:0,0:0:0:0:
95,196,68826,1,10,0:0:0:0:
95,196,68989,2,0,L|102:255,1,60,0|0,3:0|3:0,3:0:0:0:
177,214,69316,2,0,L|162:94,1,120,10|0,0:0|3:0,0:0:0:0:
152,13,69805,1,8,0:0:0:0:
152,13,69968,2,0,B|185:42|185:42|265:31,1,120,0|10,3:2|0:0,0:0:0:0:
334,71,70457,2,0,L|393:64,1,60,0|0,3:0|3:0,3:0:0:0:
477,55,70783,1,4,1:2:0:0:
443,219,71109,6,0,L|384:212,1,60,10|2,0:0|3:2,3:0:0:0:
306,246,71435,1,8,0:0:0:0:
340,322,71598,2,0,L|399:315,1,60,2|2,3:2|3:2,3:0:0:0:
282,384,71924,2,0,L|155:368,1,120,10|2,0:0|3:2,3:0:0:0:
81,349,72413,1,8,0:0:0:0:
30,282,72576,2,0,B|63:253|63:253|143:264,1,120,0|10,3:2|0:0,0:0:0:0:
220,281,73066,2,0,L|223:310,2,30,10|8|8,0:0|0:0|0:0,0:0:0:0:
207,197,73392,1,4,1:2:0:0:
30,282,73718,6,0,L|44:162,1,120,10|10,0:0|0:2,3:0:0:0:
50,79,74207,1,2,3:2:0:0:
122,122,74370,1,2,3:2:0:0:
122,38,74533,2,0,B|155:9|155:9|235:20,1,120,10|0,0:2|3:2,0:0:0:0:
313,29,75022,1,10,0:0:0:0:
273,103,75185,2,0,B|306:132|306:132|386:121,1,120,2|8,3:2|0:2,0:0:0:0:
397,39,75674,2,0,L|456:32,1,60,2|2,3:2|3:2,3:0:0:0:
509,97,76000,1,4,1:2:0:0:
461,258,76326,6,0,P|410:226|351:223,1,120,10|10,0:2|0:2,3:2:0:0:
271,267,76816,1,2,3:2:0:0:
328,336,76979,1,2,3:2:0:0:
247,376,77142,6,0,P|217:377|188:368,2,60,10|8|8,0:0|3:0|3:0,0:0:0:0:
328,336,77631,2,0,P|357:327|387:329,1,60,4|4,3:0|3:0,0:0:0:0:
483,355,77957,1,8,0:0:0:0:
483,355,78038,1,8,0:0:0:0:
483,355,78120,2,8,L|485:316,1,30
492,287,78283,2,8,L|496:249,3,30,8|8|8|8,0:2|0:2|0:2|0:2,0:2:0:0:
502,216,78609,5,6,1:0:0:0:
460,132,78772,1,2,0:0:0:0:
377,175,78935,2,0,P|342:184|307:178,1,71.9999978027344,10|0,1:2|3:0,0:0:0:0:
258,98,79261,2,0,P|292:88|327:94,2,71.9999978027344,2|0|10,3:2|3:0|1:2,0:0:0:0:
208,177,79750,2,0,L|227:338,1,143.999995605469,2|0,3:2|3:0,0:0:0:0:
144,366,80239,2,0,L|135:294,1,71.9999978027344,8|0,1:2|3:0,0:0:0:0:
64,232,80566,6,0,P|92:210|127:202,1,71.9999978027344,2|0,3:2|3:2,0:2:0:0:
208,177,80892,2,0,P|236:198|271:206,1,71.9999978027344,10|0,1:2|3:2,0:2:0:0:
344,159,81218,6,0,L|325:11,1,143.999995605469,6|10,1:0|1:2,0:0:0:0:
241,0,81707,2,0,L|249:71,2,71.9999978027344,2|0|0,3:2|3:0|3:0,0:0:0:0:
157,67,82196,1,10,1:2:0:0:
86,0,82359,1,2,3:2:0:0:
86,0,82522,2,0,P|64:41|94:145,1,143.999995605469,6|10,1:0|1:2,0:0:0:0:
143,193,83011,2,0,P|165:234|135:338,1,143.999995605469,2|2,3:2|3:2,0:0:0:0:
80,381,83500,1,8,1:2:0:0:
12,327,83663,1,2,3:2:0:0:
69,261,83826,2,0,L|238:282,1,143.999995605469,6|8,1:0|1:2,0:0:0:0:
431,307,84479,6,0,L|351:316,1,71.9999978027344,2|0,3:2|3:0,0:0:0:0:
288,384,84805,1,10,1:2:0:0:
288,384,84968,2,0,P|266:343|296:239,1,143.999995605469,2|0,3:2|3:0,0:0:0:0:
359,315,85457,1,8,1:2:0:0:
461,175,85783,6,0,P|426:164|391:168,1,71.9999978027344,2|0,3:2|3:2,0:2:0:0:
313,207,86109,2,0,P|277:210|243:200,1,71.9999978027344,10|0,1:2|3:2,0:2:0:0:
165,162,86435,6,0,L|186:-7,2,143.999995605469,6|8|0,1:0|1:2|3:2,0:0:0:0:
83,178,87250,1,0,3:0:0:0:
83,178,87413,2,0,L|91:106,1,71.9999978027344,8|2,1:2|3:2,0:0:0:0:
11,53,87739,6,0,P|69:15|139:24,1,143.999995605469,6|10,1:0|1:2,0:0:0:0:
223,61,88229,2,0,P|268:64|309:41,1,71.9999978027344,2|8,3:2|1:2,0:0:0:0:
359,0,88555,1,8,3:0:0:0:
430,71,88718,2,0,L|434:35,2,35.9999989013672,8|8|4,3:0|3:0|3:0,0:0:0:0:
357,140,89044,6,0,L|366:217,1,71.9999978027344,6|2,1:0|3:2,0:0:0:0:
358,306,89370,1,10,1:2:0:0:
358,306,89533,1,2,3:2:0:0:
263,275,89696,2,0,L|271:203,2,71.9999978027344,10|0|10,1:2|3:2|1:2,0:0:0:0:
237,367,90185,2,0,P|191:333|95:339,1,143.999995605469,2|0,3:2|3:2,0:0:0:0:
28,368,90674,1,8,1:2:0:0:
28,368,90837,1,0,3:2:0:0:
5,284,91000,6,0,L|13:212,1,71.9999978027344,10|2,1:2|3:2,0:0:0:0:
101,162,91326,2,0,L|92:233,1,71.9999978027344,10|0,1:2|3:2,0:0:0:0:
19,118,91652,6,0,P|48:85|152:84,1,143.999995605469,6|8,1:0|1:2,0:0:0:0:
212,130,92142,2,0,P|250:146|288:140,2,71.9999978027344,2|8|0,3:2|1:2|3:0,0:0:0:0:
258,56,92631,2,0,P|293:53|325:69,1,71.9999978027344,10|0,1:2|3:2,0:0:0:0:
371,142,92957,6,0,L|391:-24,1,143.999995605469,6|8,1:0|1:2,0:0:0:0:
469,30,93446,2,0,L|460:101,1,71.9999978027344,2|8,3:2|1:2,0:0:0:0:
449,187,93772,1,0,3:0:0:0:
437,267,93935,2,0,L|428:338,1,71.9999978027344,10|0,1:2|3:2,0:0:0:0:
352,384,94261,6,0,P|320:345|211:347,1,143.999995605469,6|8,1:0|1:2,0:0:0:0:
163,384,94750,1,0,3:0:0:0:
89,308,94913,2,0,L|160:299,1,71.9999978027344,8|0,1:2|3:2,0:0:0:0:
202,207,95239,2,0,L|130:215,1,71.9999978027344,8|0,1:2|3:2,0:0:0:0:
67,135,95566,2,0,L|138:126,1,71.9999978027344,6|0,1:0|3:2,0:0:0:0:
187,38,95892,6,0,P|232:70|334:57,1,143.999995605469,10|10,1:2|1:2,0:0:0:0:
382,9,96381,1,0,3:0:0:0:
456,65,96544,2,0,P|465:101|458:150,1,71.9999978027344,10|0,1:2|3:2,0:0:0:0:
420,211,96870,6,0,L|277:193,1,143.999995605469,6|8,1:0|1:2,0:0:0:0:
243,298,97359,1,0,3:0:0:0:
243,298,97522,2,0,L|314:289,1,71.9999978027344,8|0,1:2|3:2,0:0:0:0:
277,193,97848,2,0,L|205:201,1,71.9999978027344,8|0,1:2|3:2,0:0:0:0:
148,275,98174,6,0,P|113:214|131:146,1,143.999995605469,6|12,1:0|1:2,0:0:0:0:
179,65,98663,1,10,3:0:0:0:
254,137,98826,1,8,0:0:0:0:
254,137,98908,1,8,0:0:0:0:
254,137,98989,1,8,0:0:0:0:
290,43,99152,2,0,L|361:52,1,71.9999978027344,6|10,3:0|0:0,0:0:0:0:
179,65,99642,5,0,3:0:0:0:
179,65,99805,2,0,L|107:55,1,60,8|8,3:3|3:3,0:0:0:0:
290,43,100294,5,8,0:2:0:0:
290,43,100457,1,8,0:2:0:0:
