osu file format v14

[General]
AudioFilename: audio.mp3
AudioLeadIn: 0
PreviewTime: 23174
Countdown: 0
SampleSet: Soft
StackLeniency: 0.5
Mode: 0
LetterboxInBreaks: 0
WidescreenStoryboard: 1

[Editor]
Bookmarks: 1653,23826,34261,44696,47305,57739,68174,78609,99316
DistanceSpacing: 1
BeatDivisor: 4
GridSize: 8
TimelineZoom: 1.8

[Metadata]
Title:u/n (Cut Ver.)
TitleUnicode:u/n (Cut Ver.)
Artist:Kawada Mami
ArtistUnicode:川田まみ
Creator:Kerupt
Version:Easy
Source:灼眼のシャナⅢ-FINAL-
Tags:Serment Japanese Anime Shakugan no Shana 3 three
BeatmapID:2776970
BeatmapSetID:1340027

[Difficulty]
HPDrainRate:2
CircleSize:2.5
OverallDifficulty:2
ApproachRate:4.5
SliderMultiplier:0.9
SliderTickRate:1

[Events]
//Background and Video events
0,0,"bg2.png",0,0
//Break Periods
2,44896,45865
//Storyboard Layer 0 (Background)
//Storyboard Layer 1 (Fail)
//Storyboard Layer 2 (Pass)
//Storyboard Layer 3 (Foreground)
//Storyboard Layer 4 (Overlay)
//Storyboard Sound Samples

[TimingPoints]
1653,326.086956521739,4,2,1,55,1,0
23826,-100,4,2,1,60,0,0
33935,-100,4,2,1,60,0,0
34261,-100,4,2,1,70,0,0
44696,-100,4,2,1,60,0,0
47305,-100,4,2,1,60,0,0
57739,-100,4,2,1,70,0,0
68174,-100,4,2,1,60,0,0
76326,-100,4,2,1,60,0,0
77957,-100,4,2,1,70,0,0
78609,-100,4,2,1,80,0,1
88392,-100,4,2,1,70,0,0
89044,-100,4,2,1,80,0,1
99316,-100,4,2,1,80,0,0
100131,-100,4,2,1,50,0,0

[Colours]
Combo1 : 188,158,237
Combo2 : 255,70,74
Combo3 : 163,189,250
Combo4 : 248,235,165

[HitObjects]
41,270,1653,5,0,0:0:0:0:
41,270,1979,2,0,P|107:236|221:253,1,180,2|2,0:0|0:0,0:0:0:0:
269,315,2957,2,0,P|305:329|364:327,1,90,0|0,0:0|0:0,0:0:0:0:
432,282,3609,2,0,L|420:186,1,90,2|2,0:0|0:0,0:0:0:0:
391,107,4261,6,0,P|446:103|506:156,2,135,2|2|2,0:0|0:0|0:0,0:0:0:0:
308,142,5566,2,0,P|263:143|221:127,1,90,0|2,0:0|0:0,0:0:0:0:
148,74,6218,2,0,P|103:72|61:88,1,90,2|2,0:0|0:0,0:0:0:0:
17,166,6870,6,0,L|39:348,2,180,2|2|0,0:0|0:0|0:0,0:0:0:0:
91,2,8826,2,0,L|101:91,1,90,2|2,0:0|0:0,0:0:0:0:
177,140,9479,6,0,P|215:106|353:115,2,180,2|2|0,0:0|0:0|0:0,0:0:0:0:
117,207,11109,2,0,P|76:188|31:185,2,90,2|2|0,0:0|0:0|0:0,0:0:0:0:
174,283,12087,5,0,0:0:0:0:
174,283,12413,2,0,L|447:249,1,270,2|0,0:0|0:0,0:0:0:0:
458,160,13718,2,0,L|349:173,2,90,0|0|0,0:0|0:0|0:0,0:0:0:0:
479,72,14696,5,0,0:0:0:0:
402,24,15022,2,0,P|363:41|255:24,1,135,2|2,0:0|0:0,0:0:0:0:
188,1,15837,2,0,P|170:51|181:101,1,90
227,159,16489,2,0,P|239:203|217:290,1,135,0|2,0:0|0:0,0:0:0:0:
160,353,17305,5,2,0:0:0:0:
160,353,17631,2,0,P|224:313|420:339,2,270,2|2|2,0:0|0:0|0:0,0:0:0:0:
32,225,20239,6,0,P|10:156|42:91,1,135,2|2,0:0|0:0,0:0:0:0:
121,118,21055,2,0,L|276:98,1,135,2|2,0:0|0:0,0:0:0:0:
296,94,21707,2,0,L|429:78,1,135,2|0,0:0|0:0,0:0:0:0:
431,78,23826,5,4,3:2:0:0:
476,156,24152,2,0,P|495:245|476:330,1,180,10|10,0:0|0:0,0:0:0:0:
392,297,25131,2,0,P|348:284|304:289,1,90,0|8,3:2|0:0,0:0:0:0:
230,341,25783,2,0,P|185:345|142:333,1,90,2|10,3:2|0:0,0:0:0:0:
72,275,26435,6,0,L|88:130,1,135,2|2,3:2|0:0,0:0:0:0:
220,114,27413,2,0,L|309:103,1,90,2|0,0:0|3:0,0:0:0:0:
401,89,28066,2,0,L|411:0,2,90,10|2|10,0:0|3:2|0:2,0:0:0:0:
459,157,29044,6,0,P|495:227|476:348,1,180,6|2,3:2|3:2,0:0:0:0:
403,358,30022,2,0,L|208:335,1,180,10|8,0:0|0:0,0:0:0:0:
181,257,31000,2,0,L|91:267,1,90,2|10,3:2|0:2,0:0:0:0:
36,196,31652,6,0,P|0:126|19:5,1,180,2|2,3:2|3:2,0:0:0:0:
95,7,32631,2,0,L|184:17,1,90,10|0,0:0|3:0,0:0:0:0:
237,90,33283,6,0,P|279:75|323:80,1,90,10|10,0:0|0:0,0:0:0:0:
384,147,33935,1,2,3:2:0:0:
373,236,34261,1,6,1:2:0:0:
319,306,34587,6,0,P|241:328|148:297,1,180,10|10,0:2|0:0,0:0:0:0:
82,237,35566,2,0,P|71:197|74:146,1,90,0|10,3:0|0:0,0:0:0:0:
160,172,36218,2,0,P|162:127|151:83,1,90,2|10,3:2|0:2,0:0:0:0:
80,27,36870,6,0,L|283:52,1,180,2|0,3:2|3:0,0:0:0:0:
347,63,37848,1,10,0:0:0:0:
420,114,38174,2,0,L|432:215,1,90,0|8,3:0|0:0,0:0:0:0:
505,254,38826,2,0,L|494:343,1,90,0|8,3:0|0:0,0:0:0:0:
411,380,39479,5,6,1:2:0:0:
347,316,39805,2,0,P|307:303|243:313,1,90,10|2,0:0|3:2,0:0:0:0:
180,349,40457,2,0,P|135:352|92:339,1,90,8|0,0:0|3:0,0:0:0:0:
28,276,41109,1,10,0:0:0:0:
89,209,41435,2,0,P|129:196|193:206,1,90,0|10,3:0|0:0,0:0:0:0:
232,270,42087,1,0,3:0:0:0:
308,222,42413,6,0,L|297:132,1,90,10|2,0:2|3:2,0:0:0:0:
345,56,43066,1,8,0:0:0:0:
423,100,43392,2,0,L|406:233,1,135,0|2,3:2|3:2,0:0:0:0:
386,367,44370,2,0,L|341:361,2,45,8|8|0,0:2|3:0|3:0,0:0:0:0:
386,367,47305,5,4,3:2:0:0:
309,310,47631,2,0,B|264:291|211:311|235:329|177:345|122:320,1,180,10|10,0:0|0:0,0:0:0:0:
79,254,48609,2,0,P|71:210|85:159,1,90,0|8,3:0|0:0,0:0:0:0:
117,84,49261,2,0,P|151:55|202:41,1,90,2|10,3:2|0:0,0:0:0:0:
268,92,49913,6,0,L|387:82,2,90,2|8|0,3:2|0:0|3:0,0:0:0:0:
268,182,50892,2,0,L|387:191,1,90,10|0,0:0|3:0,0:0:0:0:
360,278,51544,2,0,L|270:284,2,90,10|2|10,0:0|3:2|0:2,0:0:0:0:
449,268,52522,6,0,P|477:223|431:97,1,180,6|2,3:2|3:2,0:0:0:0:
355,111,53500,2,0,P|307:134|174:80,1,180,10|8,0:0|0:0,0:0:0:0:
130,33,54479,1,2,3:2:0:0:
45,63,54805,1,10,0:2:0:0:
90,145,55131,6,0,L|66:334,1,180,6|2,3:2|3:2,0:0:0:0:
153,353,56109,2,0,L|167:235,1,90,10|0,0:0|3:0,0:0:0:0:
237,212,56761,5,10,0:0:0:0:
295,280,57087,2,0,L|391:272,1,90,2|8,3:2|0:0,0:0:0:0:
473,261,57739,5,6,1:2:0:0:
493,173,58066,2,0,P|497:123|454:37,1,135,10|2,0:0|3:2,0:0:0:0:
384,90,58881,2,0,P|341:104|242:95,1,135,2|8,0:2|0:0,0:0:0:0:
190,33,59696,2,0,P|147:19|102:17,1,90,0|8,3:2|0:0,0:0:0:0:
19,50,60348,5,0,3:0:0:0:
29,139,60674,2,0,L|43:261,1,90,10|2,0:0|3:2,0:0:0:0:
51,271,61163,2,0,L|173:285,1,90,2|2,0:0|0:0,0:0:0:0:
203,217,61816,2,0,L|337:232,1,135,2|0,3:2|3:0,0:0:0:0:
393,306,62631,1,10,0:0:0:0:
477,276,62957,1,6,1:2:0:0:
474,183,63283,6,0,P|440:121|332:99,1,180,10|8,0:0|0:0,0:0:0:0:
280,165,64261,2,0,P|235:177|167:163,1,90,0|8,3:0|0:0,0:0:0:0:
154,91,64913,2,0,P|109:87|66:98,1,90,0|10,3:0|0:0,0:0:0:0:
1,161,65566,5,4,3:2:0:0:
39,242,65892,2,0,L|27:339,1,90,10|2,0:0|3:2,0:0:0:0:
102,382,66544,1,8,0:0:0:0:
177,333,66870,2,0,L|299:318,1,90,0|10,3:0|0:0,0:0:0:0:
307,339,67359,2,0,L|441:322,1,135,2|8,3:2|0:0,0:0:0:0:
501,256,68174,5,4,1:2:0:0:
418,221,68500,1,10,0:0:0:0:
478,154,68826,2,0,B|457:125|457:125|345:113,2,135,10|10|8,0:0|0:0|0:0,0:0:0:0:
418,221,70131,2,0,L|321:210,1,90,0|0,3:0|3:0,0:0:0:0:
239,196,70783,5,4,1:2:0:0:
266,281,71109,2,0,B|272:324|272:324|254:373,1,90,10|10,0:0|0:0,0:0:0:0:
121,382,71924,2,0,B|99:318|99:318|131:252,1,135,10|8,0:0|0:0,0:0:0:0:
178,182,72739,1,0,3:0:0:0:
240,246,73066,2,0,B|280:260|280:260|332:253,1,90,2|4,3:2|1:2,0:0:0:0:
415,236,73718,5,10,0:0:0:0:
458,157,74044,2,0,L|442:22,1,135,10|10,0:2|0:2,0:0:0:0:
320,81,75022,2,0,B|256:106|256:106|149:20,1,180,8|0,0:0|3:0,0:0:0:0:
90,78,76000,1,4,1:2:0:0:
39,152,76326,6,0,P|30:191|46:256,1,90,10|10,0:2|0:2,0:0:0:0:
127,226,76979,2,0,P|136:269|128:313,1,90,2|8,3:2|0:0,0:0:0:0:
205,360,77631,5,2,3:2:0:0:
293,342,77957,1,8,0:0:0:0:
381,324,78283,1,8,0:0:0:0:
466,293,78609,6,0,P|477:244|466:194,1,90,6|10,1:0|1:2,0:0:0:0:
433,123,79261,1,2,3:2:0:0:
353,79,79587,1,10,1:2:0:0:
272,119,79913,2,0,P|227:121|184:107,1,90,6|8,1:0|1:2,0:0:0:0:
108,52,80566,1,2,3:2:0:0:
43,114,80892,1,10,1:2:0:0:
53,203,81218,6,0,L|64:300,1,90,6|10,1:0|1:2,0:0:0:0:
71,336,81707,2,0,P|123:303|204:312,1,135,2|10,3:2|1:2,0:0:0:0:
282,324,82522,2,0,L|293:231,1,90,6|10,1:0|1:2,0:0:0:0:
300,190,83011,2,0,P|337:173|392:180,2,90,2|2|2,3:2|3:2|3:2,0:0:0:0:
264,218,83826,6,0,P|214:234|79:204,1,180,6|2,1:0|3:2,0:0:0:0:
40,137,84805,1,10,1:2:0:0:
86,59,85131,2,0,P|131:43|182:45,1,90,6|8,1:0|1:2,0:0:0:0:
237,105,85783,2,0,P|281:104|323:89,1,90,2|10,3:2|1:2,0:0:0:0:
408,58,86435,6,0,P|429:102|423:192,2,135,6|2|8,1:0|3:2|1:2,0:0:0:0:
322,30,87739,2,0,P|301:81|305:135,1,90,6|10,1:0|1:2,0:0:0:0:
300,205,88392,2,0,L|210:193,1,90,8|8,1:2|3:0,0:0:0:0:
121,181,89044,5,6,1:0:0:0:
76,259,89370,1,10,1:2:0:0:
121,336,89696,1,10,1:2:0:0:
208,315,90022,1,10,1:2:0:0:
290,350,90348,2,0,L|394:337,1,90,6|8,1:0|1:2,0:0:0:0:
391,249,91000,2,0,L|495:236,1,90,10|10,1:2|1:2,0:0:0:0:
470,148,91652,5,6,1:0:0:0:
443,61,91979,1,8,1:2:0:0:
358,30,92305,1,8,1:2:0:0:
281,78,92631,1,10,1:2:0:0:
262,166,92957,2,0,P|208:173|154:159,1,90,6|8,1:0|1:2,0:0:0:0:
94,124,93609,1,8,1:2:0:0:
31,188,93935,1,10,1:2:0:0:
69,269,94261,6,0,L|57:363,1,90,6|8,1:0|1:2,0:0:0:0:
147,361,94913,2,0,L|157:271,1,90,8|8,1:2|1:2,0:0:0:0:
248,273,95566,2,0,L|236:367,1,90,4|10,1:0|1:2,0:0:0:0:
326,365,96218,2,0,L|336:275,1,90,10|10,1:2|1:2,0:0:0:0:
370,192,96870,5,6,1:0:0:0:
357,102,97196,1,8,1:2:0:0:
292,39,97522,1,8,1:2:0:0:
202,50,97848,1,8,1:2:0:0:
137,112,98174,2,0,L|150:224,1,90,6|12,1:0|1:2,0:0:0:0:
154,245,98663,2,0,L|167:357,1,90,10|8,3:0|0:0,0:0:0:0:
171,378,99152,2,0,L|215:383,1,45,6|10,3:0|0:0,0:0:0:0:
326,305,99805,6,0,L|281:299,1,45,8|8,3:3|3:3,0:0:0:0:
268,210,100294,2,0,L|312:215,1,45,8|8,0:2|0:2,0:0:0:0:
