osu file format v14

[General]
AudioFilename: audio.mp3
AudioLeadIn: 0
PreviewTime: 55232
Countdown: 0
SampleSet: Soft
StackLeniency: 0.3
Mode: 0
LetterboxInBreaks: 0
WidescreenStoryboard: 1

[Editor]
Bookmarks: 29903,38526,44634,50023
DistanceSpacing: 0.9
BeatDivisor: 4
GridSize: 4
TimelineZoom: 2.5

[Metadata]
Title:masterpiece (TV Size)
TitleUnicode:masterpiece (TV Size)
Artist:Kawada Mami
ArtistUnicode:川田まみ
Creator:Pachiru
Version:Normal
Source:とある魔術の禁書目録
Tags:Toaru Majutsu no Kinsho Mokuroku A Certain Magical Index AirinCat Kalibe Linada -Arche Ataraxia Rock japanese anime j-pop jpop
BeatmapID:2114513
BeatmapSetID:849526

[Difficulty]
HPDrainRate:4
CircleSize:3
OverallDifficulty:4
ApproachRate:5.5
SliderMultiplier:1.2
SliderTickRate:1

[Events]
//Background and Video events
0,0,"worst mapper eu's normal.jpg",0,0
//Break Periods
//Storyboard Layer 0 (Background)
//Storyboard Layer 1 (Fail)
//Storyboard Layer 2 (Pass)
//Storyboard Layer 3 (Foreground)
//Storyboard Layer 4 (Overlay)
//Storyboard Sound Samples

[TimingPoints]
622,359.281437125748,4,2,1,85,1,0
1161,359.281437125748,4,2,0,85,1,0
1161,-100,4,2,0,85,0,0
5472,-100,4,2,1,85,0,0
6909,-100,4,2,1,70,0,0
18406,-111.111111111111,4,2,1,60,0,0
29903,-111.111111111111,4,2,1,60,0,0
41400,-100,4,2,69,70,0,0
52537,-100,4,2,69,85,0,0
54334,-100,4,2,1,70,0,0
55771,-100,4,2,99,85,0,1
78765,-100,4,2,1,70,0,0
89004,-100,4,2,1,85,0,0
89184,-100,4,2,1,70,0,0
89363,-100,4,2,1,85,0,0
89544,-100,4,2,1,70,0,0

[Colours]
Combo1 : 255,145,145
Combo2 : 128,0,255
Combo3 : 193,132,255
Combo4 : 206,0,0

[HitObjects]
256,192,622,12,0,5472,0:0:0:0:
0,28,6909,5,4,3:1:0:0:
56,120,7268,2,0,P|34:160|29:247,1,120,8|0,0:0|0:0,0:0:0:0:
35,286,7807,1,0,3:0:0:0:
129,338,8166,2,0,B|198:319|178:365|255:343,1,120,0|0,3:0|0:0,0:0:0:0:
298,333,8705,1,8,0:0:0:0:
240,241,9065,2,0,L|229:177,2,60,0|0|8,3:0|3:0|0:0,0:0:0:0:
165,318,9783,5,0,3:0:0:0:
69,267,10143,2,0,P|36:234|33:154,1,120,8|0,0:0|0:0,0:0:0:0:
46,112,10681,1,0,3:0:0:0:
152,90,11041,2,0,P|185:123|188:203,1,120,0|0,3:0|0:0,0:0:0:0:
175,245,11580,1,8,0:0:0:0:
253,318,11939,2,0,L|311:295,2,60,0|0|8,3:0|3:0|0:0,0:0:0:0:
151,354,12658,5,0,3:0:0:0:
175,245,13017,2,0,L|301:196,1,120,8|0,0:0|0:0,0:0:0:0:
337,183,13556,1,0,3:0:0:0:
333,75,13915,2,0,L|207:26,1,120,0|0,3:0|0:0,0:0:0:0:
171,13,14454,1,8,0:0:0:0:
109,101,14813,2,0,P|71:70|61:47,2,60,0|0|8,3:0|3:0|0:0,0:0:0:0:
201,157,15532,5,0,3:0:0:0:
108,208,15891,2,0,P|85:247|80:338,1,120,8|0,0:0|0:0,0:0:0:0:
79,374,16430,1,0,3:0:0:0:
172,320,16789,5,0,3:0:0:0:
172,320,16969,1,2,3:0:0:0:
271,361,17328,1,0,3:0:0:0:
326,268,17687,1,2,3:0:0:0:
326,268,17867,2,0,L|313:201,2,60,2|2|2,3:0|3:0|3:0,0:0:0:0:
369,300,18406,5,4,3:1:0:0:
465,285,18765,1,0,3:0:0:0:
451,188,19125,2,0,P|390:182|338:213,1,107.999996704102,8|0,0:1|3:0,0:0:0:0:
265,251,19843,6,0,P|198:251|154:211,1,107.999996704102,2|2,0:0|3:0,0:0:0:0:
164,179,20382,2,0,P|213:146|267:149,1,107.999996704102,0|2,3:0|3:0,0:0:0:0:
306,162,20921,1,2,3:0:0:0:
402,148,21280,6,0,B|388:188|388:188|403:271,1,107.999996704102,2|0,3:2|3:0,0:0:0:0:
412,299,21819,2,0,P|367:327|299:318,1,107.999996704102,0|0,3:0|0:0,0:0:0:0:
268,307,22358,1,0,3:0:0:0:
181,351,22717,6,0,P|133:311|71:310,1,107.999996704102,2|2,0:0|3:0,0:0:0:0:
75,209,23436,2,0,P|133:202|175:164,1,107.999996704102,2|2,3:0|3:0,0:0:0:0:
200,134,23975,1,0,0:0:0:0:
200,134,24155,1,2,3:2:0:0:
282,184,24514,6,0,P|288:242|323:284,1,107.999996704102,0|8,3:0|0:1,0:0:0:0:
354,312,25053,1,0,0:0:0:0:
354,312,25233,1,0,3:0:0:0:
437,263,25592,6,0,B|458:195|458:195|442:144,1,107.999996704102,2|2,0:0|3:0,0:0:0:0:
434,112,26131,2,0,B|396:97|396:97|330:114,1,107.999996704102,0|2,0:0|3:0,0:0:0:0:
284,126,26669,1,2,3:0:0:0:
166,87,27029,6,0,P|182:159|158:198,1,107.999996704102,2|0,3:2|3:0,0:0:0:0:
140,227,27568,2,0,P|122:285|145:336,1,107.999996704102,0|0,3:0|0:0,0:0:0:0:
166,366,28107,1,0,3:0:0:0:
247,313,28466,6,0,P|290:299|358:313,1,107.999996704102,2|2,0:0|3:0,0:0:0:0:
380,216,29184,2,0,P|339:205|292:150,1,107.999996704102,2|2,3:0|3:0,0:0:0:0:
282,116,29723,1,2,3:0:0:0:
282,116,29903,1,4,3:2:0:0:
350,47,30262,6,0,P|391:58|439:115,1,107.999996704102,2|8,3:2|0:1,0:0:0:0:
461,152,30801,1,0,0:0:0:0:
461,152,30981,1,2,3:0:0:0:
407,233,31340,6,0,B|375:225|353:242|353:242|340:262|282:255,1,107.999996704102,2|2,0:0|3:0,0:0:0:0:
258,245,31879,2,0,P|216:257|216:322,1,107.999996704102,2|2,3:2|3:0,0:0:0:0:
235,355,32418,1,2,3:0:0:0:
138,366,32777,6,0,P|110:323|99:254,1,107.999996704102,2|2,3:2|3:0,0:0:0:0:
100,219,33316,2,0,P|129:177|189:145,1,107.999996704102,2|0,0:0|0:0,0:0:0:0:
221,127,33855,1,2,3:0:0:0:
335,169,34214,6,0,B|376:188|376:188|447:173,1,107.999996704102,2|2,0:0|3:0,0:0:0:0:
436,66,34933,2,0,B|395:47|395:47|321:63,1,107.999996704102,2|2,3:2|3:0,0:0:0:0:
290,77,35472,1,0,0:0:0:0:
290,77,35652,1,2,3:2:0:0:
164,48,36011,6,0,L|183:172,1,107.999996704102,2|8,3:2|0:1,0:0:0:0:
192,206,36550,1,2,0:0:0:0:
192,206,36729,1,2,3:0:0:0:
137,286,37089,6,0,P|185:306|249:282,1,107.999996704102,2|2,3:2|3:0,0:0:0:0:
282,274,37628,2,0,P|337:254|388:275,1,107.999996704102,2|2,3:2|3:0,0:0:0:0:
419,300,38166,1,2,3:0:0:0:
489,232,38526,6,0,L|476:116,1,107.999996704102,2|2,3:2|3:0,0:0:0:0:
456,80,39065,2,0,B|383:66|417:106|331:97,1,107.999996704102,2|0,0:0|0:0,0:0:0:0:
305,84,39604,1,2,3:0:0:0:
199,131,39963,6,0,B|146:132|112:90|112:90|135:175|100:238|100:238|128:213|175:213,1,323.999990112305,6|0,3:2|0:0,0:0:0:0:
245,302,41400,6,0,P|294:298|355:336,1,120,4|8,3:1|0:1,0:0:0:0:
454,295,42119,2,0,P|444:236|471:183,1,120,2|8,3:2|0:1,0:0:0:0:
393,108,42837,1,0,3:0:0:0:
291,143,43196,2,0,L|224:163,1,60,0|2,0:1|0:0,0:0:0:0:
184,183,43556,2,0,B|205:72,2,90,2|2|2,3:2|0:0|0:0,0:0:0:0:
176,236,44274,5,0,3:0:0:0:
261,302,44634,1,8,0:1:0:0:
182,376,44993,2,0,P|137:353|63:356,1,120,2|8,3:2|0:1,0:0:0:0:
66,246,45711,2,0,P|125:249|179:224,1,120,2|8,3:2|0:1,0:0:0:0:
215,183,46250,2,0,P|240:129|237:69,1,120,2|2,0:0|0:0,0:0:0:0:
213,20,46789,1,8,0:1:0:0:
320,9,47149,6,0,B|328:55|328:55|353:85|353:85|362:136,1,120,0|8,3:0|0:1,0:0:0:0:
453,170,47867,2,0,B|445:216|445:216|420:246|420:246|411:297,1,120,2|8,3:2|0:1,0:0:0:0:
330,348,48586,1,0,3:1:0:0:
242,285,48945,2,0,B|176:275|197:321|115:303,2,120,8|2|8,0:1|3:2|0:1,0:0:0:0:
310,201,50023,1,0,3:0:0:0:
257,106,50382,1,0,3:0:0:0:
160,153,50741,1,0,3:0:0:0:
213,248,51100,1,0,3:0:0:0:
310,201,51460,6,0,P|357:184|371:184,1,60,0|0,3:0|3:0,0:0:0:0:
415,206,51819,1,0,3:0:0:0:
415,206,51999,2,0,B|392:159|420:118|420:118|448:79|431:28,1,180,0|2,3:0|3:0,0:0:0:0:
256,192,52897,12,2,54334,0:3:0:0:
256,85,55232,6,0,L|256:25,2,60,2|2|2,0:3|0:3|0:3,0:0:0:0:
257,139,55771,2,0,B|224:134|200:153|200:153|177:172|141:165,1,120,4|8,1:1|0:0,0:0:0:0:
41,129,56490,1,0,1:0:0:0:
41,129,56669,2,0,L|52:254,1,120,2|2,0:0|0:0,0:0:0:0:
57,302,57208,1,0,1:0:0:0:
158,264,57568,1,8,0:0:0:0:
236,338,57927,5,0,1:0:0:0:
236,338,58107,2,0,P|281:306|357:319,1,120,2|2,0:0|0:0,0:0:0:0:
387,341,58646,1,0,1:0:0:0:
460,261,59005,1,8,0:0:0:0:
393,176,59364,5,0,1:0:0:0:
393,176,59544,1,2,0:0:0:0:
324,92,59903,2,0,P|368:72|442:83,2,120,2|2|0,0:0|0:0|0:0,0:0:0:0:
253,173,60981,2,0,L|174:162,2,60,4|8|0,0:0|0:0|0:0,0:0:0:0:
305,184,61520,1,4,1:1:0:0:
268,285,61879,1,8,0:0:0:0:
167,325,62238,5,0,1:0:0:0:
167,325,62418,2,0,P|115:303|82:246,1,120,2|2,0:0|0:0,0:0:0:0:
73,197,62957,1,0,1:0:0:0:
123,101,63316,1,8,0:0:0:0:
217,152,63675,1,0,1:0:0:0:
217,152,63855,2,0,P|267:128|348:133,1,120,2|2,0:0|0:0,0:0:0:0:
382,142,64394,5,0,1:0:0:0:
444,229,64753,1,8,0:0:0:0:
411,332,65113,1,0,1:0:0:0:
308,365,65472,1,8,0:0:0:0:
308,365,65652,2,0,B|226:348|271:388|173:373,2,120,2|2|0,0:0|0:0|0:0,0:0:0:0:
321,257,66729,2,0,P|293:249|252:253,2,60,2|8|0,0:0|0:0|0:0,0:0:0:0:
366,285,67268,5,4,1:1:0:0:
357,177,67628,1,8,0:0:0:0:
348,69,67987,1,0,1:0:0:0:
348,69,68166,2,0,P|309:94|210:98,1,120,0|0,1:0|0:0,0:0:0:0:
183,95,68705,1,0,1:0:0:0:
89,41,69065,1,8,0:0:0:0:
14,118,69424,5,0,1:0:0:0:
14,118,69604,2,0,L|28:250,1,120,0|0,1:0|1:0,0:0:0:0:
66,274,70143,2,0,L|74:352,1,60,0|0,1:0|1:0,0:0:0:0:
42,378,70502,1,8,0:0:0:0:
149,373,70861,1,0,1:0:0:0:
149,373,71041,1,0,1:0:0:0:
226,297,71400,6,0,B|285:285|281:334|346:315,2,120,0|0|0,1:0|1:0|1:0,0:0:0:0:
138,233,72478,2,0,P|110:240|65:246,2,60,4|8|8,0:0|0:0|0:2,0:0:0:0:
177,196,73017,1,4,1:1:0:0:
111,110,73376,1,8,0:0:0:0:
197,45,73735,5,0,1:0:0:0:
197,45,73915,2,0,P|252:72|322:67,1,120,0|4,1:0|0:0,0:0:0:0:
360,51,74454,1,0,1:0:0:0:
444,118,74813,1,8,0:0:0:0:
367,193,75172,5,0,1:0:0:0:
367,193,75352,2,0,P|327:231|301:291,1,120,0|0,1:0|0:0,0:0:0:0:
292,343,75891,1,4,1:1:0:0:
195,295,76250,1,8,0:0:0:0:
93,332,76610,1,0,1:0:0:0:
37,239,76969,1,8,0:0:0:0:
37,239,77149,2,0,B|21:173|64:185|34:113,2,120,0|0|0,1:0|1:0|1:0,0:0:0:0:
143,220,78226,1,0,1:0:0:0:
143,220,78406,1,8,1:2:0:0:
248,196,78765,5,4,3:1:0:0:
331,264,79125,2,0,P|351:229|347:151,1,120,8|0,0:0|0:0,0:0:0:0:
320,104,79663,1,0,3:0:0:0:
235,35,80023,2,0,B|200:15|200:15|101:24,1,120,0|0,3:0|0:0,0:0:0:0:
67,32,80561,1,8,0:0:0:0:
86,138,80921,2,0,L|20:147,2,60,0|0|8,3:0|3:0|0:0,0:0:0:0:
172,202,81639,5,0,3:0:0:0:
245,122,81999,2,0,B|280:100|280:100|360:114,1,120,8|0,0:0|0:0,0:0:0:0:
410,125,82537,1,0,3:0:0:0:
457,222,82897,2,0,P|433:262|357:286,1,120,0|0,3:0|0:0,0:0:0:0:
316,269,83436,1,8,0:0:0:0:
224,325,83795,2,0,L|238:398,2,60,0|0|8,3:0|3:0|0:0,0:0:0:0:
201,219,84514,5,0,3:0:0:0:
120,290,84873,2,0,P|91:249|101:174,1,120,8|0,0:0|0:0,0:0:0:0:
116,131,85412,1,0,3:0:0:0:
204,69,85771,2,0,B|273:52|259:94|333:80,1,120,0|0,3:0|0:0,0:0:0:0:
373,71,86310,1,8,0:0:0:0:
440,155,86669,2,0,P|464:137|479:112,2,60,0|0|8,3:0|3:0|0:0,0:0:0:0:
339,193,87388,5,0,3:0:0:0:
234,168,87747,2,0,B|220:207|220:207|241:289,1,120,8|0,0:0|0:0,0:0:0:0:
253,335,88286,1,0,3:0:0:0:
357,309,88645,5,0,3:0:0:0:
357,309,88825,2,0,P|397:309|425:290,1,60,2|0,3:0|0:0,0:0:0:0:
455,265,89184,2,0,P|495:265|523:284,2,60,0|0|0,3:0|3:0|3:0,0:0:0:0:
403,247,89723,6,0,P|391:219|394:189,2,60,2|2|2,3:0|3:0|3:0,0:0:0:0:
