osu file format v14

[General]
AudioFilename: audio.mp3
AudioLeadIn: 0
PreviewTime: 55232
Countdown: 0
SampleSet: Soft
StackLeniency: 0.3
Mode: 0
LetterboxInBreaks: 0
WidescreenStoryboard: 0

[Editor]
Bookmarks: 29903,38526,44634,50023
DistanceSpacing: 0.9
BeatDivisor: 16
GridSize: 4
TimelineZoom: 2.5

[Metadata]
Title:masterpiece (TV Size)
TitleUnicode:masterpiece (TV Size)
Artist:Kawada Mami
ArtistUnicode:川田まみ
Creator:Pachiru
Version:Insane
Source:とある魔術の禁書目録
Tags:Toaru Majutsu no Kinsho Mokuroku A Certain Magical Index AirinCat Kalibe Linada -Arche Ataraxia Rock japanese anime j-pop jpop
BeatmapID:1776416
BeatmapSetID:849526

[Difficulty]
HPDrainRate:6
CircleSize:4
OverallDifficulty:8
ApproachRate:9
SliderMultiplier:1.8
SliderTickRate:1

[Events]
//Background and Video events
0,0,"worst mapper eu.jpg",0,0
//Break Periods
//Storyboard Layer 0 (Background)
//Storyboard Layer 1 (Fail)
//Storyboard Layer 2 (Pass)
//Storyboard Layer 3 (Foreground)
//Storyboard Layer 4 (Overlay)
//Storyboard Sound Samples

[TimingPoints]
622,359.281437125748,4,2,1,85,1,0
1161,359.281437125748,4,2,1,85,1,0
1161,-200,4,2,1,85,0,0
5472,-200,4,2,1,85,0,0
6190,-200,4,2,1,85,0,0
6819,-200,4,2,1,85,0,0
6909,-100,4,2,1,70,0,0
7178,-100,4,2,10,85,0,0
7268,-100,4,2,1,70,0,0
7357,-100,4,2,1,70,0,0
7447,-100,4,2,1,70,0,0
7987,-100,4,2,10,85,0,0
8076,-100,4,2,10,85,0,0
8166,-100,4,2,1,70,0,0
8346,-100,4,2,10,85,0,0
8435,-100,4,2,10,85,0,0
8526,-100,4,2,1,70,0,0
8705,-100,4,2,1,70,0,0
8794,-100,4,2,1,70,0,0
8885,-100,4,2,1,70,0,0
9154,-100,4,2,10,85,0,0
9244,-100,4,2,1,70,0,0
9333,-100,4,2,10,85,0,0
9424,-100,4,2,1,70,0,0
9604,-100,4,2,1,70,0,0
9783,-100,4,2,1,70,0,0
9963,-100,4,2,10,85,0,0
10053,-100,4,2,10,85,0,0
10143,-100,4,2,1,70,0,0
10411,-100,4,2,1,70,0,0
10501,-100,4,2,1,70,0,0
10592,-100,4,2,1,70,0,0
10681,-100,4,2,1,70,0,0
10861,-100,4,2,10,85,0,0
10950,-100,4,2,10,85,0,0
11041,-100,4,2,1,70,0,0
11131,-100,4,2,1,70,0,0
11220,-100,4,2,10,85,0,0
11310,-100,4,2,10,85,0,0
11400,-100,4,2,1,70,0,0
11490,-100,4,2,1,70,0,0
11580,-100,4,2,1,70,0,0
12028,-100,4,2,10,85,0,0
12119,-100,4,2,1,70,0,0
12208,-100,4,2,10,85,0,0
12298,-100,4,2,1,70,0,0
12837,-100,4,2,10,85,0,0
12927,-100,4,2,10,85,0,0
13017,-100,4,2,1,70,0,0
13106,-100,4,2,1,70,0,0
13196,-100,4,2,1,70,0,0
13735,-100,4,2,10,85,0,0
13825,-100,4,2,10,85,0,0
13915,-100,4,2,1,70,0,0
14095,-100,4,2,10,85,0,0
14184,-100,4,2,10,85,0,0
14274,-100,4,2,1,70,0,0
14364,-100,4,2,1,70,0,0
14454,-100,4,2,1,70,0,0
14634,-100,4,2,1,70,0,0
14813,-100,4,2,1,70,0,0
14902,-100,4,2,10,85,0,0
14993,-100,4,2,1,70,0,0
15082,-100,4,2,10,85,0,0
15172,-100,4,2,1,70,0,0
15622,-100,4,2,1,70,0,0
15711,-100,4,2,10,85,0,0
15891,-100,4,2,1,70,0,0
16160,-100,4,2,1,70,0,0
16430,-100,4,2,1,70,0,0
16610,-100,4,2,10,85,0,0
16699,-100,4,2,10,85,0,0
16789,-100,4,2,1,70,0,0
16969,-100,4,2,1,85,0,0
18406,-133.333333333333,4,2,1,60,0,0
19843,-133.333333333333,4,2,10,70,0,0
20022,-133.333333333333,4,2,1,60,0,0
20112,-133.333333333333,4,2,1,60,0,0
20202,-133.333333333333,4,2,1,60,0,0
20291,-133.333333333333,4,2,1,60,0,0
20382,-133.333333333333,4,2,1,60,0,0
20650,-133.333333333333,4,2,1,60,0,0
20741,-133.333333333333,4,2,1,60,0,0
20830,-133.333333333333,4,2,1,60,0,0
20920,-133.333333333333,4,2,1,60,0,0
21100,-133.333333333333,4,2,10,70,0,0
21280,-133.333333333333,4,2,1,60,0,0
22628,-133.333333333333,4,2,1,60,0,0
22717,-133.333333333333,4,2,10,70,0,0
22897,-133.333333333333,4,2,1,60,0,0
22986,-133.333333333333,4,2,10,70,0,0
23077,-133.333333333333,4,2,1,60,0,0
23166,-133.333333333333,4,2,10,70,0,0
23256,-133.333333333333,4,2,1,60,0,0
23345,-133.333333333333,4,2,1,60,0,0
23436,-133.333333333333,4,2,1,60,0,0
23525,-133.333333333333,4,2,10,70,0,0
23616,-133.333333333333,4,2,1,60,0,0
23705,-133.333333333333,4,2,10,70,0,0
23795,-133.333333333333,4,2,1,60,0,0
24155,-133.333333333333,4,2,1,60,0,0
24334,-133.333333333333,4,2,10,70,0,0
24514,-133.333333333333,4,2,1,60,0,0
25411,-133.333333333333,4,2,1,60,0,0
25771,-133.333333333333,4,2,1,60,0,0
26490,-133.333333333333,4,2,10,70,0,0
26580,-133.333333333333,4,2,10,70,0,0
26669,-133.333333333333,4,2,1,60,0,0
26759,-133.333333333333,4,2,1,60,0,0
26849,-133.333333333333,4,2,1,60,0,0
28376,-133.333333333333,4,2,1,60,0,0
28466,-133.333333333333,4,2,1,60,0,0
28555,-133.333333333333,4,2,10,70,0,0
28646,-133.333333333333,4,2,1,60,0,0
28735,-133.333333333333,4,2,10,70,0,0
28825,-133.333333333333,4,2,1,60,0,0
28914,-133.333333333333,4,2,10,70,0,0
29005,-133.333333333333,4,2,1,60,0,0
29094,-133.333333333333,4,2,1,60,0,0
29184,-133.333333333333,4,2,1,60,0,0
29454,-133.333333333333,4,2,10,70,0,0
29544,-133.333333333333,4,2,1,60,0,0
29633,-133.333333333333,4,2,1,60,0,0
29723,-133.333333333333,4,2,1,60,0,0
29767,-133.333333333333,4,2,1,60,0,0
29903,-117.647058823529,4,2,1,60,0,0
30083,-117.647058823529,4,2,10,70,0,0
30172,-117.647058823529,4,2,10,70,0,0
30262,-117.647058823529,4,2,1,60,0,0
30442,-117.647058823529,4,2,10,70,0,0
30531,-117.647058823529,4,2,10,70,0,0
30622,-117.647058823529,4,2,1,60,0,0
31250,-117.647058823529,4,2,1,60,0,0
31340,-117.647058823529,4,2,1,60,0,0
31968,-117.647058823529,4,2,1,60,0,0
32058,-117.647058823529,4,2,1,60,0,0
32193,-117.647058823529,4,2,10,70,0,0
32238,-117.647058823529,4,2,10,70,0,0
32372,-117.647058823529,4,2,1,60,0,0
32418,-117.647058823529,4,2,1,60,0,0
32598,-117.647058823529,4,2,1,60,0,0
32777,-117.647058823529,4,2,1,60,0,0
34034,-117.647058823529,4,2,10,70,0,0
34125,-117.647058823529,4,2,10,70,0,0
34214,-117.647058823529,4,2,1,60,0,0
34753,-117.647058823529,4,2,10,70,0,0
34843,-117.647058823529,4,2,10,70,0,0
34933,-117.647058823529,4,2,1,60,0,0
35022,-117.647058823529,4,2,1,60,0,0
35113,-117.647058823529,4,2,1,60,0,0
35202,-117.647058823529,4,2,1,60,0,0
35292,-117.647058823529,4,2,1,60,0,0
35336,-117.647058823529,4,2,1,60,0,0
35472,-117.647058823529,4,2,1,60,0,0
35516,-117.647058823529,4,2,1,60,0,0
35652,-117.647058823529,4,2,10,70,0,0
36011,-117.647058823529,4,2,1,60,0,0
36549,-117.647058823529,4,2,1,60,0,0
36729,-117.647058823529,4,2,1,60,0,0
37987,-117.647058823529,4,2,10,70,0,0
38166,-117.647058823529,4,2,1,60,0,0
38615,-117.647058823529,4,2,1,60,0,0
38705,-117.647058823529,4,2,1,60,0,0
38885,-117.647058823529,4,2,1,60,0,0
39065,-117.647058823529,4,2,1,60,0,0
39424,-117.647058823529,4,2,10,70,0,0
39604,-117.647058823529,4,2,1,60,0,0
39963,-117.647058823529,4,2,10,70,0,0
40053,-117.647058823529,4,2,10,70,0,0
40143,-117.647058823529,4,2,1,60,0,0
40232,-117.647058823529,4,2,10,70,0,0
40322,-117.647058823529,4,2,1,60,0,0
40411,-117.647058823529,4,2,1,60,0,0
40502,-117.647058823529,4,2,1,60,0,0
41400,-100,4,2,69,70,0,0
52178,-100,4,2,69,70,0,0
52537,-100,4,2,69,85,0,0
54334,-100,4,2,1,70,0,0
55456,-100,4,2,1,70,0,0
55771,-83.3333333333333,4,2,99,85,0,1
56040,-83.3333333333333,4,2,99,85,0,1
56131,-83.3333333333333,4,2,99,85,0,1
56490,-83.3333333333333,4,2,20,85,0,1
56669,-83.3333333333333,4,2,20,85,0,1
56849,-83.3333333333333,4,2,99,85,0,1
56939,-83.3333333333333,4,2,99,85,0,1
57208,-83.3333333333333,4,2,20,85,0,1
57298,-83.3333333333333,4,2,20,85,0,1
57568,-83.3333333333333,4,2,99,85,0,1
57747,-83.3333333333333,4,2,99,85,0,1
57927,-83.3333333333333,4,2,20,85,0,1
58106,-83.3333333333333,4,2,20,85,0,1
58286,-83.3333333333333,4,2,99,85,0,1
58466,-83.3333333333333,4,2,99,85,0,1
58646,-83.3333333333333,4,2,20,85,0,1
58825,-83.3333333333333,4,2,20,85,0,1
59005,-83.3333333333333,4,2,99,85,0,1
59184,-83.3333333333333,4,2,99,85,0,1
59364,-83.3333333333333,4,2,99,85,0,1
59544,-83.3333333333333,4,2,99,85,0,1
59633,-83.3333333333333,4,2,99,85,0,1
59903,-83.3333333333333,4,2,99,85,0,1
60083,-83.3333333333333,4,2,99,85,0,1
60172,-83.3333333333333,4,2,20,85,0,1
60262,-83.3333333333333,4,2,20,85,0,1
60442,-83.3333333333333,4,2,20,85,0,1
60622,-83.3333333333333,4,2,99,85,0,1
61789,-83.3333333333333,4,2,99,85,0,1
61879,-83.3333333333333,4,2,99,85,0,1
62238,-83.3333333333333,4,2,20,85,0,1
62417,-83.3333333333333,4,2,20,85,0,1
62598,-83.3333333333333,4,2,99,85,0,1
62822,-83.3333333333333,4,2,20,85,0,1
63046,-83.3333333333333,4,2,20,85,0,1
63137,-83.3333333333333,4,2,20,85,0,1
63181,-83.3333333333333,4,2,99,85,0,1
63316,-83.3333333333333,4,2,99,85,0,1
63675,-83.3333333333333,4,2,20,85,0,1
63855,-83.3333333333333,4,2,20,85,0,1
64035,-83.3333333333333,4,2,99,85,0,1
64214,-83.3333333333333,4,2,99,85,0,1
64394,-83.3333333333333,4,2,20,85,0,1
64573,-83.3333333333333,4,2,20,85,0,1
64753,-83.3333333333333,4,2,99,85,0,1
65113,-83.3333333333333,4,2,99,85,0,1
65292,-83.3333333333333,4,2,99,85,0,1
65696,-83.3333333333333,4,2,20,85,0,1
65921,-83.3333333333333,4,2,20,85,0,1
66011,-83.3333333333333,4,2,20,85,0,1
66190,-83.3333333333333,4,2,20,85,0,1
66370,-83.3333333333333,4,2,99,85,0,1
66550,-83.3333333333333,4,2,99,85,0,1
66729,-83.3333333333333,4,2,99,85,0,1
67537,-83.3333333333333,4,2,99,85,0,1
67628,-83.3333333333333,4,2,99,85,0,1
67897,-83.3333333333333,4,2,99,85,0,1
67987,-83.3333333333333,4,2,20,85,0,1
68166,-83.3333333333333,4,2,20,85,0,1
68346,-83.3333333333333,4,2,99,85,0,1
68705,-83.3333333333333,4,2,20,85,0,1
68885,-83.3333333333333,4,2,20,85,0,1
69065,-83.3333333333333,4,2,99,85,0,1
69424,-83.3333333333333,4,2,20,85,0,1
69604,-83.3333333333333,4,2,20,85,0,1
69783,-83.3333333333333,4,2,99,85,0,1
69963,-83.3333333333333,4,2,99,85,0,1
70143,-83.3333333333333,4,2,99,85,0,1
70771,-83.3333333333333,4,2,99,85,0,1
70861,-83.3333333333333,4,2,99,85,0,1
70950,-83.3333333333333,4,2,99,85,0,1
71131,-83.3333333333333,4,2,99,85,0,1
71490,-83.3333333333333,4,2,20,85,0,1
71669,-83.3333333333333,4,2,20,85,0,1
72119,-83.3333333333333,4,2,99,85,0,1
72388,-83.3333333333333,4,2,99,85,0,1
72478,-83.3333333333333,4,2,99,85,0,1
73556,-83.3333333333333,4,2,99,85,0,1
73735,-83.3333333333333,4,2,20,85,0,1
73824,-83.3333333333333,4,2,20,85,0,1
74004,-83.3333333333333,4,2,20,85,0,1
74095,-83.3333333333333,4,2,99,85,0,1
74634,-83.3333333333333,4,2,99,85,0,1
74813,-83.3333333333333,4,2,99,85,0,1
74902,-83.3333333333333,4,2,99,85,0,1
75082,-83.3333333333333,4,2,99,85,0,1
75172,-83.3333333333333,4,2,20,85,0,1
75352,-83.3333333333333,4,2,20,85,0,1
75532,-83.3333333333333,4,2,99,85,0,1
76071,-83.3333333333333,4,2,99,85,0,1
76250,-83.3333333333333,4,2,99,85,0,1
76430,-83.3333333333333,4,2,99,85,0,1
76699,-83.3333333333333,4,2,99,85,0,1
77508,-83.3333333333333,4,2,99,85,0,1
77687,-83.3333333333333,4,2,99,85,0,1
78047,-83.3333333333333,4,2,99,85,0,1
78226,-83.3333333333333,4,2,99,85,0,1
78496,-83.3333333333333,4,2,20,85,0,1
78765,-100,4,2,1,70,0,0
79035,-100,4,2,10,85,0,0
79125,-100,4,2,1,70,0,0
79214,-100,4,2,1,70,0,0
79304,-100,4,2,1,70,0,0
79844,-100,4,2,10,85,0,0
79932,-100,4,2,10,85,0,0
80023,-100,4,2,1,70,0,0
80202,-100,4,2,10,85,0,0
80292,-100,4,2,10,85,0,0
80382,-100,4,2,1,70,0,0
80562,-100,4,2,1,70,0,0
80651,-100,4,2,1,70,0,0
80741,-100,4,2,1,70,0,0
81010,-100,4,2,10,85,0,0
81101,-100,4,2,1,70,0,0
81190,-100,4,2,10,85,0,0
81280,-100,4,2,1,70,0,0
81460,-100,4,2,1,70,0,0
81640,-100,4,2,1,70,0,0
81819,-100,4,2,10,85,0,0
81909,-100,4,2,10,85,0,0
81999,-100,4,2,1,70,0,0
82267,-100,4,2,1,70,0,0
82357,-100,4,2,1,70,0,0
82448,-100,4,2,1,70,0,0
82538,-100,4,2,1,70,0,0
82718,-100,4,2,10,85,0,0
82807,-100,4,2,10,85,0,0
82897,-100,4,2,1,70,0,0
82987,-100,4,2,1,70,0,0
83077,-100,4,2,10,85,0,0
83166,-100,4,2,10,85,0,0
83256,-100,4,2,1,70,0,0
83346,-100,4,2,1,70,0,0
83436,-100,4,2,1,70,0,0
83884,-100,4,2,1,85,0,0
83887,-100,4,2,10,85,0,0
83975,-100,4,2,1,70,0,0
84064,-100,4,2,10,85,0,0
84155,-100,4,2,1,70,0,0
84693,-100,4,2,10,85,0,0
84783,-100,4,2,10,85,0,0
84873,-100,4,2,1,70,0,0
84962,-100,4,2,1,70,0,0
85053,-100,4,2,1,70,0,0
85592,-100,4,2,10,85,0,0
85681,-100,4,2,10,85,0,0
85771,-100,4,2,1,70,0,0
85952,-100,4,2,10,85,0,0
86040,-100,4,2,10,85,0,0
86131,-100,4,2,1,70,0,0
86220,-100,4,2,1,70,0,0
86310,-100,4,2,1,70,0,0
86490,-100,4,2,1,70,0,0
86669,-100,4,2,1,70,0,0
86758,-100,4,2,10,85,0,0
86849,-100,4,2,1,70,0,0
86938,-100,4,2,10,85,0,0
87029,-100,4,2,1,70,0,0
87478,-100,4,2,1,70,0,0
87568,-100,4,2,10,85,0,0
87747,-100,4,2,1,70,0,0
88016,-100,4,2,1,70,0,0
88286,-100,4,2,1,70,0,0
88375,-100,4,2,1,70,0,0
88465,-100,4,2,10,85,0,0
88555,-100,4,2,10,85,0,0
88646,-100,4,2,1,70,0,0
88825,-100,4,2,1,75,0,0

[Colours]
Combo1 : 248,251,140
Combo2 : 152,16,233
Combo3 : 206,157,255
Combo4 : 198,198,0

[HitObjects]
256,192,622,12,0,5472,0:0:0:0:
62,313,6370,6,0,P|47:285|86:309,1,112.5
93,298,6909,6,0,P|143:271|193:273,1,90,4|0,3:1|0:0,0:0:0:0:
280,310,7178,1,0,0:0:0:0:
280,310,7268,2,0,P|259:248|272:205,1,90,8|0,0:0|3:0,0:0:0:0:
330,71,7628,1,0,0:0:0:0:
349,212,7807,2,0,P|314:157|234:142,1,135,0|0,3:0|0:0,0:0:0:0:
108,127,8166,2,0,P|171:109|207:54,1,135
117,39,8526,1,0,0:0:0:0:
186,196,8705,6,0,L|177:297,1,90,8|0,0:0|0:0,0:0:0:0:
71,356,9065,2,0,P|95:328|120:315,1,45,0|0,3:0|0:0,0:0:0:0:
280,367,9244,2,0,P|267:349|249:334,1,45,0|0,3:0|0:0,0:0:0:0:
97,221,9424,2,0,B|142:204|182:241|182:241|213:271|270:253,1,180,8|0,0:0|3:0,0:0:0:0:
388,137,9963,5,0,0:0:0:0:
388,137,10053,1,0,0:0:0:0:
388,137,10143,2,0,L|376:234,1,90,8|0,0:0|3:0,0:0:0:0:
365,321,10502,1,0,0:0:0:0:
272,170,10681,2,0,P|277:100|292:24,1,135,0|0,3:0|0:0,0:0:0:0:
189,24,11041,2,0,P|185:86|170:157,1,135
156,256,11400,1,0,0:0:0:0:
2,158,11580,6,0,P|57:169|81:215,1,90,8|0,0:0|0:0,0:0:0:0:
149,76,11939,2,0,P|126:80|89:99,1,45,0|0,3:0|0:0,0:0:0:0:
5,17,12119,2,0,P|28:17|49:25,1,45,0|0,3:0|0:0,0:0:0:0:
229,103,12298,2,0,P|212:19|130:-5,1,180,8|0,0:0|3:0,0:0:0:0:
166,173,12837,5,0,0:0:0:0:
166,173,12927,1,0,0:0:0:0:
166,173,13017,2,0,P|169:220|164:272,1,90,8|0,0:0|3:0,0:0:0:0:
150,351,13376,1,0,0:0:0:0:
281,250,13556,2,0,B|355:235|340:290|418:262,1,135,0|0,3:0|0:0,0:0:0:0:
491,128,13915,2,0,P|437:125|381:193,1,135
464,208,14274,1,0,0:0:0:0:
356,78,14454,6,0,L|256:86,1,90,8|0,0:0|0:0,0:0:0:0:
134,24,14813,2,0,P|165:32|190:62,1,45,0|0,3:0|0:0,0:0:0:0:
214,158,14993,2,0,P|206:189|176:214,1,45,0|0,3:0|0:0,0:0:0:0:
66,122,15172,2,0,P|107:105|63:144,1,180,8|0,0:0|3:0,0:0:0:0:
18,281,15711,5,0,0:0:0:0:
18,281,15801,1,0,0:0:0:0:
18,281,15891,2,0,P|66:267|125:274,1,90,8|0,0:0|3:0,0:0:0:0:
196,297,16250,1,0,0:0:0:0:
376,182,16430,2,0,B|333:152|333:152|236:164,1,135,0|0,3:0|0:0,0:0:0:0:
176,174,16789,1,0,0:0:0:0:
334,356,16969,5,2,3:0:0:0:
441,249,17149,1,0,0:0:0:0:
428,282,17238,1,0,0:0:0:0:
427,318,17328,2,0,P|433:345|445:365,1,45,0|2,3:0|3:0,0:0:0:0:
306,256,17508,1,0,3:0:0:0:
273,282,17598,2,0,P|253:293|232:300,1,45,0|2,0:0|3:0,0:0:0:0:
58,266,17867,6,0,L|65:319,1,45,2|0,3:0|0:0,0:0:0:0:
142,178,18047,2,0,L|135:231,1,45,2|0,3:0|0:0,0:0:0:0:
63,92,18226,2,0,L|70:145,1,45,2|0,3:0|0:0,0:0:0:0:
168,21,18406,6,0,P|198:37|245:40,1,67.5000025749208,4|0,3:2|0:0,0:0:0:0:
365,0,18765,2,0,P|345:43|352:159,1,135.000005149842,0|8,3:0|0:1,0:0:0:0:
385,231,19304,1,0,0:0:0:0:
221,221,19484,2,0,P|253:209|293:215,1,67.5000025749208,0|0,3:0|0:0,0:0:0:0:
285,324,19843,6,0,P|251:327|220:315,1,67.5000025749208,0|0,0:0|3:0,0:0:0:0:
138,271,20202,1,2,3:0:0:0:
57,375,20382,2,0,B|75:341|56:307|56:307|39:274|58:233,1,135.000005149842,0|2,0:0|3:0,0:0:0:0:
137,169,20921,2,0,P|95:169|69:147,1,67.5000025749208,2|0,3:0|0:0,0:0:0:0:
123,86,21190,1,2,0:3:0:0:
123,86,21280,6,0,P|194:81|266:90,1,135.000005149842,0|0,3:2|3:0,0:0:0:0:
335,23,21819,2,0,P|406:28|478:19,1,135.000005149842,0|0,3:0|0:0,0:0:0:0:
512,111,22358,2,0,P|485:124|466:167,1,67.5000025749208,0|0,3:0|0:0,0:0:0:0:
484,249,22717,5,0,0:0:0:0:
363,168,22897,2,0,P|343:177|322:176,1,33.7500012874604,0|0,3:0|0:0,0:0:0:0:
296,244,23077,2,0,P|275:236|261:220,1,33.7500012874604,2|0,3:0|0:0,0:0:0:0:
222,168,23256,1,0,0:0:0:0:
122,284,23436,2,0,P|107:264|102:240,1,33.7500012874604,2|0,3:0|0:0,0:0:0:0:
51,205,23616,2,0,P|60:182|79:165,1,33.7500012874604,2|0,3:0|0:0,0:0:0:0:
114,113,23795,2,0,P|122:77|105:31,1,67.5000025749208,2|0,3:0|3:0,0:0:0:0:
201,170,24155,6,0,P|193:206|210:252,1,67.5000025749208,0|0,3:2|0:0,0:0:0:0:
239,309,24424,1,0,0:0:0:0:
239,309,24514,2,0,P|288:287|388:296,1,135.000005149842,0|8,3:0|0:1,0:0:0:0:
451,327,25053,1,0,0:0:0:0:
404,211,25232,2,0,P|395:168|402:113,1,67.5000025749208,0|0,3:0|0:0,0:0:0:0:
329,22,25592,6,0,P|328:55|320:88,1,67.5000025749208,0|0,0:0|3:0,0:0:0:0:
281,174,25951,1,2,3:0:0:0:
163,96,26131,2,0,P|183:138|181:230,1,135.000005149842,0|2,0:0|3:0,0:0:0:0:
148,300,26580,1,0,0:0:0:0:
148,300,26669,2,0,P|92:313|67:305,1,67.5000025749208,2|0,3:0|0:0,0:0:0:0:
229,294,27029,6,0,P|281:316|297:337,1,67.5000025749208,4|0,3:2|0:0,0:0:0:0:
340,384,27388,1,0,3:0:0:0:
417,284,27568,2,0,P|401:198|403:137,1,135.000005149842
312,218,28107,2,0,P|319:172|313:133,1,67.5000025749208,0|0,3:0|0:0,0:0:0:0:
254,50,28466,6,0,P|276:53|298:67,1,33.7500012874604
196,101,28646,2,0,P|208:119|212:145,1,33.7500012874604,0|0,3:0|0:0,0:0:0:0:
128,135,28825,2,0,P|122:156|105:176,1,33.7500012874604,2|0,3:0|0:0,0:0:0:0:
54,121,29005,1,0,3:0:0:0:
136,247,29184,1,2,3:0:0:0:
48,347,29364,1,2,3:0:0:0:
48,347,29454,1,0,0:3:0:0:
48,347,29544,2,0,P|88:345|130:362,1,67.5000025749208,2|2,3:0|3:0,0:0:0:0:
244,266,29903,6,0,P|222:215|232:139,1,114.750002188683,4|0,3:2|0:0,0:0:0:0:
241,126,30262,2,0,P|292:146|339:207,1,114.750002188683,2|0,3:3|0:0,0:0:0:0:
345,221,30622,1,8,0:1:0:0:
432,186,30801,1,0,0:0:0:0:
459,278,30981,2,0,P|439:311|429:355,1,76.5000014591217,2|0,3:0|0:0,0:0:0:0:
286,357,31340,6,0,P|275:319|250:282,1,76.5000014591217,0|2,3:0|3:0,0:0:0:0:
247,78,31699,1,2,3:0:0:0:
181,120,31879,2,0,P|98:145|26:126,1,153.000002918243,0|2,0:0|0:3,0:0:0:0:
67,56,32328,1,0,0:0:0:0:
67,56,32418,2,0,P|110:64|146:49,1,76.5000014591217,2|0,3:0|0:0,0:0:0:0:
259,5,32777,6,0,B|286:38|286:38|267:158,1,153.000002918243,0|2,3:2|3:0,0:0:0:0:
258,269,33316,2,0,B|325:277|325:277|331:285|331:285|410:293,1,153.000002918243
376,120,33855,2,0,P|363:159|371:195,1,76.5000014591217,2|0,3:0|0:0,0:0:0:0:
463,195,34125,1,0,0:0:0:0:
463,195,34214,6,0,P|469:157|458:120,1,76.5000014591217,0|2,3:3|3:0,0:0:0:0:
330,43,34574,2,0,B|272:52|272:52|267:56|267:56|208:65,1,114.750002188683,2|0,3:0|0:0,0:0:0:0:
200,93,34933,1,2,3:0:0:0:
84,63,35113,1,2,3:0:0:0:
39,166,35292,1,2,3:0:0:0:
130,305,35472,1,0,0:0:0:0:
173,146,35652,6,0,P|156:119|151:114,1,38.2500007295609
60,197,35831,2,0,P|47:182|38:165,1,38.2500007295609
156,229,36011,2,0,P|203:267|193:355,1,153.000002918243,2|8,3:0|0:1,0:0:0:0:
298,304,36550,1,0,0:0:0:0:
379,358,36729,2,0,L|384:267,1,76.5000014591217,2|0,3:0|0:0,0:0:0:0:
350,174,37089,6,0,B|393:157|426:179|426:179|460:201|509:180,1,153.000002918243,0|2,0:0|3:0,0:0:0:0:
498,66,37628,2,0,B|462:50|428:72|428:72|395:94|352:77,1,153.000002918243,0|2,0:0|0:3,0:0:0:0:
273,38,38077,1,0,0:0:0:0:
273,38,38166,2,0,L|278:135,1,76.5000014591217,2|0,3:0|0:0,0:0:0:0:
206,200,38526,6,0,P|244:190|205:233,1,153.000002918243,4|2,3:2|3:0,0:0:0:0:
133,134,39065,2,0,B|99:100|99:100|114:222,1,153.000002918243,0|0,3:0|0:0,0:0:0:0:
118,319,39604,2,0,P|156:297|242:315,1,114.750002188683,2|0,3:0|0:0,0:0:0:0:
288,346,39963,6,0,P|284:365|273:381,1,38.2500007295609
340,278,40143,2,0,P|354:291|361:309,1,38.2500007295609,2|0,3:0|0:0,0:0:0:0:
227,177,40322,2,0,P|260:206|318:202,1,76.5000014591217,0|0,3:0|0:0,0:0:0:0:
325,57,40681,2,0,P|296:90|300:148,1,76.5000014591217,2|2,3:0|3:0,0:0:0:0:
412,147,40951,1,0,0:0:0:0:
412,147,41041,2,0,P|397:131|377:124,1,38.2500007295609,2|0,3:0|0:0,0:0:0:0:
291,210,41220,2,0,P|312:206|329:193,1,38.2500007295609,2|0,3:0|0:0,0:0:0:0:
187,96,41400,6,0,P|197:136|199:186,1,90,4|2,3:1|0:0,0:0:0:0:
180,303,41759,1,8,0:1:0:0:
29,228,41939,1,2,0:0:0:0:
29,228,42029,1,0,0:0:0:0:
29,228,42119,2,0,P|67:215|116:226,1,90,0|2,3:1|0:0,0:0:0:0:
265,300,42478,2,0,P|227:313|178:302,1,90,8|2,0:1|0:0,0:0:0:0:
318,222,42837,5,2,3:2:0:0:
351,209,42927,1,2,0:2:0:0:
386,205,43017,1,2,0:2:0:0:
421,213,43107,1,2,0:2:0:0:
452,231,43196,1,8,0:1:0:0:
381,297,43376,1,2,0:0:0:0:
223,231,43556,2,0,L|227:90,1,135,0|2,3:1|0:0,0:0:0:0:
229,4,43915,2,0,P|286:29|326:21,1,90,8|2,0:1|0:0,0:0:0:0:
148,90,44274,6,0,P|91:65|51:73,1,90,0|2,3:0|0:0,0:0:0:0:
232,164,44634,1,8,0:1:0:0:
96,245,44813,1,2,0:0:0:0:
96,245,44903,1,2,0:0:0:0:
96,245,44993,2,0,L|87:143,1,90,0|2,3:1|0:0,0:0:0:0:
189,287,45352,2,0,L|180:389,1,90,8|2,0:1|0:0,0:0:0:0:
272,215,45711,6,0,B|328:202|355:239|355:239|393:278|443:259,1,180,0|8,3:1|0:1,0:0:0:0:
497,186,46250,1,2,0:0:0:0:
412,69,46430,2,0,P|370:88|321:86,1,90,0|2,3:0|0:0,0:0:0:0:
211,25,46789,1,8,0:1:0:0:
211,25,46879,1,2,0:0:0:0:
211,25,46969,1,2,0:0:0:0:
67,190,47149,6,0,P|118:189|171:259,1,135,0|0,3:0|0:0,0:0:0:0:
185,325,47508,2,0,L|173:396,1,45,8|2,0:1|0:0,0:0:0:0:
257,264,47687,2,0,L|249:219,1,45,2|2,0:0|0:0,0:0:0:0:
331,304,47867,2,0,P|375:326|430:305,1,90,0|2,3:1|0:0,0:0:0:0:
489,175,48226,1,8,0:1:0:0:
395,217,48406,1,2,0:0:0:0:
319,62,48586,6,0,P|355:107|263:132,1,180,0|8,3:1|0:1,0:0:0:0:
222,67,49125,1,2,0:0:0:0:
144,217,49304,2,0,P|141:161|132:115,1,90,0|2,3:1|3:2,0:0:0:0:
15,267,49663,2,0,P|18:211|27:165,1,90,8|2,0:1|0:0,0:0:0:0:
116,326,50023,5,0,3:0:0:0:
150,335,50113,1,0,0:0:0:0:
184,324,50202,1,0,3:0:0:0:
331,211,50382,1,0,3:0:0:0:
301,326,50562,1,0,3:0:0:0:
258,124,50741,1,0,3:0:0:0:
235,257,50921,1,0,3:0:0:0:
190,69,51101,1,0,3:0:0:0:
370,127,51280,1,0,3:0:0:0:
184,178,51460,6,0,L|129:172,3,45,0|0|0|0,3:0|0:0|3:0|0:0,0:0:0:0:
51,256,51819,2,0,L|96:252,3,45,0|0|0|0,3:0|0:0|3:0|0:0,0:0:0:0:
163,304,52178,1,0,3:0:0:0:
202,292,52267,1,0,3:0:0:0:
242,292,52357,1,0,3:0:0:0:
279,309,52447,1,0,3:0:0:0:
309,335,52537,1,0,3:0:0:0:
339,362,52627,1,0,3:0:0:0:
375,380,52716,1,0,3:0:0:0:
415,384,52806,1,0,3:0:0:0:
455,374,52896,5,8,3:0:0:0:
437,218,53166,1,4,3:0:0:0:
421,62,53436,1,4,3:0:0:0:
324,149,53616,2,0,L|326:194,3,45,2|0|2|0,3:0|0:0|3:0|0:0,0:0:0:0:
262,300,53975,2,0,L|264:255,3,45,2|0|2|0,3:0|0:0|3:0|0:0,0:0:0:0:
210,151,54334,6,0,P|167:187|78:183,1,135,2|0,0:3|0:0,0:0:0:0:
9,156,54693,2,0,P|19:136|36:121,1,45,0|2,3:0|3:0,0:0:0:0:
59,264,54873,2,0,P|39:254|24:238,1,45,0|0,3:0|0:0,0:0:0:0:
130,103,55053,1,0,3:0:0:0:
192,269,55232,5,2,0:3:0:0:
258,234,55412,1,2,0:3:0:0:
273,309,55592,1,2,0:3:0:0:
381,166,55771,6,0,P|387:99|315:38,1,161.999995056153,4|0,1:1|0:0,0:0:0:0:
278,35,56131,1,8,0:0:0:0:
166,135,56310,1,0,0:0:0:0:
299,210,56490,1,0,1:0:0:0:
291,166,56580,1,0,0:0:0:0:
288,123,56669,1,0,0:0:0:0:
283,79,56759,1,0,0:0:0:0:
278,35,56849,1,8,0:0:0:0:
118,0,57029,6,0,B|96:44|96:44|123:157,1,161.999995056153,0|0,1:0|0:0,0:0:0:0:
135,195,57388,1,0,0:0:0:0:
47,361,57568,2,0,P|84:321|156:315,1,107.999996704102,8|0,0:0|0:0,0:0:0:0:
279,359,57927,1,0,1:0:0:0:
288,316,58017,1,0,0:0:0:0:
281,273,58107,1,0,0:0:0:0:
260,235,58196,1,0,0:0:0:0:
225,209,58286,1,8,0:0:0:0:
334,119,58466,6,0,P|382:180|518:180,1,215.999993408203,0|0,1:0|0:0,0:0:0:0:
494,103,58915,1,0,0:0:0:0:
494,103,59005,2,0,P|442:109|402:76,1,107.999996704102,8|0,0:0|0:0,0:0:0:0:
266,164,59364,1,0,1:0:0:0:
367,7,59544,1,0,1:0:0:0:
346,224,59723,1,8,0:0:0:0:
254,77,59903,6,0,P|199:105|188:203,1,161.999995056153,0|0,1:0|0:0,0:0:0:0:
225,277,60262,2,0,B|183:298|142:276|142:276|104:256|64:276,1,161.999995056153
17,344,60622,1,0,0:0:0:0:
83,184,60801,1,0,1:0:0:0:
205,365,60981,5,4,0:0:0:0:
276,154,61160,1,8,0:0:0:0:
398,353,61340,1,0,0:0:0:0:
226,218,61520,6,0,P|291:235|337:207,1,107.999996704102,4|0,1:1|0:0,0:0:0:0:
267,71,61879,2,0,P|207:102|193:154,1,107.999996704102,8|0,0:0|0:0,0:0:0:0:
392,260,62238,1,0,1:0:0:0:
408,223,62328,1,0,0:0:0:0:
406,183,62418,1,0,0:0:0:0:
376,149,62508,1,0,0:0:0:0:
331,137,62598,1,8,0:0:0:0:
223,277,62777,6,0,P|147:317|53:288,1,161.999995056153,0|0,1:0|0:0,0:0:0:0:
15,255,63137,1,0,0:0:0:0:
79,133,63316,2,0,P|125:169|136:223,1,107.999996704102,8|0,0:0|0:0,0:0:0:0:
269,90,63675,1,0,1:0:0:0:
233,114,63765,1,0,0:0:0:0:
225,156,63855,1,0,0:0:0:0:
248,192,63945,1,0,0:0:0:0:
289,204,64035,1,8,0:0:0:0:
416,79,64214,6,0,B|392:139|427:183|427:183|462:229|429:295,1,215.999993408203,0|0,1:0|0:0,0:0:0:0:
383,359,64663,1,0,0:0:0:0:
383,359,64753,2,0,P|335:328|272:325,1,107.999996704102,8|0,0:0|0:0,0:0:0:0:
154,364,65113,1,0,1:0:0:0:
239,255,65292,1,0,1:0:0:0:
89,129,65472,1,8,0:0:0:0:
311,208,65652,6,0,P|238:172|170:204,1,161.999995056153
167,305,66011,2,0,P|240:341|308:309,1,161.999995056153
377,260,66370,1,0,0:0:0:0:
333,124,66550,1,0,1:0:0:0:
482,201,66729,5,0,1:0:0:0:
321,88,66909,1,8,0:0:0:0:
235,250,67089,1,0,1:0:0:0:
104,70,67268,22,0,P|116:129|217:151,1,161.999995056153,4|0,1:1|0:0,0:0:0:0:
247,132,67628,1,8,0:0:0:0:
131,257,67807,1,0,0:0:0:0:
201,62,67987,1,0,1:0:0:0:
240,49,68077,1,0,0:0:0:0:
281,55,68166,1,0,0:0:0:0:
312,83,68256,1,0,0:0:0:0:
329,121,68346,1,8,0:0:0:0:
233,336,68526,6,0,B|271:256|271:256|246:131,1,215.999993408203,0|0,1:0|1:0,0:0:0:0:
201,62,68975,1,0,0:0:0:0:
201,62,69065,2,0,P|141:48|101:68,1,107.999996704102,8|0,0:0|0:0,0:0:0:0:
187,242,69424,1,0,1:0:0:0:
228,255,69514,1,0,0:0:0:0:
271,255,69604,1,0,0:0:0:0:
308,234,69693,1,0,0:0:0:0:
330,196,69783,1,8,0:0:0:0:
78,210,69963,6,0,B|98:362|98:362|143:312,1,215.999993408203,0|0,1:0|1:0,0:0:0:0:
202,269,70412,1,0,1:0:0:0:
202,269,70502,2,0,P|265:258|310:282,1,107.999996704102,8|0,0:0|0:0,0:0:0:0:
436,384,70861,1,0,1:0:0:0:
379,207,71041,1,0,1:0:0:0:
247,341,71220,1,8,0:0:0:0:
444,263,71400,6,0,P|463:202|398:124,1,161.999995056153,0|0,1:0|0:0,0:0:0:0:
313,153,71759,2,0,P|294:214|359:292,1,161.999995056153,0|0,1:0|0:0,0:0:0:0:
379,207,72119,1,0,1:0:0:0:
251,97,72298,1,0,1:0:0:0:
415,38,72478,5,4,0:0:0:0:
228,101,72658,1,8,0:0:0:0:
438,148,72837,1,8,0:2:0:0:
229,22,73017,6,0,P|169:43|155:141,1,161.999995056153,4|0,1:1|0:0,0:0:0:0:
179,204,73376,1,8,0:0:0:0:
61,57,73556,1,0,0:0:0:0:
126,273,73735,1,0,1:0:0:0:
165,291,73825,1,0,0:0:0:0:
208,287,73915,1,0,0:0:0:0:
245,265,74005,1,0,0:0:0:0:
266,227,74095,1,8,0:0:0:0:
459,55,74274,6,0,B|397:47|397:47|313:92|313:92|252:79,1,215.999993408203,4|0,0:0|1:0,0:0:0:0:
153,50,74723,1,0,1:0:0:0:
153,50,74813,2,0,P|179:102|166:164,1,107.999996704102,8|0,0:0|0:0,0:0:0:0:
98,308,75172,1,0,1:0:0:0:
119,270,75262,1,0,0:0:0:0:
156,248,75352,1,0,0:0:0:0:
199,244,75442,1,0,0:0:0:0:
238,262,75532,1,8,0:0:0:0:
191,347,75711,1,0,0:0:0:0:
265,171,75891,6,0,P|314:206|331:264,1,107.999996704102,4|0,1:1|0:0,0:0:0:0:
176,146,76250,2,0,P|211:97|269:80,1,107.999996704102,8|0,0:0|0:0,0:0:0:0:
151,236,76610,2,0,P|102:201|85:143,1,107.999996704102,0|0,1:0|0:0,0:0:0:0:
238,262,76969,1,8,0:0:0:0:
436,153,77149,6,0,B|419:52|419:52|380:114,1,161.999995056153
256,154,77508,2,0,B|273:53|273:53|312:115,1,161.999995056153,0|0,1:0|0:0,0:0:0:0:
265,235,77867,2,0,P|192:207|176:131,1,161.999995056153,0|0,1:0|0:0,0:0:0:0:
196,54,78226,1,0,1:0:0:0:
56,142,78406,1,8,1:2:0:0:
56,142,78496,1,0,0:0:0:0:
56,142,78586,1,0,0:2:0:0:
56,142,78675,1,0,0:0:0:0:
56,142,78765,6,0,P|64:189|51:240,1,90,4|0,3:1|0:0,0:0:0:0:
15,329,79035,1,0,0:0:0:0:
15,329,79125,2,0,P|77:314|114:325,1,90,8|0,0:0|3:0,0:0:0:0:
221,380,79484,1,0,0:0:0:0:
164,168,79663,2,0,P|185:225|190:308,1,135,0|0,3:0|0:0,0:0:0:0:
281,217,80023,2,0,P|285:149|307:86,1,135
362,3,80382,1,0,0:0:0:0:
211,65,80562,6,0,P|176:66|122:37,1,90,8|0,0:0|0:0,0:0:0:0:
11,142,80921,2,0,P|37:117|47:87,1,45,0|0,3:0|0:0,0:0:0:0:
158,193,81101,2,0,P|132:168|122:138,1,45,0|0,3:0|0:0,0:0:0:0:
11,277,81280,2,0,B|120:246|80:328|194:293,1,180,8|0,0:0|3:0,0:0:0:0:
342,201,81819,5,0,0:0:0:0:
342,201,81909,1,0,0:0:0:0:
342,201,81999,2,0,P|328:260|331:308,1,90,8|0,0:0|3:0,0:0:0:0:
380,362,82358,1,0,0:0:0:0:
408,140,82538,2,0,P|347:114|278:137,1,135,0|0,3:0|0:0,0:0:0:0:
159,125,82897,2,0,P|220:151|289:128,1,135
225,57,83256,1,0,0:0:0:0:
144,227,83436,6,0,P|140:296|144:330,1,90,8|0,0:0|0:0,0:0:0:0:
48,165,83795,2,0,P|45:121|43:112,1,45,0|0,3:0|0:0,0:0:0:0:
134,46,83975,2,0,P|131:68|130:90,1,45,0|0,3:0|0:0,0:0:0:0:
234,160,84155,2,0,P|284:136|406:128,1,180,8|4,0:0|3:2,0:0:0:0:
418,315,84693,5,0,0:0:0:0:
418,315,84783,1,0,0:0:0:0:
418,315,84873,2,0,P|344:329|300:312,1,90,8|0,0:0|3:0,0:0:0:0:
250,277,85232,1,0,0:0:0:0:
125,376,85412,2,0,P|139:315|123:232,1,135,0|0,3:0|0:0,0:0:0:0:
90,135,85771,2,0,P|145:159|251:143,1,135
311,128,86131,1,0,0:0:0:0:
131,46,86310,6,0,P|169:61|226:52,1,90,8|0,0:0|0:0,0:0:0:0:
387,33,86669,2,0,P|372:62|373:90,1,45,0|0,3:0|0:0,0:0:0:0:
373,178,86849,2,0,P|377:199|389:218,1,45,0|0,3:0|0:0,0:0:0:0:
483,91,87029,2,0,P|454:130|494:92,1,180,8|0,0:0|3:0,0:0:0:0:
273,127,87568,5,0,0:0:0:0:
273,127,87658,1,0,0:0:0:0:
273,127,87747,2,0,P|260:198|271:258,1,90,8|0,0:0|3:0,0:0:0:0:
285,308,88107,1,0,0:0:0:0:
132,161,88286,2,0,P|167:198|182:284,1,135,0|0,3:0|0:0,0:0:0:0:
176,355,88646,1,0,0:0:0:0:
387,267,88825,5,2,3:0:0:0:
313,149,89005,1,0,0:0:0:0:
313,149,89095,1,0,0:0:0:0:
313,149,89184,2,0,P|327:122|331:97,1,45,0|2,3:0|3:0,0:0:0:0:
398,17,89364,2,0,P|403:38|415:58,1,45,0|0,3:0|3:0,0:0:0:0:
482,129,89544,1,0,3:0:0:0:
265,32,89723,6,0,L|201:37,1,45,2|0,3:0|0:0,0:0:0:0:
167,111,89903,2,0,L|103:116,1,45,2|0,3:0|0:0,0:0:0:0:
62,49,90083,2,0,L|-2:54,1,45,2|0,3:0|0:0,0:0:0:0:
