osu file format v14

[General]
AudioFilename: audio.mp3
AudioLeadIn: 0
PreviewTime: 55232
Countdown: 0
SampleSet: Soft
StackLeniency: 0.3
Mode: 0
LetterboxInBreaks: 0
WidescreenStoryboard: 1

[Editor]
DistanceSpacing: 1.1
BeatDivisor: 4
GridSize: 32
TimelineZoom: 2.5

[Metadata]
Title:masterpiece (TV Size)
TitleUnicode:masterpiece (TV Size)
Artist:Kawada Mami
ArtistUnicode:川田まみ
Creator:Pachiru
Version:Arche's Hard
Source:とある魔術の禁書目録
Tags:Toaru Majutsu no Kinsho Mokuroku A Certain Magical Index AirinCat Kalibe Linada -Arche Ataraxia Rock japanese anime j-pop jpop
BeatmapID:1803257
BeatmapSetID:849526

[Difficulty]
HPDrainRate:4.5
CircleSize:3.7
OverallDifficulty:5.5
ApproachRate:7.5
SliderMultiplier:1.4
SliderTickRate:1

[Events]
//Background and Video events
0,0,"ftg arche.jpg",0,0
//Break Periods
//Storyboard Layer 0 (Background)
//Storyboard Layer 1 (Fail)
//Storyboard Layer 2 (Pass)
//Storyboard Layer 3 (Foreground)
//Storyboard Layer 4 (Overlay)
//Storyboard Sound Samples

[TimingPoints]
622,359.281437125748,4,2,0,60,1,0
1161,359.281437125748,4,2,0,60,1,0
6190,-100,4,2,1,85,0,0
6909,-100,4,2,1,70,0,0
7178,-100,4,2,10,85,0,0
7268,-100,4,2,1,70,0,0
8616,-100,4,2,10,85,0,0
8706,-100,4,2,1,70,0,0
9244,-100,4,2,10,85,0,0
9424,-100,4,2,1,70,0,0
9603,-100,4,2,10,85,0,0
9783,-100,4,2,1,70,0,0
10052,-100,4,2,10,85,0,0
10142,-100,4,2,1,70,0,0
11399,-100,4,2,10,85,0,0
11580,-100,4,2,1,70,0,0
12119,-100,4,2,10,85,0,0
12299,-100,4,2,1,70,0,0
12478,-100,4,2,10,85,0,0
12658,-100,4,2,1,70,0,0
12927,-100,4,2,10,85,0,0
13017,-100,4,2,1,70,0,0
14364,-100,4,2,10,85,0,0
14454,-100,4,2,1,70,0,0
14993,-100,4,2,10,85,0,0
15173,-100,4,2,1,70,0,0
15801,-100,4,2,10,85,0,0
15891,-100,4,2,1,70,0,0
18406,-100,4,2,1,60,0,0
41400,-100,4,2,69,70,0,0
52178,-100,4,2,69,85,0,0
52538,-100,4,2,69,85,0,0
52987,-100,4,2,69,60,0,0
53975,-100,4,2,69,85,0,0
54334,-100,4,2,1,70,0,0
55771,-100,4,2,99,85,0,1
78765,-100,4,2,1,70,0,0
79034,-100,4,2,10,85,0,0
79124,-100,4,2,1,70,0,0
80472,-100,4,2,10,85,0,0
80562,-100,4,2,1,70,0,0
81100,-100,4,2,10,85,0,0
81280,-100,4,2,1,70,0,0
81459,-100,4,2,10,85,0,0
81639,-100,4,2,1,70,0,0
81908,-100,4,2,10,85,0,0
81998,-100,4,2,1,70,0,0
83346,-100,4,2,10,85,0,0
83436,-100,4,2,1,70,0,0
83975,-100,4,2,10,85,0,0
84155,-100,4,2,1,70,0,0
84334,-100,4,2,10,85,0,0
84514,-100,4,2,1,70,0,0
84783,-100,4,2,10,85,0,0
84873,-100,4,2,1,70,0,0
86220,-100,4,2,10,85,0,0
86310,-100,4,2,1,70,0,0
86489,-100,4,2,10,85,0,0
86669,-100,4,2,1,70,0,0
86849,-100,4,2,10,85,0,0
87029,-100,4,2,1,70,0,0
87208,-100,4,2,10,85,0,0
87388,-100,4,2,1,70,0,0
87657,-100,4,2,10,85,0,0
87747,-100,4,2,1,70,0,0
89723,-100,4,2,1,85,0,0

[Colours]
Combo1 : 248,251,142
Combo2 : 230,115,0
Combo3 : 255,169,83
Combo4 : 191,191,0

[HitObjects]
256,192,622,12,0,6190,0:0:0:0:
96,120,6909,6,0,L|104:213,1,70,4|0,3:1|0:0,0:0:0:0:
131,214,7178,1,0,0:0:0:0:
131,214,7268,2,0,L|122:307,1,70,8|0,0:0|3:0,0:0:0:0:
70,339,7628,2,0,P|34:347|-6:333,2,70,0|0|8,0:0|3:0|0:0,0:0:0:0:
124,283,8166,6,0,B|190:264|190:264|266:295,1,140,0|0,3:0|3:0,0:0:0:0:
282,319,8616,1,0,0:0:0:0:
282,319,8706,2,0,L|375:310,1,70,8|0,0:0|0:0,0:0:0:0:
418,350,9065,1,0,3:0:0:0:
477,301,9244,2,0,L|472:240,1,35,0|0,3:0|0:0,0:0:0:0:
447,238,9424,2,0,P|441:197|463:145,1,70,8|0,0:0|0:0,0:0:0:0:
404,108,9783,6,0,L|311:116,1,70,0|0,3:0|0:0,0:0:0:0:
310,143,10052,1,0,0:0:0:0:
310,143,10142,2,0,L|217:134,1,70,8|0,0:0|3:0,0:0:0:0:
185,82,10502,2,0,P|177:46|191:6,2,70,0|0|8,0:0|3:0|0:0,0:0:0:0:
241,136,11040,6,0,B|258:206|258:206|231:285,1,140,0|0,3:0|0:0,0:0:0:0:
258,301,11490,1,0,0:0:0:0:
258,301,11580,1,8,0:0:0:0:
203,354,11759,2,0,L|108:345,1,70,0|0,3:0|0:0,0:0:0:0:
89,283,12119,2,0,L|94:222,1,35
116,217,12299,2,0,P|121:176|99:124,1,70,8|0,0:0|0:0,0:0:0:0:
167,92,12658,6,0,L|260:100,1,70,0|0,3:0|0:0,0:0:0:0:
261,127,12927,1,0,0:0:0:0:
261,127,13017,2,0,L|354:118,1,70,8|0,0:0|3:0,0:0:0:0:
389,70,13376,2,0,P|397:34|383:-6,2,70,0|0|8,0:0|3:0|0:0,0:0:0:0:
330,120,13915,6,0,B|325:202|386:171|381:268,1,140,0|0,3:0|3:0,0:0:0:0:
405,274,14364,1,0,0:0:0:0:
405,274,14454,2,0,L|395:364,1,70,8|0,0:0|0:0,0:0:0:0:
328,378,14813,1,0,3:0:0:0:
265,333,14993,2,0,L|204:338,1,35,0|0,3:0|0:0,0:0:0:0:
204,306,15173,2,0,P|163:301|111:323,1,70,8|0,0:0|0:0,0:0:0:0:
100,239,15532,6,0,L|108:146,1,70,0|0,3:0|0:0,0:0:0:0:
134,145,15801,1,0,0:0:0:0:
134,145,15891,2,0,L|125:52,1,70,8|0,0:0|3:0,0:0:0:0:
70,23,16250,2,0,P|34:15|-6:29,2,70,0|0|8,0:0|3:0|0:0,0:0:0:0:
127,75,16789,5,0,0:0:0:0:
188,27,16969,2,0,L|270:34,1,70,2|0,3:0|0:0,0:0:0:0:
316,83,17328,2,0,L|319:124,1,35,0|2,3:0|3:0,0:0:0:0:
350,141,17508,2,0,L|346:182,1,35,0|0,3:0|0:0,0:0:0:0:
328,209,17687,1,2,3:0:0:0:
383,262,17867,6,0,B|393:299|393:299|379:360,2,70,2|2|2,3:0|3:0|3:0,0:0:0:0:
328,209,18406,6,0,L|242:216,1,70,4|0,3:2|0:0,0:0:0:0:
196,168,18765,2,0,B|126:161|134:223|43:204,1,140,2|8,3:2|0:1,0:0:0:0:
4,159,19304,2,0,P|-2:112|16:76,2,70,2|0|0,0:0|3:0|0:0,0:0:0:0:
65,207,19843,6,0,L|58:278,1,70,2|0,0:0|3:0,0:0:0:0:
105,337,20202,1,2,3:0:0:0:
166,290,20382,2,0,B|233:273|233:273|307:293,1,140,2|2,0:0|3:0,0:0:0:0:
359,342,20921,2,0,P|401:352|452:326,1,70,2|0,3:0|0:0,0:0:0:0:
451,316,21190,1,2,0:0:0:0:
451,316,21280,6,0,B|455:265|455:265|471:230|471:230|477:156,1,140,0|0,3:2|3:0,0:0:0:0:
416,129,21819,2,0,L|410:53,1,70,2|8,0:0|0:1,0:0:0:0:
355,4,22178,1,0,3:0:0:0:
289,44,22358,2,0,B|255:35|255:35|220:40,1,70,0|0,3:0|0:0,0:0:0:0:
158,86,22717,6,0,P|95:105|20:73,2,140,0|2|2,3:0|3:0|3:0,0:0:0:0:
220,40,23616,2,0,B|255:35|255:35|289:44,2,70,2|2|2,3:2|3:0|0:0,0:0:0:0:
158,86,24155,6,0,L|163:156,1,70,0|2,3:2|0:0,0:0:0:0:
216,211,24514,2,0,B|260:215|260:215|303:198|303:198|361:203,1,140,0|8,3:0|0:1,0:0:0:0:
403,259,25053,2,0,P|409:306|391:342,2,70,0|0|0,3:0|3:0|0:0,0:0:0:0:
352,202,25592,6,0,L|359:115,1,70,2|0,0:0|3:0,0:0:0:0:
401,68,25951,1,2,3:0:0:0:
346,13,26131,2,0,P|315:4|259:23,1,70,2|2,0:0|3:0,0:0:0:0:
224,65,26490,2,0,L|230:144,2,70,2|2|2,0:0|3:0|0:0,0:0:0:0:
172,7,27029,6,0,B|121:10|121:10|86:26|86:26|12:32,1,140,4|0,3:2|3:0,0:0:0:0:
4,101,27568,2,0,L|10:177,1,70,2|8,0:0|0:1,0:0:0:0:
65,226,27927,1,0,3:0:0:0:
134,191,28107,2,0,B|169:185|169:185|204:193,1,70,0|0,3:0|0:0,0:0:0:0:
257,246,28466,6,0,P|276:309|244:384,2,140,2|2|2,0:0|3:0|3:0,0:0:0:0:
202,192,29364,2,0,B|169:185|169:185|134:191,2,70,2|2|2,3:0|3:0|3:0,0:0:0:0:
257,246,29903,6,0,L|327:241,1,70,4|0,3:2|0:0,0:0:0:0:
381,187,30262,2,0,B|405:108|340:119|379:27,1,140,2|8,3:3|0:1,0:0:0:0:
431,4,30801,2,0,P|478:-2|514:16,2,70,0|2|0,3:0|3:0|0:0,0:0:0:0:
370,51,31340,6,0,L|283:44,1,70,2|2,0:0|3:0,0:0:0:0:
237,1,31699,1,2,3:0:0:0:
178,51,31879,2,0,B|108:46|129:97|47:91,1,140,2|2,0:0|3:2,0:0:0:0:
10,88,32328,1,2,0:0:0:0:
10,88,32418,2,0,L|18:173,1,70,2|2,3:0|0:0,0:0:0:0:
40,187,32687,1,2,0:0:0:0:
39,187,32777,6,0,L|31:272,1,70,0|0,3:2|0:0,0:0:0:0:
80,318,33137,1,2,3:0:0:0:
147,281,33316,2,0,B|186:278|186:278|239:297,1,70,0|8,0:0|0:1,0:0:0:0:
269,343,33675,1,2,0:0:0:0:
334,302,33855,2,0,L|342:217,1,70,2|0,3:0|0:0,0:0:0:0:
404,189,34214,6,0,B|400:145|400:145|379:105|379:105|374:44,1,140,2|2,0:0|3:0,0:0:0:0:
432,2,34753,2,0,L|499:7,2,35,2|2|2,0:0|0:0|3:0,0:0:0:0:
374,54,35113,2,0,B|342:61|342:61|276:48,2,70,2|2|2,3:0|3:0|3:2,0:0:0:0:
410,121,35652,6,0,L|403:190,1,70,2|0,3:2|0:0,0:0:0:0:
340,232,36011,2,0,B|268:232|303:286|192:282,1,140,2|8,3:0|0:1,0:0:0:0:
148,240,36550,2,0,P|142:193|160:157,2,70,2|2|2,3:2|3:0|0:0,0:0:0:0:
213,282,37089,6,0,L|206:369,1,70,2|2,3:2|3:0,0:0:0:0:
278,383,37448,1,2,3:0:0:0:
348,352,37628,2,0,B|388:355|388:355|437:377|437:377|482:381,1,140,0|2,3:0|3:2,0:0:0:0:
511,355,38077,1,2,3:2:0:0:
511,355,38167,2,0,L|503:270,1,70,2|2,3:0|0:3,0:0:0:0:
481,256,38436,1,2,0:3:0:0:
482,256,38526,6,0,L|490:171,1,70,4|0,3:2|0:0,0:0:0:0:
443,123,38885,1,2,3:0:0:0:
374,157,39065,2,0,B|342:165|342:165|284:153,1,70,2|8,3:2|0:1,0:0:0:0:
241,115,39424,1,0,3:0:0:0:
184,167,39604,2,0,L|192:252,1,70,2|0,3:2|0:0,0:0:0:0:
197,313,39963,5,2,3:2:0:0:
256,192,40053,12,2,41041,3:0:0:0:
197,313,41400,6,0,B|274:304|264:360|347:344,1,140,4|8,3:1|0:1,0:0:0:0:
384,292,41939,2,0,L|433:296,1,35,2|2,0:0|0:0,0:0:0:0:
448,269,42119,2,0,P|452:236|430:174,1,70,0|2,3:1|0:0,0:0:0:0:
385,150,42478,2,0,P|381:117|403:55,1,70,8|2,0:1|0:0,0:0:0:0:
335,25,42837,6,0,L|241:33,1,70,0|2,3:1|0:0,0:0:0:0:
191,9,43196,1,8,0:1:0:0:
132,58,43376,2,0,L|136:106,1,35,2|2,0:0|0:0,0:0:0:0:
136,131,43556,2,0,B|102:127|102:127|58:138|58:138|18:134,2,105,0|2|2,3:1|0:0|0:0,0:0:0:0:
211,148,44274,6,0,P|248:203|186:266,1,140,0|8,3:0|0:1,0:0:0:0:
157,312,44813,2,0,L|153:361,1,35,2|2,0:0|0:0,0:0:0:0:
180,376,44993,2,0,P|213:380|275:358,1,70,0|2,3:1|0:0,0:0:0:0:
299,313,45352,2,0,P|332:309|394:331,1,70,8|2,0:1|0:0,0:0:0:0:
419,259,45711,6,0,L|426:170,1,70,0|2,3:1|0:0,0:0:0:0:
467,124,46071,1,8,0:1:0:0:
428,57,46250,2,0,L|339:64,1,70,2|0,0:0|3:0,0:0:0:0:
303,7,46610,1,2,0:0:0:0:
244,56,46789,2,0,L|237:145,1,70,8|2,0:1|0:0,0:0:0:0:
183,180,47149,6,0,B|187:230|187:230|206:266|206:266|211:327,1,140,0|8,3:0|0:1,0:0:0:0:
149,361,47687,2,0,L|114:363,1,35,2|2,0:0|0:0,0:0:0:0:
77,351,47867,2,0,P|83:302|58:260,1,70,0|2,3:1|0:0,0:0:0:0:
28,223,48226,2,0,P|21:174|46:132,1,70,8|2,0:1|0:0,0:0:0:0:
91,111,48586,6,0,B|176:103,1,70,0|2,3:1|0:0,0:0:0:0:
212,162,48945,2,0,B|297:169,1,70,8|2,0:1|0:0,0:0:0:0:
338,115,49304,2,0,P|395:104|452:133,2,105,0|2|2,3:1|0:0|0:0,0:0:0:0:
281,167,50023,6,0,P|275:207|281:240,1,70,0|0,3:0|3:0,0:0:0:0:
347,273,50382,2,0,P|353:313|347:346,1,70,0|0,3:0|3:0,0:0:0:0:
279,376,50741,2,0,P|239:382|206:376,1,70,0|0,3:0|3:0,0:0:0:0:
160,317,51101,2,0,P|120:311|87:317,1,70,0|0,3:0|3:0,0:0:0:0:
41,374,51460,5,0,3:0:0:0:
91,315,51640,1,0,3:0:0:0:
40,257,51819,1,0,3:0:0:0:
87,196,51999,1,0,3:0:0:0:
39,135,52178,2,0,L|33:69,3,35,0|0|0|0,3:0|3:0|3:0|3:0,0:0:0:0:
58,68,52538,6,0,L|118:62,1,35,0|0,3:0|3:0,0:0:0:0:
120,91,52717,2,0,L|180:96,1,35,0|0,3:0|3:0,0:0:0:0:
186,70,52897,5,8,3:0:0:0:
256,192,52987,12,2,53975,3:0:0:0:
186,70,54334,6,0,L|192:149,1,70,2|0,0:3|0:0,0:0:0:0:
221,165,54604,2,0,L|217:217,1,35,0|0,0:0|3:0,0:0:0:0:
195,230,54783,2,0,L|191:282,3,35,2|0|0|0,3:0|3:0|0:0|3:0,0:0:0:0:
123,299,55232,6,0,B|88:309|88:309|27:292,2,70,2|2|2,0:3|0:3|0:3,0:0:0:0:
192,264,55771,6,0,P|247:249|305:283,1,105,4|0,1:1|0:0,0:0:0:0:
289,266,56131,2,0,L|281:344,1,70,8|0,0:0|0:0,0:0:0:0:
344,381,56490,1,2,1:2:0:0:
406,336,56669,2,0,L|398:257,1,70,2|8,0:2|0:0,0:0:0:0:
447,205,57029,6,0,B|453:128|411:153|425:56,1,140,2|0,0:0|0:0,0:0:0:0:
373,10,57568,2,0,P|336:2|274:17,1,70,8|0,0:0|0:0,0:0:0:0:
244,53,57927,1,2,1:2:0:0:
276,122,58107,2,0,P|284:159|269:221,1,70,2|8,0:2|0:0,0:0:0:0:
245,259,58466,6,0,B|180:279|180:279|106:260,1,140,2|0,0:0|0:0,0:0:0:0:
70,194,59005,2,0,L|77:111,1,70,8|0,0:0|0:0,0:0:0:0:
50,51,59364,1,2,1:2:0:0:
114,8,59544,2,0,L|196:0,1,70,2|8,0:2|0:0,0:0:0:0:
249,42,59903,6,0,P|243:83|253:125,1,70,2|0,0:0|1:0,0:0:0:0:
310,155,60262,2,0,P|314:189|308:223,1,70,2|8,0:0|0:0,0:0:0:0:
244,266,60622,2,0,P|238:307|248:349,1,70,0|0,0:0|1:0,0:0:0:0:
307,376,60981,2,0,B|341:385|341:385|395:372,2,70,4|8|2,0:0|0:0|0:0,0:0:0:0:
242,334,61520,6,0,B|194:319|194:319|116:338,1,105,4|2,1:1|0:0,0:0:0:0:
140,331,61879,2,0,L|133:245,1,70,8|2,0:0|0:0,0:0:0:0:
187,204,62238,1,0,1:0:0:0:
255,239,62418,2,0,L|340:245,1,70,2|8,0:0|0:0,0:0:0:0:
384,194,62777,6,0,B|395:118|337:137|349:35,1,140,2|0,0:0|0:0,0:0:0:0:
399,5,63316,2,0,P|458:-2|489:18,1,70,8|0,0:0|0:0,0:0:0:0:
511,63,63675,1,2,1:2:0:0:
481,134,63855,2,0,P|474:193|494:224,1,70,2|8,0:0|0:0,0:0:0:0:
512,269,64214,6,0,B|464:273|464:273|420:299|420:299|357:304,1,140,2|0,0:0|0:0,0:0:0:0:
329,243,64753,1,8,0:0:0:0:
271,294,64933,1,2,0:0:0:0:
271,294,65023,1,2,0:0:0:0:
271,294,65113,2,0,P|274:343|256:382,1,70,0|0,1:0|0:0,0:0:0:0:
193,383,65472,1,10,0:0:0:0:
129,339,65652,6,0,L|121:251,1,70,2|0,0:0|1:0,0:0:0:0:
193,239,66011,2,0,L|200:151,1,70,2|8,0:0|0:0,0:0:0:0:
125,144,66370,2,0,L|117:56,1,70,0|0,0:0|1:0,0:0:0:0:
68,16,66729,2,0,P|42:11|-21:29,2,70,2|10|2,0:0|0:0|0:0,0:0:0:0:
118,74,67268,6,0,P|164:103|207:85,1,105,4|2,1:1|0:0,0:0:0:0:
207,84,67628,2,0,L|214:4,1,70,8|2,0:0|0:0,0:0:0:0:
289,1,67987,1,0,1:0:0:0:
363,21,68166,2,0,L|370:100,1,70,2|8,1:2|0:0,0:0:0:0:
380,167,68526,6,0,P|451:148|512:175,1,140,2|0,0:2|0:0,0:0:0:0:
510,250,69065,2,0,P|501:307|482:330,1,70,10|0,0:0|0:0,0:0:0:0:
431,360,69424,1,2,1:2:0:0:
364,321,69604,2,0,P|306:319|280:334,1,70,2|8,0:0|0:0,0:0:0:0:
222,346,69963,6,0,B|200:282|200:282|233:195,1,140,2|2,1:2|0:2,0:0:0:0:
295,182,70502,2,0,L|388:174,1,70,8|0,0:0|0:0,2:0:0:0:
424,225,70861,1,2,1:2:0:0:
474,166,71041,2,0,L|481:72,1,70,2|8,1:2|0:0,2:0:0:0:
408,66,71400,6,0,P|374:74|319:49,1,70,2|0,1:2|1:0,0:0:0:0:
295,3,71759,2,0,P|261:-5|227:2,1,70,2|8,1:2|0:0,0:0:0:0:
205,77,72119,2,0,P|171:85|137:77,1,70,2|0,1:2|1:0,0:0:0:0:
64,51,72478,2,0,B|53:17|53:17|60:-18,2,70,4|8|8,0:0|0:0|0:2,0:0:0:0:
137,77,73017,6,0,L|125:203,1,105,4|0,1:1|1:0,0:0:0:0:
127,181,73376,2,0,P|174:175|210:190,1,70,8|2,0:0|0:0,0:0:0:0:
245,240,73735,1,2,1:2:0:0:
308,196,73915,2,0,P|314:149|299:113,1,70,2|8,1:2|0:0,0:0:0:0:
336,56,74274,6,0,B|406:43|386:96|477:82,1,140,6|0,0:2|1:0,0:0:0:0:
504,151,74813,2,0,L|497:228,1,70,10|0,0:2|1:0,0:0:0:0:
509,296,75172,1,2,1:2:0:0:
449,345,75352,2,0,L|371:351,1,70,2|8,1:2|0:0,0:0:0:0:
308,320,75711,1,2,1:2:0:0:
273,251,75891,2,0,P|281:214|305:189,1,70,0|0,1:0|0:0,0:0:0:0:
363,141,76250,1,8,0:0:0:0:
315,80,76430,1,2,1:2:0:0:
315,80,76520,1,2,1:2:0:0:
315,80,76610,2,0,P|266:72|226:87,1,70,0|0,1:0|1:0,0:0:0:0:
203,141,76969,1,10,1:2:0:0:
135,104,77149,6,0,L|44:111,1,70,0|4,1:0|1:2,0:0:0:0:
24,175,77508,2,0,L|31:265,1,70,0|8,1:0|0:0,0:0:0:0:
88,295,77867,2,0,L|178:287,1,70,0|0,1:0|0:0,0:0:0:0:
224,328,78226,2,0,B|257:336|257:336|294:312,2,70,0|8|8,1:0|1:2|0:2,0:0:0:0:
157,288,78765,6,0,L|164:195,1,70,4|0,3:1|0:0,0:0:0:0:
192,194,79034,1,0,0:0:0:0:
192,194,79124,2,0,L|183:101,1,70,8|0,0:0|3:0,0:0:0:0:
128,71,79484,2,0,P|92:63|52:77,2,70,0|0|8,0:0|3:0|0:0,0:0:0:0:
185,124,80022,6,0,B|251:143|251:143|327:112,1,140,0|0,3:0|3:0,0:0:0:0:
354,127,80472,1,0,0:0:0:0:
354,127,80562,2,0,L|447:136,1,70,8|0,0:0|0:0,0:0:0:0:
492,98,80921,1,0,3:0:0:0:
507,173,81100,2,0,L|512:234,1,35
494,243,81280,2,0,P|502:288|473:331,1,70,8|0,0:0|0:0,0:0:0:0:
416,313,81639,6,0,L|323:305,1,70,0|0,3:0|0:0,0:0:0:0:
322,278,81908,1,0,0:0:0:0:
322,278,81998,2,0,L|229:287,1,70,8|0,0:0|3:0,0:0:0:0:
182,317,82358,2,0,P|174:353|188:393,2,70,0|0|8,0:0|3:0|0:0,0:0:0:0:
252,284,82896,6,0,B|269:214|269:214|242:135,1,140,0|0,3:0|3:0,0:0:0:0:
269,117,83346,1,0,0:0:0:0:
269,117,83436,1,8,0:0:0:0:
204,75,83615,2,0,L|109:66,1,70,0|0,0:0|3:0,0:0:0:0:
66,106,83975,2,0,L|61:167,1,35
39,172,84155,2,0,P|34:213|56:265,1,70,8|0,0:0|0:0,0:0:0:0:
95,295,84514,6,0,L|188:287,1,70,4|0,3:2|0:0,0:0:0:0:
189,260,84783,1,0,0:0:0:0:
189,260,84873,2,0,L|282:269,1,70,8|0,0:0|3:0,0:0:0:0:
317,317,85232,2,0,P|325:353|311:393,2,70,0|0|8,0:0|3:0|0:0,0:0:0:0:
258,266,85771,6,0,B|253:184|314:215|309:118,1,140,0|0,3:2|3:0,0:0:0:0:
346,131,86220,1,0,0:0:0:0:
346,131,86310,2,0,L|336:41,1,70,8|0,0:0|0:0,0:0:0:0:
287,3,86669,1,0,3:0:0:0:
236,61,86849,2,0,L|175:66,1,35
175,34,87029,2,0,P|134:29|82:51,1,70,8|0,0:0|0:0,0:0:0:0:
55,93,87388,6,0,L|63:186,1,70,0|0,3:0|0:0,0:0:0:0:
95,179,87657,1,0,0:0:0:0:
95,179,87747,2,0,L|86:272,1,70,8|0,0:0|3:0,0:0:0:0:
25,293,88106,2,0,B|15:329|15:329|28:370,2,70,0|0|8,0:0|3:0|0:0,0:0:0:0:
88,248,88645,5,0,0:0:0:0:
147,296,88825,2,0,L|229:289,1,70,2|0,3:0|0:0,0:0:0:0:
269,233,89184,2,0,L|272:192,1,35,0|2,3:0|3:0,2:0:0:0:
303,175,89364,2,0,L|299:134,1,35,0|0,3:0|0:0,2:0:0:0:
281,107,89543,5,0,3:0:0:0:
294,31,89723,1,2,3:0:0:0:
366,4,89903,1,2,3:0:0:0:
433,42,90083,1,2,3:0:0:0:
