osu file format v14

[General]
AudioFilename: audio.mp3
AudioLeadIn: 0
PreviewTime: 55232
Countdown: 0
SampleSet: Soft
StackLeniency: 0.3
Mode: 0
LetterboxInBreaks: 0
WidescreenStoryboard: 1

[Editor]
Bookmarks: 29903,38526,44634,50023,52897
DistanceSpacing: 1
BeatDivisor: 4
GridSize: 4
TimelineZoom: 2.5

[Metadata]
Title:masterpiece (TV Size)
TitleUnicode:masterpiece (TV Size)
Artist:Kawada Mami
ArtistUnicode:川田まみ
Creator:Pachiru
Version:Airin's Light Insane
Source:とある魔術の禁書目録
Tags:Toaru Majutsu no Kinsho Mokuroku A Certain Magical Index AirinCat Kalibe Linada -Arche Ataraxia Rock japanese anime j-pop jpop
BeatmapID:2106219
BeatmapSetID:849526

[Difficulty]
HPDrainRate:5
CircleSize:4
OverallDifficulty:7
ApproachRate:8.8
SliderMultiplier:1.6
SliderTickRate:1

[Events]
//Background and Video events
0,0,"airinya.jpg",0,0
//Break Periods
//Storyboard Layer 0 (Background)
//Storyboard Layer 1 (Fail)
//Storyboard Layer 2 (Pass)
//Storyboard Layer 3 (Foreground)
//Storyboard Layer 4 (Overlay)
//Storyboard Sound Samples

[TimingPoints]
622,359.281437125748,4,2,1,85,1,0
1161,359.281437125748,4,2,1,85,1,0
1161,-200,4,2,1,85,0,0
6909,-111.111111111111,4,2,1,70,0,0
7178,-111.111111111111,4,2,10,85,0,0
7268,-111.111111111111,4,2,1,70,0,0
8077,-111.111111111111,4,2,10,85,0,0
8166,-111.111111111111,4,2,1,70,0,0
8616,-111.111111111111,4,2,10,85,0,0
8705,-111.111111111111,4,2,1,70,0,0
9244,-111.111111111111,4,2,10,85,0,0
9423,-111.111111111111,4,2,1,70,0,0
9604,-111.111111111111,4,2,10,85,0,0
9783,-111.111111111111,4,2,1,70,0,0
10053,-111.111111111111,4,2,10,85,0,0
10143,-111.111111111111,4,2,1,70,0,0
10951,-111.111111111111,4,2,10,85,0,0
11041,-111.111111111111,4,2,1,70,0,0
12119,-111.111111111111,4,2,10,85,0,0
12298,-111.111111111111,4,2,1,70,0,0
12478,-111.111111111111,4,2,10,85,0,0
12658,-111.111111111111,4,2,1,70,0,0
12927,-111.111111111111,4,2,10,85,0,0
13017,-111.111111111111,4,2,1,70,0,0
13825,-111.111111111111,4,2,10,85,0,0
13915,-111.111111111111,4,2,1,70,0,0
14364,-111.111111111111,4,2,10,85,0,0
14454,-111.111111111111,4,2,1,70,0,0
14813,-111.111111111111,4,2,10,85,0,0
14992,-111.111111111111,4,2,1,70,0,0
15262,-111.111111111111,4,2,10,85,0,0
15532,-111.111111111111,4,2,1,70,0,0
15801,-111.111111111111,4,2,10,85,0,0
15891,-111.111111111111,4,2,1,70,0,0
16699,-111.111111111111,4,2,10,85,0,0
16969,-111.111111111111,4,2,1,70,0,0
18406,-142.857142857143,4,2,1,60,0,0
29903,-125,4,2,1,60,0,0
39963,-117.647058823529,4,2,1,60,0,0
41400,-111.111111111111,4,2,69,70,0,0
52178,-111.111111111111,4,2,69,85,0,0
52538,-111.111111111111,4,2,69,85,0,0
54334,-111.111111111111,4,2,1,70,0,0
55771,-95.2380952380952,4,2,99,85,0,1
78765,-105.263157894737,4,2,1,70,0,0
79035,-105.263157894737,4,2,10,85,0,0
79125,-105.263157894737,4,2,1,70,0,0
79933,-105.263157894737,4,2,10,85,0,0
80023,-105.263157894737,4,2,1,70,0,0
80472,-105.263157894737,4,2,10,85,0,0
80562,-105.263157894737,4,2,1,70,0,0
81460,-105.263157894737,4,2,10,85,0,0
81640,-105.263157894737,4,2,1,70,0,0
81909,-105.263157894737,4,2,10,85,0,0
81999,-105.263157894737,4,2,1,70,0,0
82807,-105.263157894737,4,2,10,85,0,0
82897,-105.263157894737,4,2,1,70,0,0
83975,-105.263157894737,4,2,10,85,0,0
84154,-105.263157894737,4,2,1,70,0,0
84334,-105.263157894737,4,2,10,85,0,0
84514,-105.263157894737,4,2,1,70,0,0
84783,-105.263157894737,4,2,10,85,0,0
84873,-105.263157894737,4,2,1,70,0,0
85681,-105.263157894737,4,2,10,85,0,0
85771,-105.263157894737,4,2,1,70,0,0
86490,-105.263157894737,4,2,10,85,0,0
86669,-105.263157894737,4,2,1,70,0,0
87208,-105.263157894737,4,2,10,85,0,0
87388,-105.263157894737,4,2,1,70,0,0
87658,-105.263157894737,4,2,10,85,0,0
87747,-105.263157894737,4,2,1,70,0,0
88646,-105.263157894737,4,2,10,85,0,0
88735,-105.263157894737,4,2,1,70,0,0
89723,-105.263157894737,4,2,1,85,0,0

[Colours]
Combo1 : 247,250,118
Combo2 : 187,94,0
Combo3 : 255,181,106
Combo4 : 198,198,0

[HitObjects]
256,192,1161,12,0,6190,0:0:0:0:
7,43,6909,6,0,L|3:131,1,71.9999978027344,4|0,3:1|0:0,0:0:0:0:
42,184,7178,1,0,0:0:0:0:
56,198,7268,2,0,P|91:204|126:193,1,71.9999978027344,8|0,0:0|3:0,0:0:0:0:
196,104,7628,1,0,0:0:0:0:
270,188,7807,2,0,L|264:268,1,71.9999978027344,0|8,3:0|0:0,0:0:0:0:
318,315,8077,1,0,0:0:0:0:
329,323,8166,6,0,B|382:314|382:314|417:329|417:329|475:317,1,143.999995605469,0|0,3:0|3:0,0:0:0:0:
502,242,8616,1,0,0:0:0:0:
490,223,8705,2,0,B|475:191|475:191|484:149,1,71.9999978027344,8|0,0:0|0:0,0:0:0:0:
512,22,9065,1,0,3:0:0:0:
393,38,9244,2,0,L|346:24,2,35.9999989013672,0|0|8,3:0|0:0|0:0,0:0:0:0:
375,138,9604,1,0,0:0:0:0:
356,152,9693,1,0,0:0:0:0:
337,161,9783,6,0,L|261:159,1,71.9999978027344,0|0,3:0|0:0,0:0:0:0:
193,122,10053,1,0,0:0:0:0:
178,105,10143,2,0,P|166:67|177:22,1,71.9999978027344,8|0,0:0|3:0,0:0:0:0:
264,63,10502,1,0,0:0:0:0:
265,159,10681,2,0,L|264:262,1,71.9999978027344,0|8,3:0|0:0,0:0:0:0:
218,292,10951,1,0,0:0:0:0:
196,281,11041,6,0,B|168:260|133:279|133:279|107:315|65:305,1,143.999995605469,0|0,3:0|3:0,0:0:0:0:
108,175,11580,1,8,0:0:0:0:
0,165,11759,2,0,L|7:252,1,71.9999978027344,0|0,3:0|0:0,0:0:0:0:
114,300,12119,2,0,L|120:256,2,35.9999989013672,0|0|8,0:0|0:0|0:0,0:0:0:0:
229,350,12478,1,0,0:0:0:0:
256,338,12568,1,0,0:0:0:0:
286,323,12658,6,0,L|366:326,1,71.9999978027344,0|0,3:0|0:0,0:0:0:0:
431,297,12927,1,0,0:0:0:0:
443,281,13017,2,0,P|454:241|447:202,1,71.9999978027344,8|0,0:0|3:0,0:0:0:0:
411,90,13376,1,0,0:0:0:0:
321,166,13556,2,0,L|235:162,1,71.9999978027344,0|8,3:0|0:0,0:0:0:0:
182,122,13825,1,0,0:0:0:0:
179,102,13915,6,0,B|195:41|195:41|173:-2|173:-2|143:32,1,143.999995605469,0|0,3:0|3:0,0:0:0:0:
89,79,14364,1,0,0:0:0:0:
77,96,14454,2,0,L|-2:91,1,71.9999978027344,8|0,0:0|0:0,0:0:0:0:
200,199,14813,2,0,L|250:200,2,35.9999989013672,0|0|0,3:0|0:0|3:0,0:0:0:0:
130,294,15172,1,8,0:0:0:0:
101,290,15262,1,0,0:0:0:0:
72,287,15352,1,0,0:0:0:0:
43,283,15442,1,0,0:0:0:0:
17,278,15532,6,0,L|16:205,1,71.9999978027344,0|0,3:0|0:0,0:0:0:0:
48,131,15801,1,0,0:0:0:0:
63,121,15891,2,0,P|98:114|134:127,1,71.9999978027344,8|0,0:0|3:0,0:0:0:0:
233,208,16250,1,0,0:0:0:0:
319,123,16430,2,0,L|309:42,1,71.9999978027344,0|8,3:0|0:0,0:0:0:0:
323,34,16699,1,0,0:0:0:0:
333,19,16789,1,0,0:0:0:0:
446,144,16969,6,0,B|437:227,1,71.9999978027344,2|0,3:0|0:0,0:0:0:0:
359,333,17328,1,0,3:0:0:0:
322,334,17418,1,2,3:0:0:0:
287,323,17508,1,0,3:0:0:0:
262,296,17598,1,0,0:0:0:0:
252,261,17687,1,2,3:0:0:0:
171,160,17867,5,2,3:0:0:0:
87,169,18047,1,2,3:0:0:0:
5,179,18226,1,2,3:0:0:0:
197,159,18406,6,0,L|275:152,1,55.9999982910157,4|0,3:2|0:0,0:0:0:0:
353,138,18765,2,0,P|330:89|347:37,1,111.999996582031,2|8,3:2|0:1,0:0:0:0:
474,14,19304,1,0,0:0:0:0:
423,84,19484,1,0,3:0:0:0:
474,14,19663,1,0,0:0:0:0:
494,155,19843,6,0,L|489:222,1,55.9999982910157,2|0,0:0|3:0,0:0:0:0:
379,271,20202,1,2,3:0:0:0:
379,271,20382,2,0,B|411:260|431:272|431:272|449:299|480:298,1,111.999996582031,2|2,0:0|3:0,0:0:0:0:
377,358,20921,2,0,B|305:368,1,55.9999982910157,2|0,3:0|0:0,0:0:0:0:
302,352,21190,1,0,0:0:0:0:
286,333,21280,6,0,P|234:314|184:335,1,111.999996582031,0|0,3:2|3:0,0:0:0:0:
81,286,21819,2,0,L|70:225,1,55.9999982910157,0|8,3:0|0:1,0:0:0:0:
179,152,22178,1,0,3:0:0:0:
179,152,22358,2,0,L|169:225,1,55.9999982910157,0|0,3:0|0:0,0:0:0:0:
228,315,22717,6,0,B|265:296|265:296|296:308|296:308|334:292,2,111.999996582031,0|2|2,3:0|3:0|3:0,0:0:0:0:
164,233,23616,1,2,3:2:0:0:
61,236,23795,1,2,3:0:0:0:
39,325,23975,1,2,0:0:0:0:
50,208,24155,6,0,L|48:138,1,55.9999982910157,0|0,3:2|0:0,0:0:0:0:
35,51,24514,2,0,B|75:76|75:76|108:77|143:62,1,111.999996582031,0|8,3:0|0:1,0:0:0:0:
248,15,25053,1,0,3:0:0:0:
231,117,25232,1,0,3:0:0:0:
248,15,25412,1,0,0:0:0:0:
336,135,25592,6,0,L|407:132,1,55.9999982910157,2|0,0:0|3:0,0:0:0:0:
505,207,25951,1,2,3:0:0:0:
505,207,26131,2,0,L|433:209,1,55.9999982910157,2|2,0:0|3:0,0:0:0:0:
345,231,26490,1,2,3:0:0:0:
301,311,26669,1,2,3:0:0:0:
369,377,26849,1,2,0:0:0:0:
270,300,27029,6,0,P|219:282|169:304,1,111.999996582031,4|0,3:2|3:0,0:0:0:0:
102,243,27568,2,0,P|119:211|117:180,1,55.9999982910157,0|8,3:0|0:1,0:0:0:0:
21,114,27927,1,0,3:0:0:0:
21,114,28107,2,0,L|27:180,1,55.9999982910157,0|0,3:0|0:0,0:0:0:0:
146,48,28466,6,0,B|177:49|199:33|199:33|225:55|266:44,2,111.999996582031,2|2|2,0:0|3:0|3:0,0:0:0:0:
66,117,29364,1,2,3:0:0:0:
77,201,29544,1,2,3:0:0:0:
94,285,29723,1,2,3:0:0:0:
60,84,29903,6,0,L|51:14,1,64,4|0,3:2|0:0,0:0:0:0:
163,126,30262,2,0,B|201:114|201:114|248:130|248:130|297:117,1,128,2|8,3:3|0:1,0:0:0:0:
351,14,30801,1,0,3:0:0:0:
430,88,30981,1,2,3:0:0:0:
351,14,31160,1,0,0:0:0:0:
371,162,31340,6,0,L|383:242,1,64,2|2,0:0|3:0,0:0:0:0:
294,372,31699,1,2,3:0:0:0:
275,292,31879,2,0,B|350:276|325:331|414:311,1,128,2|2,0:0|3:2,0:0:0:0:
418,308,32328,1,2,0:0:0:0:
431,294,32418,1,2,3:0:0:0:
371,162,32598,1,2,0:0:0:0:
356,179,32687,1,2,0:0:0:0:
340,193,32777,6,0,L|257:187,1,64,0|0,3:2|0:0,0:0:0:0:
165,123,33137,1,2,3:0:0:0:
165,123,33316,2,0,L|245:112,1,64,2|8,0:0|0:1,0:0:0:0:
326,35,33675,1,0,0:0:0:0:
326,35,33855,2,0,L|263:29,1,64,2|0,3:2|0:0,3:0:0:0:
84,92,34214,6,0,B|78:142|78:142|95:166|95:166|90:244,1,128,2|2,0:0|3:0,0:0:0:0:
31,290,34753,2,0,L|-5:287,2,32,2|2|2,0:0|0:0|3:0,0:0:0:0:
91,214,35113,1,2,3:0:0:0:
185,246,35292,1,2,3:0:0:0:
174,340,35472,1,2,3:2:0:0:
211,226,35652,6,0,L|282:215,1,64,2|0,3:2|0:0,0:0:0:0:
367,275,36011,2,0,P|420:278|456:217,1,128,2|8,3:0|0:1,0:0:0:0:
419,101,36550,1,2,0:0:0:0:
371,190,36729,1,2,3:0:0:0:
419,101,36909,1,2,0:0:0:0:
264,149,37089,6,0,L|193:145,1,64,2|2,3:2|3:0,0:0:0:0:
42,120,37448,1,2,3:0:0:0:
70,41,37628,2,0,P|115:76|111:163,1,128,2|2,3:2|3:2,0:0:0:0:
111,165,38077,1,2,3:2:0:0:
101,185,38166,1,2,3:0:0:0:
124,309,38346,1,2,0:3:0:0:
141,321,38436,1,2,0:3:0:0:
163,333,38526,6,0,L|245:323,1,64,4|0,3:2|0:0,0:0:0:0:
305,226,38885,1,2,3:0:0:0:
305,226,39065,2,0,L|223:216,1,64,2|8,3:2|0:1,0:0:0:0:
136,147,39424,1,0,3:0:0:0:
136,147,39604,2,0,L|218:137,1,64,2|0,3:2|0:0,0:0:0:0:
374,62,39963,6,0,B|373:23|344:4|344:4|296:12|292:65,1,136.000002593994,2|2,0:0|3:0,0:0:0:0:
329,171,40502,1,0,3:0:0:0:
325,194,40592,1,0,3:0:0:0:
323,216,40681,1,2,3:0:0:0:
383,308,40861,2,0,L|379:346,2,34.0000006484985,2|0|2,3:0|3:0|3:0,0:0:0:0:
487,278,41220,1,2,3:0:0:0:
497,264,41310,1,0,3:0:0:0:
506,253,41400,6,0,P|475:188|508:126,1,143.999995605469,4|8,3:1|0:1,0:0:0:0:
418,28,41939,1,2,0:0:0:0:
404,42,42029,1,2,0:0:0:0:
389,54,42119,2,0,L|306:54,1,71.9999978027344,0|2,3:1|0:0,0:0:0:0:
213,149,42478,2,0,L|284:144,1,71.9999978027344,8|2,0:1|0:0,0:0:0:0:
156,41,42837,6,0,L|84:35,1,71.9999978027344,0|2,3:1|0:0,0:0:0:0:
185,157,43196,1,8,0:1:0:0:
53,234,43376,1,2,0:0:0:0:
37,220,43466,1,2,0:0:0:0:
23,206,43556,2,0,P|38:157|33:91,2,107.999996704102,0|2|2,3:1|0:0|0:0,0:0:0:0:
144,312,44274,6,0,B|231:291|188:358|310:334,1,143.999995605469,0|8,3:0|0:1,0:0:0:0:
422,350,44813,1,2,0:0:0:0:
440,338,44903,1,2,0:0:0:0:
452,326,44993,2,0,L|446:245,1,71.9999978027344,0|2,3:1|0:0,0:0:0:0:
339,140,45352,2,0,L|335:212,1,71.9999978027344,8|2,0:1|0:0,0:0:0:0:
492,143,45711,6,0,L|484:71,1,71.9999978027344,0|2,3:1|0:0,0:0:0:0:
427,226,46071,1,8,0:1:0:0:
339,140,46250,2,0,L|261:147,1,71.9999978027344,2|0,0:0|3:0,0:0:0:0:
138,151,46610,1,2,0:0:0:0:
187,0,46789,2,0,L|195:96,1,71.9999978027344,8|2,0:1|0:0,0:0:0:0:
103,228,47149,6,0,P|58:196|69:109,1,143.999995605469,0|8,3:0|0:1,0:0:0:0:
200,205,47687,1,2,0:0:0:0:
205,226,47777,1,2,0:0:0:0:
209,246,47867,2,0,L|285:239,1,71.9999978027344,0|2,3:1|0:0,0:0:0:0:
393,154,48226,2,0,L|321:147,1,71.9999978027344,8|2,0:1|0:0,0:0:0:0:
436,249,48586,6,0,L|507:242,1,71.9999978027344,0|2,3:1|0:0,0:0:0:0:
362,329,48945,2,0,L|282:319,1,71.9999978027344,8|2,0:1|0:0,0:0:0:0:
208,231,49304,2,0,B|191:173|233:174|207:119,2,107.999996704102,0|2|2,3:1|0:0|0:0,0:0:0:0:
138,319,50023,6,0,L|64:309,1,71.9999978027344,0|0,3:0|3:0,0:0:0:0:
291,321,50382,2,0,L|365:311,1,71.9999978027344,0|0,3:0|3:0,0:0:0:0:
110,205,50741,2,0,L|36:195,1,71.9999978027344,0|0,3:0|3:0,0:0:0:0:
305,208,51101,2,0,L|379:198,1,71.9999978027344,0|0,3:0|3:0,0:0:0:0:
217,356,51460,5,0,3:0:0:0:
172,269,51640,1,0,3:0:0:0:
221,189,51819,1,0,3:0:0:0:
174,111,51999,1,0,3:0:0:0:
174,111,52178,2,0,L|163:71,3,35.9999989013672,0|0|0|0,3:0|3:0|3:0|3:0,0:0:0:0:
226,17,52538,1,0,3:0:0:0:
261,6,52628,1,0,3:0:0:0:
298,6,52717,1,0,3:0:0:0:
331,22,52807,1,0,3:0:0:0:
361,44,52897,6,0,P|424:36|497:30,2,107.999996704102,8|4|4,3:0|3:0|3:0,0:0:0:0:
263,122,53616,2,0,L|265:175,3,35.9999989013672,2|0|2|0,3:0|0:0|3:0|0:0,0:0:0:0:
339,169,53975,2,0,L|339:214,3,35.9999989013672,2|0|2|0,3:0|0:0|3:0|0:0,0:0:0:0:
416,209,54334,2,0,L|418:294,1,71.9999978027344,2|0,0:3|0:0,0:0:0:0:
460,343,54604,2,0,L|502:329,2,35.9999989013672,0|0|2,0:0|3:0|3:0,0:0:0:0:
386,350,54873,2,0,L|344:341,2,35.9999989013672,0|0|0,3:0|0:0|3:0,0:0:0:0:
242,294,55232,5,2,0:3:0:0:
239,199,55412,1,2,0:3:0:0:
231,94,55592,1,2,0:3:0:0:
220,310,55771,6,0,P|151:330|87:285,1,125.999996154785,4|0,1:1|0:0,0:0:0:0:
46,253,56131,2,0,L|45:167,1,83.9999974365235,8|0,0:0|0:0,0:0:0:0:
231,94,56490,1,2,1:2:0:0:
128,54,56669,2,0,L|129:149,1,83.9999974365235,2|8,0:2|0:0,0:0:0:0:
250,285,57029,6,0,P|341:275|370:207,1,167.999994873047,2|0,0:0|0:0,0:0:0:0:
315,94,57568,2,0,L|231:94,1,83.9999974365235,8|0,0:0|0:0,0:0:0:0:
370,212,57927,1,2,1:2:0:0:
428,112,58107,2,0,L|512:112,1,83.9999974365235,2|8,0:2|0:0,0:0:0:0:
410,293,58466,6,0,P|336:295|289:209,1,167.999994873047,2|0,0:0|0:0,0:0:0:0:
245,99,59005,2,0,P|213:69|169:68,1,83.9999974365235,8|0,0:0|0:0,0:0:0:0:
72,170,59364,1,2,1:2:0:0:
1,104,59544,2,0,P|35:74|76:73,1,83.9999974365235,2|8,0:2|0:0,0:0:0:0:
134,240,59903,6,0,L|135:323,1,83.9999974365235,2|0,0:0|1:0,0:0:0:0:
248,162,60262,2,0,L|249:245,1,83.9999974365235,2|8,0:0|0:0,0:0:0:0:
360,55,60622,2,0,L|361:138,1,83.9999974365235,2|0,0:0|1:0,0:0:0:0:
364,238,60981,1,4,0:0:0:0:
459,125,61160,1,8,0:0:0:0:
254,127,61340,5,2,0:0:0:0:
254,127,61430,1,2,0:0:0:0:
254,127,61520,2,0,P|182:110|126:143,1,125.999996154785,4|2,1:1|0:0,0:0:0:0:
58,118,61879,2,0,P|36:73|60:35,1,83.9999974365235,8|2,0:0|0:0,0:0:0:0:
196,187,62238,1,0,1:0:0:0:
90,247,62418,2,0,P|46:236|-6:237,1,83.9999974365235,2|8,0:0|0:0,0:0:0:0:
215,300,62777,6,0,B|309:280|266:366|376:340,1,167.999994873047,2|0,0:0|0:0,0:0:0:0:
496,298,63316,2,0,P|498:253|505:211,1,83.9999974365235,8|0,0:0|0:0,0:0:0:0:
328,146,63675,1,2,1:2:0:0:
401,76,63855,2,0,P|430:106|424:159,1,83.9999974365235,2|8,0:0|0:0,0:0:0:0:
311,245,64214,6,0,B|244:268|244:268|183:259|192:200,1,167.999994873047,2|0,0:0|0:0,0:0:0:0:
107,84,64753,1,8,0:0:0:0:
5,184,64933,1,2,0:0:0:0:
5,184,65023,1,2,0:0:0:0:
5,184,65113,2,0,P|46:191|96:204,1,83.9999974365235,0|0,1:0|0:0,0:0:0:0:
100,217,65382,1,2,0:0:0:0:
110,231,65472,1,10,0:0:0:0:
239,86,65652,6,0,P|223:41|240:3,1,83.9999974365235,2|0,0:0|1:0,0:0:0:0:
347,157,66011,2,0,P|391:161|416:196,1,83.9999974365235,2|8,0:0|0:0,0:0:0:0:
225,210,66370,2,0,P|198:243|151:250,1,83.9999974365235,2|0,0:0|1:0,0:0:0:0:
53,239,66729,1,2,0:0:0:0:
137,143,66909,1,10,0:0:0:0:
262,315,67089,5,2,0:0:0:0:
262,315,67178,1,2,0:0:0:0:
262,315,67268,2,0,P|303:272|383:290,1,125.999996154785,4|2,1:1|0:0,0:0:0:0:
420,334,67628,2,0,P|449:303|439:254,1,83.9999974365235,8|2,0:0|0:0,0:0:0:0:
337,87,67987,1,0,1:0:0:0:
445,71,68166,2,0,P|437:111|430:169,1,83.9999974365235,2|8,1:2|0:0,0:0:0:0:
228,152,68526,6,0,P|252:84|349:100,1,167.999994873047,2|0,0:2|0:0,0:0:0:0:
250,240,69065,2,0,P|209:244|170:221,1,83.9999974365235,10|0,0:0|0:0,0:0:0:0:
20,131,69424,1,2,1:2:0:0:
0,234,69604,2,0,P|41:237|80:215,1,83.9999974365235,2|8,0:0|0:0,0:0:0:0:
131,89,69963,6,0,L|133:3,1,83.9999974365235,2|0,1:2|1:0,0:0:0:0:
287,120,70322,1,2,0:2:0:0:
287,120,70412,1,2,0:2:0:0:
287,120,70502,2,0,L|285:203,1,83.9999974365235,8|0,0:0|0:0,0:0:0:0:
418,339,70861,1,2,1:2:0:0:
436,237,71041,2,0,P|394:237|356:265,1,83.9999974365235,2|8,1:2|0:0,0:0:0:0:
173,309,71400,6,0,P|131:294|93:287,1,83.9999974365235,2|0,1:2|1:0,0:0:0:0:
0,207,71759,2,0,P|37:195|83:182,1,83.9999974365235,2|8,1:2|0:0,0:0:0:0:
197,96,72119,2,0,P|157:83|112:75,1,83.9999974365235,2|0,1:2|1:0,0:0:0:0:
31,30,72478,1,4,0:0:0:0:
80,182,72658,1,8,0:0:0:0:
246,29,72837,5,8,0:2:0:0:
246,29,72927,1,0,1:0:0:0:
246,29,73017,2,0,P|308:12|362:58,1,125.999996154785,4|0,1:1|1:0,0:0:0:0:
409,99,73376,2,0,P|398:136|388:186,1,83.9999974365235,8|2,0:0|0:0,0:0:0:0:
422,353,73735,1,2,1:2:0:0:
509,305,73915,2,0,P|485:267|439:261,1,83.9999974365235,2|8,1:2|0:0,0:0:0:0:
294,307,74274,6,0,B|237:294|237:294|207:316|207:316|162:318|124:292,1,167.999994873047,6|0,0:2|1:0,0:0:0:0:
86,183,74813,1,10,0:2:0:0:
187,221,74993,1,0,1:0:0:0:
76,363,75172,1,2,1:2:0:0:
2,304,75352,2,0,L|7:218,1,83.9999974365235,2|8,1:2|0:0,0:0:0:0:
112,105,75711,5,2,0:0:0:0:
112,105,75801,1,2,0:0:0:0:
113,104,75891,2,0,B|159:84|194:113|174:132|218:162|265:142,1,167.999994873047,4|8,1:1|0:0,0:0:0:0:
366,0,76430,1,2,1:2:0:0:
366,0,76520,1,2,1:2:0:0:
366,0,76610,2,0,L|277:-1,1,83.9999974365235,0|0,1:0|1:0,0:0:0:0:
262,13,76879,1,2,1:2:0:0:
247,30,76969,1,10,1:2:0:0:
381,138,77149,6,0,P|403:102|448:95,1,83.9999974365235,2|4,1:2|1:2,0:0:0:0:
212,207,77508,2,0,P|169:203|146:172,1,83.9999974365235,2|8,1:2|0:0,0:0:0:0:
368,292,77867,2,0,P|395:324|391:365,1,83.9999974365235,2|0,1:2|0:0,0:0:0:0:
288,349,78226,1,0,1:0:0:0:
313,210,78406,1,8,1:2:0:0:
313,210,78586,1,8,0:2:0:0:
168,280,78765,6,0,P|133:275|67:274,1,75.9999979705811,4|0,3:1|0:0,0:0:0:0:
28,232,79035,1,0,0:0:0:0:
16,218,79125,2,0,P|9:181|24:146,1,75.9999979705811,8|0,0:0|3:0,0:0:0:0:
122,17,79484,1,0,0:0:0:0:
211,111,79663,2,0,L|305:106,1,75.9999979705811,0|8,3:0|0:0,0:0:0:0:
360,86,79933,1,0,0:0:0:0:
375,74,80023,6,0,B|436:78|436:78|487:59|487:59|479:113,1,151.999995941162,0|0,3:0|3:0,0:0:0:0:
450,168,80472,1,0,0:0:0:0:
442,188,80562,2,0,B|427:224|427:224|438:271,1,75.9999979705811,8|0,0:0|0:0,0:0:0:0:
310,301,80921,1,0,3:0:0:0:
327,198,81101,1,0,3:0:0:0:
234,152,81280,1,8,0:0:0:0:
167,225,81460,1,0,0:0:0:0:
167,225,81550,1,0,0:0:0:0:
167,225,81640,6,0,L|170:302,1,75.9999979705811,0|0,3:0|0:0,0:0:0:0:
105,342,81909,1,0,0:0:0:0:
91,354,81999,2,0,P|56:368|21:354,1,75.9999979705811,8|0,0:0|3:0,0:0:0:0:
53,249,82358,1,0,0:0:0:0:
169,300,82538,2,0,L|246:296,1,75.9999979705811,0|8,3:0|0:0,0:0:0:0:
320,310,82807,1,0,0:0:0:0:
343,321,82897,6,0,B|384:329|415:303|415:303|448:328|491:315,1,151.999995941162,0|0,3:0|3:0,0:0:0:0:
474,207,83436,1,8,0:0:0:0:
345,229,83616,2,0,L|249:224,1,75.9999979705811,0|0,0:0|3:0,0:0:0:0:
149,318,83975,2,0,L|152:367,2,37.9999989852906,0|0|8,3:0|0:0|0:0,0:0:0:0:
48,244,84334,1,0,0:0:0:0:
46,223,84424,1,0,0:0:0:0:
44,206,84514,6,0,L|39:130,1,75.9999979705811,4|0,3:2|0:0,0:0:0:0:
70,59,84783,1,0,0:0:0:0:
90,47,84873,2,0,P|134:33|166:41,1,75.9999979705811,8|0,0:0|3:0,0:0:0:0:
258,135,85232,1,0,0:0:0:0:
357,56,85412,2,0,L|455:54,1,75.9999979705811,0|8,3:0|0:0,0:0:0:0:
484,121,85681,1,0,0:0:0:0:
473,136,85771,6,0,B|441:158|440:200|440:200|467:225|462:271,1,151.999995941162,0|0,3:2|3:0,0:0:0:0:
397,374,86310,1,8,0:0:0:0:
318,283,86490,2,0,L|273:283,2,37.9999989852906,0|0|0,0:0|0:0|3:0,0:0:0:0:
373,195,86849,1,0,3:0:0:0:
313,104,87029,1,8,0:0:0:0:
216,140,87208,1,0,0:0:0:0:
216,140,87298,1,0,0:0:0:0:
216,140,87388,6,0,L|131:138,1,75.9999979705811,0|0,3:0|0:0,0:0:0:0:
62,166,87658,1,0,0:0:0:0:
49,183,87747,2,0,P|32:217|37:254,1,75.9999979705811,8|0,0:0|3:0,0:0:0:0:
98,351,88107,1,0,0:0:0:0:
192,288,88286,2,0,L|275:294,1,75.9999979705811,0|8,3:0|0:0,0:0:0:0:
396,206,88646,5,0,0:0:0:0:
396,206,88735,1,0,0:0:0:0:
396,206,88825,2,0,L|318:210,1,75.9999979705811,2|0,3:0|0:0,0:0:0:0:
208,161,89184,1,0,3:0:0:0:
196,124,89274,1,2,3:0:0:0:
204,86,89364,1,0,3:0:0:0:
228,56,89454,1,0,0:0:0:0:
263,41,89544,1,0,3:0:0:0:
385,95,89723,5,2,3:0:0:0:
377,203,89903,1,2,3:0:0:0:
366,306,90083,1,2,3:0:0:0:
