osu file format v14

[General]
AudioFilename: audio.mp3
AudioLeadIn: 0
PreviewTime: 2758
Countdown: 0
SampleSet: Soft
StackLeniency: 0.7
Mode: 0
LetterboxInBreaks: 0
WidescreenStoryboard: 1

[Editor]
Bookmarks: 67303,108212
DistanceSpacing: 1
BeatDivisor: 4
GridSize: 32
TimelineZoom: 1.2

[Metadata]
Title:crossing way
TitleUnicode:crossing way
Artist:Kawada Mami
ArtistUnicode:川田まみ
Creator:sodarose
Version:Normal
Source:蒼の彼方のフォーリズム
Tags:sprite short ver eroge visual novel playstation vita opening ao no kanata no four rhythm beyond the sky into the firmament preference op japanese
BeatmapID:2193879
BeatmapSetID:1049229

[Difficulty]
HPDrainRate:3
CircleSize:3
OverallDifficulty:3.5
ApproachRate:4.5
SliderMultiplier:1
SliderTickRate:1

[Events]
//Background and Video events
0,0,"cc.png",0,0
//Break Periods
//Storyboard Layer 0 (Background)
//Storyboard Layer 1 (Fail)
//Storyboard Layer 2 (Pass)
//Storyboard Layer 3 (Foreground)
//Storyboard Layer 4 (Overlay)
//Storyboard Sound Samples

[TimingPoints]
2758,454.545454545455,4,2,1,40,1,0
17303,-100,4,2,1,60,0,0
31848,-100,4,2,1,40,0,0
79121,-100,4,2,1,60,0,1
93667,-100,4,2,1,60,0,0
111848,-100,4,2,1,20,0,0

[Colours]
Combo1 : 72,73,119
Combo2 : 250,78,176
Combo3 : 177,207,224
Combo4 : 162,15,198

[HitObjects]
147,123,2758,6,0,P|215:125|248:134,1,100,2|0,1:2|0:0,0:0:0:0:
276,172,3439,2,0,P|321:155|379:148,1,100,2|0,1:2|0:0,0:0:0:0:
416,171,4121,1,0,0:0:0:0:
457,262,4576,6,0,P|438:345|430:368,1,100,2|0,1:2|0:0,0:0:0:0:
383,360,5258,2,0,P|311:353|274:345,1,100,2|0,1:2|0:0,0:0:0:0:
245,315,5939,1,0,0:0:0:0:
160,262,6394,6,0,P|131:319|119:361,1,100,2|0,1:2|0:0,0:0:0:0:
83,319,7076,2,0,P|67:271|43:227,1,100,2|0,1:2|0:0,0:0:0:0:
15,186,7758,1,0,0:0:0:0:
71,103,8212,6,0,P|133:100|181:111,1,100,2|0,1:2|0:0,0:0:0:0:
215,86,8894,1,2,1:2:0:0:
215,86,9121,2,0,P|264:123|294:162,1,100
253,246,10030,6,0,P|256:302|265:359,2,100,6|2|2,0:2|1:2|1:2,0:0:0:0:
258,196,11167,1,0,0:0:0:0:
258,196,11394,1,2,1:2:0:0:
319,117,11848,6,0,P|382:108|436:106,2,100,2|2|2,1:2|1:2|1:2,0:0:0:0:
269,111,12985,1,0,0:0:0:0:
269,111,13212,1,2,1:2:0:0:
171,133,13667,6,0,P|115:96|74:78,2,100,2|2|2,1:2|1:2|1:2,0:0:0:0:
190,178,14803,1,0,0:0:0:0:
190,178,15030,1,2,1:2:0:0:
193,278,15485,6,0,L|272:272,1,75,6|2,1:2|1:2,0:0:0:0:
352,303,16167,2,0,B|365:264|348:233|348:233|367:201|367:201|360:154,1,150,6|2,1:2|1:2,0:0:0:0:
338,115,17076,1,2,0:0:0:0:
338,115,17303,6,0,P|280:103|216:104,1,100,6|10,1:2|0:0,0:0:0:0:
194,123,17985,1,0,0:0:0:0:
194,123,18212,2,0,P|182:181|183:245,1,100,2|10,0:0|0:0,0:0:0:0:
209,262,18894,1,0,0:0:0:0:
209,262,19121,6,0,P|263:265|299:308,1,100,2|10,0:0|0:0,0:0:0:0:
330,330,19803,2,0,L|346:228,1,100
375,191,20485,2,0,L|365:139,1,50,10|0,0:0|0:0,0:0:0:0:
352,93,20939,5,2,0:0:0:0:
265,42,21394,2,0,L|212:63,1,50,10|0,0:0|0:0,0:0:0:0:
168,65,21848,2,0,P|162:117|153:173,1,100,2|10,0:0|0:0,0:0:0:0:
121,201,22530,1,0,0:0:0:0:
121,201,22758,6,0,P|165:206|218:250,1,100,2|10,0:0|0:0,0:0:0:0:
202,287,23439,2,0,L|96:313,1,100
56,322,24121,1,10,0:0:0:0:
56,322,24348,2,0,L|39:264,1,50,0|2,1:0|0:0,0:0:0:0:
24,175,25030,6,0,L|38:117,1,50,10|0,0:0|0:0,0:0:0:0:
54,79,25485,2,0,P|103:71|157:69,1,100,2|10,0:0|0:0,0:0:0:0:
199,87,26167,1,0,0:0:0:0:
199,87,26394,6,0,P|235:58|289:53,1,100,2|10,0:0|0:0,0:0:0:0:
321,89,27076,2,0,P|323:153|321:197,1,100
296,232,27758,2,0,P|305:275|315:295,1,50,10|0,0:0|0:0,0:0:0:0:
336,320,28212,6,0,P|387:306|455:298,2,100,2|10|2,0:0|0:0|0:0,0:0:0:0:
294,348,29348,1,0,0:0:0:0:
294,348,29576,1,10,0:0:0:0:
194,335,30030,5,2,0:0:0:0:
194,335,30258,2,0,P|194:357|186:388,2,50,2|2|2,1:2|0:0|0:0,0:0:0:0:
174,288,30939,2,0,P|167:264|165:233,1,50,2|2,1:2|0:0,0:0:0:0:
180,191,31394,2,0,P|191:170|223:146,1,50,2|2,0:0|0:0,0:0:0:0:
259,163,31848,6,0,P|328:173|377:173,1,100,6|2,1:2|1:2,0:0:0:0:
393,208,32530,1,0,0:0:0:0:
393,208,32758,2,0,P|443:159|473:121,1,100,2|2,1:2|1:2,0:0:0:0:
459,86,33439,1,0,0:0:0:0:
459,86,33667,6,0,P|390:76|341:76,1,100,2|2,1:2|1:2,0:0:0:0:
268,116,34576,1,2,1:2:0:0:
179,69,35030,1,2,1:2:0:0:
124,153,35485,6,0,P|120:210|119:262,1,100,2|2,1:2|1:2,0:0:0:0:
129,301,36167,1,0,0:0:0:0:
129,301,36394,2,0,P|176:307|235:279,1,100,2|2,1:2|1:2,0:0:0:0:
263,257,37076,1,0,0:0:0:0:
263,257,37303,6,0,P|310:251|369:279,1,100,2|2,1:2|1:2,0:0:0:0:
431,337,38212,1,2,1:2:0:0:
479,249,38667,1,2,1:2:0:0:
453,152,39121,6,0,P|402:114|360:94,1,100,2|2,1:2|1:2,0:0:0:0:
332,64,39803,1,0,0:0:0:0:
332,64,40030,2,0,P|268:72|224:86,1,100,2|2,1:2|1:2,0:0:0:0:
196,116,40712,1,0,0:0:0:0:
196,116,40939,6,0,P|183:187|181:221,1,100,2|2,1:2|1:2,0:0:0:0:
211,310,41848,1,2,1:2:0:0:
304,274,42303,1,2,1:2:0:0:
342,181,42758,6,0,P|325:131|293:80,1,100,2|2,1:2|1:2,0:0:0:0:
261,60,43439,2,0,L|152:54,1,100,2|0,0:2|0:0,0:0:0:0:
111,59,44121,1,2,1:2:0:0:
38,127,44576,6,0,P|68:186|86:216,1,100,2|2,1:2|1:2,0:0:0:0:
171,265,45485,2,0,L|229:249,1,50,2|0,1:2|0:0,0:0:0:0:
247,210,45939,2,0,L|308:209,1,50,2|0,1:2|0:0,0:0:0:0:
339,235,46394,6,0,P|332:169|334:116,1,100,6|2,1:2|1:2,0:0:0:0:
365,97,47076,1,0,0:0:0:0:
365,97,47303,2,0,P|424:138|460:170,1,100,2|2,0:0|1:2,0:0:0:0:
457,205,47985,1,0,0:0:0:0:
457,205,48212,6,0,P|388:227|356:234,2,100,2|2|2,0:0|1:2|0:0,0:0:0:0:
500,180,49348,1,0,0:0:0:0:
500,180,49576,1,2,1:2:0:0:
492,80,50030,6,0,P|422:58|383:51,1,100,2|2,0:2|1:2,0:0:0:0:
346,43,50712,1,0,0:0:0:0:
346,43,50939,2,0,P|276:65|237:72,1,100,2|2,0:0|1:2,0:0:0:0:
200,59,51621,1,0,0:0:0:0:
200,59,51848,6,0,L|183:168,1,100,2|2,0:0|1:2,0:0:0:0:
130,242,52758,2,0,L|174:270,1,50,2|0,0:0|0:0,0:0:0:0:
199,310,53212,2,0,L|257:321,1,50,2|0,1:2|0:0,0:0:0:0:
290,346,53667,6,0,P|330:315|380:290,1,100,2|2,0:0|1:2,0:0:0:0:
422,302,54348,2,0,P|432:243|448:194,1,100
480,170,55030,2,0,P|466:128|455:107,1,50,2|0,1:2|0:0,0:0:0:0:
427,88,55485,6,0,P|361:119|321:129,1,100,2|2,0:0|1:2,0:0:0:0:
298,160,56167,1,0,0:0:0:0:
298,160,56394,2,0,P|232:129|192:119,1,100,2|2,0:0|1:2,0:0:0:0:
106,131,57303,5,2,0:0:0:0:
45,211,57758,2,0,L|65:263,1,50,2|0,1:2|0:0,0:0:0:0:
87,301,58212,2,0,L|194:308,1,100,2|2,0:0|1:2,0:0:0:0:
284,331,59121,5,2,0:0:0:0:
359,265,59576,1,2,1:2:0:0:
285,196,60030,1,2,0:0:0:0:
311,99,60485,1,2,1:2:0:0:
408,75,60939,6,0,P|409:117|391:162,2,75,2|2|2,1:2|0:0|0:0,0:0:0:0:
382,31,61848,2,0,L|279:41,1,100,0|8,0:0|0:0,0:0:0:0:
233,31,62530,1,2,0:0:0:0:
233,31,62758,6,0,L|221:140,1,100,2|0,0:0|0:0,0:0:0:0:
198,174,63439,1,0,0:0:0:0:
186,223,63667,2,0,L|202:281,2,50,0|0|8,0:0|0:0|0:0,0:0:0:0:
97,175,64576,6,0,P|86:218|94:255,2,75,2|2|2,1:2|0:0|0:0,0:0:0:0:
126,134,65485,2,0,L|235:141,1,100,0|8,0:0|0:0,0:0:0:0:
273,157,66167,1,2,0:0:0:0:
273,157,66394,6,0,P|315:134|378:130,1,100,2|0,0:0|0:0,0:0:0:0:
409,152,67076,1,0,0:0:0:0:
425,199,67303,2,0,P|401:242|363:274,1,100,0|8,0:0|0:0,0:0:0:0:
313,278,67985,1,0,0:0:0:0:
313,278,68212,6,0,P|236:266|201:265,1,100,2|2,0:0|1:2,0:0:0:0:
116,285,69121,1,2,0:0:0:0:
95,187,69576,1,2,1:2:0:0:
164,115,70030,6,0,P|213:105|262:102,1,100,2|2,0:0|1:2,0:0:0:0:
353,143,70939,1,2,0:0:0:0:
439,193,71394,1,2,1:2:0:0:
415,290,71848,6,0,P|356:307|311:296,1,100,2|2,0:0|1:2,0:0:0:0:
272,281,72530,1,0,0:0:0:0:
272,281,72758,2,0,P|277:219|278:178,1,100,2|2,0:0|1:2,0:0:0:0:
259,134,73439,1,0,0:0:0:0:
259,134,73667,6,0,P|254:72|253:31,1,100,2|2,0:0|1:2,0:0:0:0:
209,8,74348,1,0,0:0:0:0:
209,8,74576,2,0,P|159:1|113:17,1,100,2|2,0:2|1:2,0:0:0:0:
79,55,75258,1,0,0:0:0:0:
79,55,75485,6,0,L|72:123,1,50,2|2,0:0|0:0,0:0:0:0:
97,148,75939,2,2,L|90:216,1,50,2|0,1:2|0:0,0:0:0:0:
122,237,76394,2,0,L|115:305,1,50,2|2,0:0|0:0,0:0:0:0:
146,327,76848,2,0,L|139:395,1,50,2|2,1:2|0:0,0:0:0:0:
190,367,77303,6,0,L|300:354,1,100,6|2,1:2|0:0,0:0:0:0:
339,358,77985,2,0,P|322:276|376:227,1,150,2|2,0:0|1:2,0:0:0:0:
425,153,79121,6,0,L|303:140,1,100,6|10,1:2|1:2,0:0:0:0:
292,104,79803,2,0,P|236:123|184:117,1,100
152,95,80485,1,10,1:2:0:0:
71,153,80939,6,0,P|59:222|57:266,1,100,2|10,0:0|1:2,0:0:0:0:
66,301,81621,2,0,P|135:313|179:315,1,100
213,304,82303,1,10,1:2:0:0:
288,238,82758,6,0,P|313:276|339:329,1,100,2|10,0:0|1:2,0:0:0:0:
374,357,83439,2,0,P|402:307|424:258,1,100
424,218,84121,2,0,L|404:171,1,50,10|0,1:2|0:0,0:0:0:0:
378,129,84576,6,0,P|330:145|278:134,1,100,2|10,0:0|1:2,0:0:0:0:
263,89,85258,2,0,P|228:126|177:141,1,100
137,121,85939,2,0,L|114:72,1,50,10|0,1:2|1:0,0:0:0:0:
85,35,86394,6,0,L|68:140,1,100,6|10,0:0|1:2,0:0:0:0:
61,183,87076,2,0,P|122:186|159:224,1,100
170,255,87758,1,10,1:2:0:0:
121,342,88212,6,0,P|81:337|15:326,2,100,2|10|2,0:0|1:2|0:0,0:0:0:0:
219,322,89576,2,0,L|282:316,1,50,10|0,1:2|0:0,0:0:0:0:
318,325,90030,6,0,L|360:274,1,50,2|0,0:0|0:0,0:0:0:0:
390,256,90485,2,0,P|336:236|308:195,1,100,10|2,1:2|0:0,0:0:0:0:
325,104,91394,2,0,L|292:56,1,50,10|0,1:2|0:0,0:0:0:0:
268,21,91848,5,2,0:0:0:0:
268,21,92076,1,0,0:0:0:0:
268,21,92303,2,0,P|207:39|159:58,1,100,10|2,1:2|0:0,0:0:0:0:
86,102,93212,2,0,L|84:169,1,50,10|2,1:2|1:2,0:0:0:0:
80,201,93667,6,0,P|142:191|196:189,1,100,6|10,1:2|0:0,0:0:0:0:
237,269,94576,2,0,P|299:279|353:281,1,100,2|10,0:0|0:0,0:0:0:0:
421,229,95485,6,0,L|402:123,1,100,2|10,0:0|0:0,0:0:0:0:
432,90,96167,2,0,P|393:101|331:89,1,100
307,49,96848,2,0,L|258:79,1,50,10|0,0:0|0:0,0:0:0:0:
222,102,97303,5,2,0:0:0:0:
154,176,97758,2,0,L|168:241,1,50,10|0,0:0|0:0,0:0:0:0:
174,273,98212,2,0,P|112:261|58:241,1,100,2|10,0:0|0:0,0:0:0:0:
66,149,99121,6,0,P|91:109|148:84,1,100,2|10,0:0|0:0,0:0:0:0:
186,75,99803,2,0,P|248:91|290:98,1,100
329,76,100485,1,10,0:0:0:0:
329,76,100712,2,0,L|358:124,1,50,0|2,1:0|0:0,0:0:0:0:
422,192,101394,6,0,L|406:251,1,50,10|0,0:0|0:0,0:0:0:0:
410,290,101848,2,0,P|362:274|308:291,1,100,2|10,0:0|0:0,0:0:0:0:
234,344,102758,6,0,P|227:286|220:235,1,100,2|10,0:0|0:0,0:0:0:0:
257,209,103439,2,0,P|233:155|211:108,1,100
176,87,104121,2,0,L|127:72,1,50,10|0,0:0|0:0,0:0:0:0:
80,56,104576,6,0,P|128:39|183:26,2,100,2|10|2,0:0|0:0|0:0,0:0:0:0:
35,78,105712,1,0,0:0:0:0:
35,78,105939,1,10,0:0:0:0:
23,177,106394,6,0,L|65:220,1,50,2|2,0:0|1:2,0:0:0:0:
106,202,106848,2,0,L|161:224,1,50,2|2,1:2|0:0,0:0:0:0:
194,193,107303,2,0,L|254:190,1,50,2|2,0:0|0:0,0:0:0:0:
281,158,107758,2,0,L|334:131,2,50,2|2|2,1:2|0:0|0:0,0:0:0:0:
256,192,108439,12,0,111848,0:0:0:0:
