osu file format v14

[General]
AudioFilename: audio.mp3
AudioLeadIn: 5
PreviewTime: 55174
Countdown: 0
SampleSet: Soft
StackLeniency: 0.7
Mode: 0
LetterboxInBreaks: 0
WidescreenStoryboard: 0

[Editor]
DistanceSpacing: 1.1
BeatDivisor: 4
GridSize: 4
TimelineZoom: 1.4

[Metadata]
Title:belief
TitleUnicode:belief
Artist:Kawada Mami
ArtistUnicode:川田まみ
Creator:Janpai
Version:Easy
Source:電撃文庫 FIGHTING CLIMAX
Tags:Dengeki Bunko Faitingu Kuraimakkusu Opening Ecole Software French Bread SEGA 尾崎武士 Takeshi Ozaki 中沢伴行 Tomoyuki Nakazawa PlayStation 3 PS3 Vita Arcade Irohas MugiwaraSekai Yuii-
BeatmapID:1134817
BeatmapSetID:535792

[Difficulty]
HPDrainRate:2
CircleSize:3
OverallDifficulty:2
ApproachRate:3
SliderMultiplier:0.799999999999999
SliderTickRate:1

[Events]
//Background and Video events
0,0,"BG.jpg",0,0
Video,-98,"Video.mp4"
//Break Periods
//Storyboard Layer 0 (Background)
//Storyboard Layer 1 (Fail)
//Storyboard Layer 2 (Pass)
//Storyboard Layer 3 (Foreground)
//Storyboard Sound Samples

[TimingPoints]
66,326.086956521739,4,2,1,50,1,0
9196,-100,4,2,1,60,0,0
22239,-100,4,2,1,40,0,0
31370,-100,4,2,1,60,0,0
43109,-100,4,2,1,50,0,0
50935,-100,4,2,1,60,0,0
56152,-100,4,2,1,70,0,1
66587,-100,4,2,1,60,0,0

[Colours]
Combo1 : 103,112,176
Combo2 : 132,21,27
Combo3 : 195,147,44
Combo4 : 128,128,128

[HitObjects]
20,136,66,6,0,B|60:84|60:84|62:105|75:155|120:172|162:174|189:153,1,240,6|8,0:0|0:3,0:0:0:0:
147,76,1370,2,0,P|197:61|262:209,1,240,2|2,0:0|0:0,0:0:0:0:
215,263,2674,2,0,B|327:319|327:211|463:263,1,240,2|8,0:0|0:0,0:0:0:0:
504,190,3979,2,0,P|502:120|368:146,1,240,6|0,0:0|0:0,0:0:0:0:
310,200,5283,6,0,B|299:235|258:252|258:252|274:158|207:92,1,240,2|8,0:0|0:3,0:0:0:0:
148,157,6587,2,0,P|172:241|50:242,1,240,2|2,0:0|0:0,0:0:0:0:
23,331,7892,2,0,P|82:357|237:289,1,240,2|8,0:0|0:0,0:0:0:0:
295,229,9196,5,14,0:0:0:0:
345,157,9522,2,0,L|443:149,2,79.9999999999999,8|8|8,0:0|0:0|0:0,0:0:0:0:
268,113,10500,6,0,L|170:121,1,79.9999999999999,6|8,0:0|0:0,0:0:0:0:
100,128,11152,2,0,B|86:87|86:87|90:60|90:60|70:10,2,120,2|2|8,0:0|0:0|0:0,0:0:0:0:
153,198,12457,2,0,L|163:277,1,79.9999999999999,0|8,0:0|0:0,0:0:0:0:
106,343,13109,6,0,P|133:360|197:359,1,79.9999999999999,2|8,0:0|0:0,0:0:0:0:
258,324,13761,2,0,P|307:310|384:344,2,120,2|2|8,0:0|0:0|0:0,0:0:0:0:
187,271,15065,1,12,0:0:0:0:
118,326,15392,1,8,0:0:0:0:
41,283,15718,6,0,L|33:203,1,79.9999999999999,6|8,0:0|0:0,0:0:0:0:
107,155,16370,2,0,P|71:124|-10:125,2,120,2|2|8,0:0|0:0|0:0,0:0:0:0:
157,226,17674,2,0,L|251:210,1,79.9999999999999,0|8,0:0|0:0,0:0:0:0:
322,198,18326,6,0,B|330:160|330:160|318:107,1,79.9999999999999,2|8,0:0|0:0,0:0:0:0:
253,63,18979,2,0,B|304:37|304:37|383:42,2,120,2|2|2,0:0|0:0|0:0,0:0:0:0:
201,134,20283,2,0,L|121:139,1,79.9999999999999,2|8,0:0|0:0,0:0:0:0:
48,89,20935,5,2,0:0:0:0:
136,353,22239,6,0,P|168:336|253:334,1,120,12|4,0:0|0:3,0:0:0:0:
336,350,23055,1,2,0:0:0:0:
423,354,23381,2,0,P|427:297|418:221,1,120,2|2,0:0|0:0,0:0:0:0:
358,170,24196,2,0,P|350:131|352:92,1,79.9999999999999,8|4,0:3|0:3,0:0:0:0:
410,26,24848,6,0,P|364:5|285:34,2,120,8|4|4,0:0|0:3|0:3,0:0:0:0:
352,92,26152,2,0,P|398:113|477:84,2,120,2|2|4,0:0|0:0|0:3,0:0:0:0:
269,123,27457,6,0,B|253:169|253:169|269:252,1,120,8|4,0:0|0:3,0:0:0:0:
330,299,28272,1,2,0:0:0:0:
260,352,28598,2,0,L|129:344,1,120,2|2,0:0|0:0,0:0:0:0:
52,343,29413,2,0,P|40:300|42:251,1,79.9999999999999,8|4,0:3|0:3,0:0:0:0:
85,189,30065,6,0,P|130:203|204:171,2,120,8|4|4,0:0|0:3|0:3,0:0:0:0:
8,144,31370,2,0,L|13:55,1,79.9999999999999,2|2,0:0|0:0,0:0:0:0:
93,26,32022,1,8,0:0:0:0:
167,72,32348,1,8,0:0:0:0:
244,31,32674,6,0,L|329:21,1,79.9999999999999,6|8,0:0|0:0,0:0:0:0:
410,36,33326,2,0,P|421:74|426:113,1,79.9999999999999,2|8,0:0|0:0,0:0:0:0:
371,182,33979,2,0,P|422:202|494:169,2,120,2|0|8,0:0|0:0|0:0,0:0:0:0:
310,118,35283,6,0,L|219:114,1,79.9999999999999,2|8,0:0|0:0,0:0:0:0:
158,166,35935,2,0,L|67:170,1,79.9999999999999,2|8,0:0|0:0,0:0:0:0:
10,113,36587,2,0,P|18:60|84:28,2,120,2|0|8,0:0|0:0|0:0,0:0:0:0:
78,168,37892,6,0,L|65:258,2,79.9999999999999,6|8|2,0:0|0:0|0:0,0:0:0:0:
146,113,38870,1,8,0:0:0:0:
198,183,39196,2,0,P|227:194|280:181,1,79.9999999999999,2|8,0:0|0:0,0:0:0:0:
351,143,39848,2,0,P|380:132|433:145,1,79.9999999999999,2|8,0:0|0:0,0:0:0:0:
486,205,40500,5,2,0:0:0:0:
440,280,40826,2,0,L|457:366,2,79.9999999999999,8|2|8,0:0|0:0|0:0,0:0:0:0:
359,243,41805,2,0,B|320:236|320:236|276:250,1,79.9999999999999,14|8,0:0|0:0,0:0:0:0:
222,313,42457,2,0,L|129:316,1,79.9999999999999,8|8,0:0|0:0,0:0:0:0:
54,322,43109,6,0,P|31:284|44:160,1,160,6|8,0:0|0:0,0:0:0:0:
159,45,44413,2,0,L|163:130,1,79.9999999999999,2|2,0:0|0:0,0:0:0:0:
210,198,45065,2,0,L|214:283,1,79.9999999999999,8|0,0:0|0:0,0:0:0:0:
278,337,45718,6,0,P|307:330|360:323,2,79.9999999999999,0|2|8,0:0|0:0|0:0,0:0:0:0:
195,367,46696,1,0,0:0:0:0:
112,335,47022,2,0,P|81:316|58:227,2,120,2|2|0,0:0|0:0|0:0,0:0:0:0:
141,252,48326,6,0,P|161:219|283:201,1,160,2|8,0:0|0:0,0:0:0:0:
388,328,49631,2,0,P|341:333|260:326,2,120,2|0|0,0:0|0:0|0:0,0:0:0:0:
451,267,50935,5,6,0:0:0:0:
391,202,51261,2,0,B|379:168|379:168|390:81,1,120,2|2,0:0|0:0,0:0:0:0:
315,36,52076,2,0,L|230:43,1,79.9999999999999,8|8,0:0|0:3,0:0:0:0:
147,53,52729,2,0,P|109:38|31:65,1,120,8|8,0:0|0:3,0:0:0:0:
96,124,53544,6,0,B|116:186|79:186|95:250,2,120,12|8|8,0:0|0:3|0:3,0:0:0:0:
153,57,54848,2,0,B|215:36|215:74|279:58,2,120,8|2|2,0:0|0:0|0:0,0:0:0:0:
185,138,56152,6,0,L|200:220,1,79.9999999999999,6|8,0:0|0:0,0:0:0:0:
240,294,56805,2,0,P|281:281|359:312,1,120,2|2,0:0|0:0,0:0:0:0:
424,354,57620,1,2,0:0:0:0:
482,288,57946,2,0,L|487:152,1,120,2|8,0:0|0:0,0:0:0:0:
489,80,58761,6,0,B|443:63|443:63|361:73,1,120,2|0,0:0|0:0,0:0:0:0:
304,127,59576,2,0,L|212:122,1,79.9999999999999,2|2,0:0|0:0,0:0:0:0:
147,78,60229,1,2,0:0:0:0:
64,108,60555,2,0,P|47:141|51:224,1,120,2|8,0:0|0:0,0:0:0:0:
112,283,61370,6,0,P|152:267|198:269,1,79.9999999999999,6|8,0:0|0:0,0:0:0:0:
263,313,62022,2,0,P|309:324|381:286,1,120,2|2,0:0|0:0,0:0:0:0:
308,235,62837,2,0,L|296:106,1,120,2|0,0:0|0:0,0:0:0:0:
312,28,63652,1,8,0:0:0:0:
400,22,63979,6,0,P|469:53|496:141,1,160,2|2,0:0|0:0,0:0:0:0:
482,214,64957,1,8,0:0:0:0:
437,289,65283,2,0,L|349:298,1,79.9999999999999,2|2,0:0|0:0,0:0:0:0:
278,260,65935,1,8,0:0:0:0:
215,321,66261,1,2,0:0:0:0:
141,272,66587,6,0,L|136:187,1,79.9999999999999,6|0,0:0|0:0,0:0:0:0:
136,104,67239,2,0,P|118:81|24:82,2,120,8|2|0,0:0|0:0|0:0,0:0:0:0:
214,144,68544,2,0,P|258:151|305:143,1,79.9999999999999,8|0,0:0|0:0,0:0:0:0:
378,127,69196,6,0,L|382:221,1,79.9999999999999,2|0,0:0|0:0,0:0:0:0:
469,211,69848,2,0,L|461:87,2,120,8|8|2,0:0|0:0|0:0,0:0:0:0:
418,282,71152,1,8,0:0:0:0:
343,234,71479,1,8,0:0:0:0:
270,183,71805,6,0,P|259:145|258:90,1,79.9999999999999,6|8,0:0|0:0,0:0:0:0:
195,41,72457,2,0,L|115:40,1,79.9999999999999,2|8,0:0|0:0,0:0:0:0:
43,91,73109,2,0,P|28:117|30:178,1,79.9999999999999,2|8,0:0|0:0,0:0:0:0:
64,244,73761,2,0,P|99:261|139:261,1,79.9999999999999,2|8,0:0|0:0,0:0:0:0:
213,307,74413,6,0,P|226:258|187:187,1,120,2|0,0:0|0:0,0:0:0:0:
114,171,75229,1,0,0:0:0:0:
25,166,75555,2,0,L|25:75,1,79.9999999999999
96,35,76207,2,0,P|147:10|219:33,1,120,0|2,0:0|0:0,0:0:0:0:
237,105,77022,6,0,L|318:104,1,79.9999999999999,12|2,0:0|0:0,0:0:0:0:
404,115,77674,2,0,L|405:196,1,79.9999999999999,2|0,0:0|0:0,0:0:0:0:
363,272,78326,1,12,0:0:0:0:
284,312,78652,2,0,P|246:300|198:308,1,79.9999999999999,2|8,0:0|0:0,0:0:0:0:
122,331,79305,1,8,0:0:0:0:
58,271,79631,6,0,P|52:230|50:183,1,79.9999999999999,6|8,0:0|0:0,0:0:0:0:
65,104,80283,1,2,0:0:0:0:
144,141,80609,2,0,P|192:156|286:98,1,160,8|8,0:0|0:0,0:0:0:0:
336,174,81587,2,0,L|349:258,1,79.9999999999999,0|8,0:0|0:0,0:0:0:0:
434,238,82239,6,0,L|421:158,1,79.9999999999999,2|8,0:0|0:0,0:0:0:0:
465,82,82892,1,2,0:0:0:0:
394,29,83218,2,0,B|314:17|314:17|227:40,1,160,8|8,0:0|0:0,0:0:0:0:
203,118,84196,2,0,L|213:208,1,79.9999999999999,0|8,0:0|0:0,0:0:0:0:
162,270,84848,6,0,B|105:283|105:283|40:270,2,120,6|0|8,0:0|0:0|0:0,0:0:0:0:
211,197,86152,2,0,L|305:188,1,79.9999999999999,2|8,0:0|0:0,0:0:0:0:
363,139,86805,2,0,L|357:88,2,40,2|2|8,0:0|0:0|0:0,0:0:0:0:
256,192,87457,12,2,89984,0:0:0:0:
