osu file format v14

[General]
AudioFilename: audio.mp3
AudioLeadIn: 0
PreviewTime: 55106
Countdown: 0
SampleSet: Soft
StackLeniency: 0.4
Mode: 0
LetterboxInBreaks: 0
WidescreenStoryboard: 1

[Editor]
DistanceSpacing: 2.3
BeatDivisor: 8
GridSize: 4
TimelineZoom: 1

[Metadata]
Title:belief (Cut Ver.)
TitleUnicode:belief (Cut Ver.)
Artist:Kawada Mami
ArtistUnicode:川田まみ
Creator:- Nilou -
Version:Special
Source:電撃文庫 FIGHTING CLIMAX
Tags:video game pop j-pop jpop Dengeki Bunko Faitingu Kuraimakkusu Opening Ecole Software SEGA 尾崎武士 Takeshi Ozaki 中沢伴行 Tomoyuki Nakazawa PlayStation 3 PS3 Vita Arcade Sajinn Kujinn Reform Syndicate_ Clorinde LGM Larsgonmad Sotarks fubuki actiol fujinn japanese rock jrock j-rock
BeatmapID:4397733
BeatmapSetID:2096969

[Difficulty]
HPDrainRate:5.5
CircleSize:4
OverallDifficulty:8.7
ApproachRate:9.3
SliderMultiplier:1.74
SliderTickRate:1

[Events]
//Background and Video events
0,0,"bg.jpg",0,0
//Break Periods
//Storyboard Layer 0 (Background)
//Storyboard Layer 1 (Fail)
//Storyboard Layer 2 (Pass)
//Storyboard Layer 3 (Foreground)
//Storyboard Layer 4 (Overlay)
//Storyboard Sound Samples

[TimingPoints]
79,326.086956521739,4,2,1,60,1,0
79,-142.857142857143,4,2,1,60,0,0
405,-142.857142857143,4,2,2,60,0,0
894,-142.857142857143,4,2,1,60,0,0
1057,-142.857142857143,4,2,3,60,0,0
1220,-142.857142857143,4,2,1,60,0,0
1383,-142.857142857143,4,2,2,60,0,0
2524,-142.857142857143,4,2,3,60,0,0
2687,-142.857142857143,4,2,4,60,0,0
2850,-142.857142857143,4,2,2,60,0,0
3176,-142.857142857143,4,2,5,60,0,0
3258,-142.857142857143,4,2,1,60,0,0
3339,-142.857142857143,4,2,2,60,0,0
3828,-142.857142857143,4,2,4,60,0,0
4318,-142.857142857143,4,2,2,60,0,0
4481,-142.857142857143,4,2,1,60,0,0
4644,-142.857142857143,4,2,2,60,0,0
5133,-142.857142857143,4,2,1,60,0,0
5296,-142.857142857143,4,2,2,60,0,0
6111,-142.857142857143,4,2,6,60,0,0
6274,-142.857142857143,4,2,3,60,0,0
6437,-142.857142857143,4,2,7,60,0,0
6519,-142.857142857143,4,2,1,60,0,0
6600,-142.857142857143,4,2,2,60,0,0
7089,-142.857142857143,4,2,1,60,0,0
7252,-142.857142857143,4,2,2,60,0,0
7742,-142.857142857143,4,2,5,60,0,0
7823,-142.857142857143,4,2,1,60,0,0
7905,-142.857142857143,4,2,6,60,0,0
8068,-142.857142857143,4,2,2,60,0,0
8394,-142.857142857143,4,2,5,60,0,0
8475,-142.857142857143,4,2,1,60,0,0
8557,-142.857142857143,4,2,2,60,0,0
9046,-142.857142857143,4,2,4,60,0,0
9209,-142.857142857143,4,2,5,60,0,0
9535,-83.3333333333333,4,2,3,62,0,0
9617,-83.3333333333333,4,2,8,62,0,0
9780,-83.3333333333333,4,2,3,62,0,0
9861,-83.3333333333333,4,2,8,62,0,0
10269,-83.3333333333333,4,2,4,62,0,0
10513,-111.111111111111,4,2,9,70,0,0
10839,-111.111111111111,4,2,5,70,0,0
12959,-111.111111111111,4,2,8,70,0,0
13448,-111.111111111111,4,2,5,70,0,0
15078,-111.111111111111,4,2,3,70,0,0
15242,-111.111111111111,4,2,5,70,0,0
15405,-111.111111111111,4,2,1,70,0,0
15568,-111.111111111111,4,2,3,70,0,0
15731,-111.111111111111,4,2,8,70,0,0
16057,-111.111111111111,4,2,5,70,0,0
18176,-111.111111111111,4,2,7,70,0,0
18502,-111.111111111111,4,2,5,70,0,0
20133,-111.111111111111,4,2,4,70,0,0
20296,-111.111111111111,4,2,5,70,0,0
20948,-142.857142857143,4,2,5,70,0,0
21274,-142.857142857143,4,2,1,50,0,0
22252,326.086956521739,4,2,8,60,1,0
22252,-125,4,2,8,60,0,0
22741,-125,4,2,9,60,0,0
23230,-125,4,2,1,60,0,0
24860,-125,4,2,8,60,0,0
25349,-125,4,2,1,60,0,0
26328,-125,4,2,9,60,0,0
26817,-125,4,2,1,60,0,0
27143,-125,4,2,9,60,0,0
27469,-125,4,2,8,60,0,0
27958,-125,4,2,9,60,0,0
28447,-125,4,2,1,60,0,0
28936,-125,4,2,9,60,0,0
29425,-125,4,2,1,60,0,0
30078,-125,4,2,8,60,0,0
30567,-125,4,2,1,60,0,0
31545,-125,4,2,9,60,0,0
31871,-125,4,2,1,60,0,0
32034,-125,4,2,10,60,0,0
32686,-111.111111111111,4,2,7,65,0,0
33012,-111.111111111111,4,2,11,65,0,0
33175,-111.111111111111,4,2,5,65,0,0
33665,-111.111111111111,4,2,11,65,0,0
33828,-111.111111111111,4,2,5,65,0,0
34317,-111.111111111111,4,2,12,65,0,0
34480,-111.111111111111,4,2,8,65,0,0
34969,-111.111111111111,4,2,11,65,0,0
35132,-111.111111111111,4,2,8,65,0,0
35621,-111.111111111111,4,2,11,65,0,0
35784,-111.111111111111,4,2,5,65,0,0
36273,-111.111111111111,4,2,12,65,0,0
36436,-111.111111111111,4,2,5,65,0,0
36925,-111.111111111111,4,2,12,65,0,0
37088,-111.111111111111,4,2,8,65,0,0
37578,-111.111111111111,4,2,11,65,0,0
37741,-111.111111111111,4,2,5,65,0,0
38230,-111.111111111111,4,2,11,65,0,0
38556,-111.111111111111,4,2,5,65,0,0
38882,-111.111111111111,4,2,11,65,0,0
39208,-111.111111111111,4,2,8,65,0,0
39534,-111.111111111111,4,2,12,65,0,0
39697,-111.111111111111,4,2,8,65,0,0
40186,-111.111111111111,4,2,12,65,0,0
40349,-111.111111111111,4,2,8,65,0,0
40838,-111.111111111111,4,2,11,65,0,0
41001,-111.111111111111,4,2,5,65,0,0
41491,-111.111111111111,4,2,3,65,0,0
41572,-111.111111111111,4,2,10,65,0,0
41817,-111.111111111111,4,2,7,65,0,0
41980,-111.111111111111,4,2,5,65,0,0
42632,-83.3333333333333,4,2,5,65,0,0
43121,-125,4,2,5,60,0,0
43447,-125,4,2,8,60,0,0
43773,-125,4,2,11,60,0,0
43936,-125,4,2,8,60,0,0
44262,-125,4,2,1,60,0,0
44425,-125,4,2,5,60,0,0
44588,-125,4,2,1,60,0,0
44751,-125,4,2,8,60,0,0
45078,-125,4,2,12,60,0,0
45241,-125,4,2,8,60,0,0
45567,-125,4,2,3,60,0,0
45893,-125,4,2,1,60,0,0
46056,-125,4,2,8,60,0,0
46382,-125,4,2,11,60,0,0
46545,-125,4,2,5,60,0,0
47360,-125,4,2,8,60,0,0
47686,-125,4,2,12,60,0,0
47849,-125,4,2,5,60,0,0
48175,-125,4,2,1,60,0,0
48338,-125,4,2,5,60,0,0
48501,-125,4,2,1,60,0,0
48665,-125,4,2,8,60,0,0
48991,-125,4,2,11,60,0,0
49154,-125,4,2,8,60,0,0
49480,-125,4,2,1,60,0,0
49643,-125,4,2,5,60,0,0
49806,-125,4,2,1,60,0,0
49969,-125,4,2,8,60,0,0
50295,-125,4,2,12,60,0,0
50458,-125,4,2,5,60,0,0
50947,-111.111111111111,4,2,6,70,0,0
51273,-111.111111111111,4,2,5,70,0,0
51599,-111.111111111111,4,2,11,70,0,0
51762,-111.111111111111,4,2,8,70,0,0
52088,-111.111111111111,4,2,3,70,0,0
52251,-111.111111111111,4,2,1,70,0,0
52415,-111.111111111111,4,2,10,70,0,0
52496,-111.111111111111,4,2,3,70,0,0
52578,-111.111111111111,4,2,11,70,0,0
52741,-111.111111111111,4,2,3,70,0,0
52904,-111.111111111111,4,2,1,70,0,0
53230,-111.111111111111,4,2,4,70,0,0
53556,-111.111111111111,4,2,7,60,0,0
54045,-111.111111111111,4,2,9,60,0,0
54534,-111.111111111111,4,2,7,60,0,0
55023,-111.111111111111,4,2,1,60,0,0
55349,-111.111111111111,4,2,9,60,0,0
55838,-111.111111111111,4,2,1,60,0,0
56165,326.086956521739,4,2,1,80,1,0
56165,-99.9999999999999,4,2,1,80,0,0
56491,-99.9999999999999,4,2,12,80,0,0
56817,-99.9999999999999,4,2,8,80,0,0
57143,-99.9999999999999,4,2,11,80,0,0
57306,-99.9999999999999,4,2,8,80,0,0
57795,-99.9999999999999,4,2,12,80,0,0
57958,-99.9999999999999,4,2,8,80,0,0
58447,-99.9999999999999,4,2,11,80,0,0
58610,-99.9999999999999,4,2,5,80,0,0
59099,-99.9999999999999,4,2,11,80,0,0
59262,-99.9999999999999,4,2,8,80,0,0
59751,-99.9999999999999,4,2,11,80,0,0
59915,-99.9999999999999,4,2,8,80,0,0
60404,-99.9999999999999,4,2,11,80,0,0
60567,-99.9999999999999,4,2,8,80,0,0
61056,-99.9999999999999,4,2,4,80,0,0
61382,-99.9999999999999,4,2,7,80,0,0
61708,-99.9999999999999,4,2,11,80,0,0
62034,-99.9999999999999,4,2,5,80,0,0
62360,-99.9999999999999,4,2,12,80,0,0
62523,-99.9999999999999,4,2,8,80,0,0
63012,-99.9999999999999,4,2,12,80,0,0
63175,-99.9999999999999,4,2,5,80,0,0
63665,-99.9999999999999,4,2,11,80,0,0
63828,-99.9999999999999,4,2,5,80,0,0
64317,-99.9999999999999,4,2,12,80,0,0
64643,-99.9999999999999,4,2,8,80,0,0
64969,-99.9999999999999,4,2,4,80,0,0
65050,-99.9999999999999,4,2,10,80,0,0
65132,-83.3333333333333,4,2,10,80,0,0
65296,312.5,4,2,10,75,1,0
65296,-100,4,2,10,75,0,0
65452,-100,4,2,5,75,0,0
65921,331.491712707182,4,2,5,75,1,0
65921,-83.3333333333333,4,2,5,75,0,0
66252,-83.3333333333333,4,2,1,75,0,0
66418,-83.3333333333333,4,2,3,75,0,0
66583,326.086956521739,4,2,1,85,1,0
66583,-100,4,2,1,85,0,0
66603,-83.3333333333333,4,2,1,85,0,0
66909,-83.3333333333333,4,2,12,85,0,0
67072,-83.3333333333333,4,2,1,85,0,0
67235,-100,4,2,12,85,0,0
67398,-100,4,2,1,85,0,0
67561,-100,4,2,11,85,0,0
67724,-100,4,2,1,85,0,0
67887,-100,4,2,12,85,0,0
68050,-100,4,2,1,85,0,0
68213,-100,4,2,12,85,0,0
68376,-100,4,2,1,85,0,0
68539,-100,4,2,12,85,0,0
68702,-100,4,2,1,85,0,0
68865,-100,4,2,11,85,0,0
69028,-100,4,2,1,85,0,0
69191,-100,4,2,11,85,0,0
69354,-100,4,2,1,85,0,0
69517,-100,4,2,12,85,0,0
69680,-100,4,2,1,85,0,0
69843,-100,4,2,12,85,0,0
70006,-100,4,2,1,85,0,0
70169,-100,4,2,11,85,0,0
70333,-100,4,2,1,85,0,0
70496,-100,4,2,12,85,0,0
70659,-100,4,2,1,85,0,0
70822,-100,4,2,12,85,0,0
70985,-100,4,2,1,85,0,0
71148,-100,4,2,12,80,0,0
71229,-83.3333333333333,4,2,4,80,0,0
71474,-83.3333333333333,4,2,4,70,0,0
71800,-125,4,2,4,60,0,0
72126,-125,4,2,3,60,0,0
73919,-125,4,2,1,60,0,0
74083,-125,4,2,3,60,0,0
74246,-125,4,2,1,60,0,0
74409,-125,4,2,2,55,0,0
74735,-125,4,2,5,55,0,0
77017,-125,4,2,5,65,0,0
77343,-125,4,2,1,65,0,0
77425,-125,4,2,4,65,0,0
78322,326.086956521739,4,2,9,70,1,0
78322,-100,4,2,9,70,0,0
78648,-100,4,2,12,70,0,0
78974,-100,4,2,8,70,0,0
79300,-100,4,2,11,70,0,0
79463,-100,4,2,8,70,0,0
79952,-100,4,2,12,70,0,0
80115,-100,4,2,8,70,0,0
80604,-100,4,2,11,70,0,0
80767,-100,4,2,5,70,0,0
81256,-100,4,2,11,70,0,0
81582,-100,4,2,8,70,0,0
81908,-100,4,2,12,70,0,0
82072,-100,4,2,8,70,0,0
82561,-100,4,2,12,70,0,0
82724,-100,4,2,8,70,0,0
83213,-100,4,2,4,70,0,0
83376,-100,4,2,9,70,0,0
83865,-100,4,2,11,70,0,0
84191,-111.111111111111,4,2,5,70,0,0
84517,-111.111111111111,4,2,11,70,0,0
84680,-111.111111111111,4,2,8,70,0,0
85169,-111.111111111111,4,2,11,70,0,0
85332,-111.111111111111,4,2,8,70,0,0
85821,-111.111111111111,4,2,11,70,0,0
85985,-111.111111111111,4,2,5,70,0,0
86474,-111.111111111111,4,2,11,70,0,0
86800,-111.111111111111,4,2,5,70,0,0
87126,-111.111111111111,4,2,3,70,0,0
87207,-111.111111111111,4,2,10,70,0,0
87289,-83.3333333333333,4,2,10,70,0,0
87615,-83.3333333333333,4,2,5,70,0,0
88430,-83.3333333333333,4,2,9,70,0,0
88512,-83.3333333333333,4,2,4,70,0,0
88756,-100,4,2,1,65,0,0
89082,-100,4,2,12,65,0,0
89245,-100,4,2,8,65,0,0
89735,-100,4,2,11,65,0,0
89843,-125,4,2,11,65,0,0
89857,-125,4,2,8,65,0,0
89898,-125,4,2,8,65,0,0
90387,-125,4,2,11,65,0,0
90550,-125,4,2,8,65,0,0
91039,-100,4,2,12,65,0,0
91202,-100,4,2,5,65,0,0
91691,-100,4,2,12,65,0,0
91854,-100,4,2,8,65,0,0
92343,-100,4,2,11,65,0,0
92506,-100,4,2,8,65,0,0
92995,-100,4,2,11,65,0,0
93158,-100,4,2,5,65,0,0
93648,-100,4,2,4,65,0,0
93974,-125,4,2,4,55,0,0
94300,-125,4,2,3,55,0,0
96093,-125,4,2,1,55,0,0
96256,-125,4,2,3,55,0,0
96419,-125,4,2,1,55,0,0
96582,-125,4,2,2,50,0,0
96908,-125,4,2,1,50,0,0

[Colours]
Combo1 : 239,208,143
Combo2 : 198,4,4
Combo3 : 227,203,119
Combo4 : 226,106,71

[HitObjects]
41,32,79,5,6,1:2:0:0:
91,93,242,2,0,P|131:105|161:108,1,60.8999981414796,2|0,2:2|1:1,0:0:0:0:
266,37,568,2,0,P|296:42|325:52,1,60.8999981414796,2|2,2:2|1:3,0:0:0:0:
216,155,894,1,10,2:3:0:0:
381,223,1057,1,10,1:3:0:0:
304,150,1220,1,10,2:2:0:0:
306,141,1301,1,8,2:2:0:0:
308,132,1383,5,2,1:3:0:0:
162,229,1546,2,0,P|111:240|26:271,1,121.799996282959,2|2,2:2|2:2,0:0:0:0:
45,262,2035,1,2,1:2:0:0:
192,369,2198,2,0,P|178:336|174:293,1,60.8999981414796,10|2,2:2|1:2,0:0:0:0:
162,229,2524,1,2,2:3:0:0:
304,150,2687,6,0,P|291:80|286:4,1,121.799996282959,10|0,1:3|1:1,0:0:0:0:
286,29,3176,1,10,2:3:0:0:
433,104,3339,5,0,1:1:0:0:
440,93,3502,1,8,2:3:0:0:
382,27,3665,1,2,1:2:0:0:
304,150,3828,1,8,2:3:0:0:
378,153,3992,6,0,P|445:145|485:197,1,121.799996282959,6|2,1:3|1:3,0:0:0:0:
443,297,4481,1,8,2:2:0:0:
438,289,4562,1,8,2:2:0:0:
433,281,4644,1,2,1:3:0:0:
357,235,4807,1,8,2:3:0:0:
288,361,4970,2,0,P|326:371|353:385,1,60.8999981414796,2|8,1:3|2:2,0:0:0:0:
275,264,5296,6,0,P|237:286|136:290,1,121.799996282959,2|0,1:2|1:1,0:0:0:0:
76,238,5785,1,2,2:2:0:0:
76,238,6111,1,10,2:3:0:0:
23,297,6274,1,2,1:3:0:0:
160,337,6437,1,14,2:3:0:0:
168,334,6519,1,8,2:2:0:0:
176,331,6600,5,2,1:3:0:0:
141,189,6763,2,0,P|126:148|117:112,1,60.8999981414796,2|0,2:2|1:1,0:0:0:0:
116,51,7089,1,10,2:2:0:0:
185,88,7252,1,2,1:2:0:0:
331,13,7415,1,10,2:2:0:0:
245,9,7578,2,0,P|261:53|267:79,1,60.8999981414796,2|10,1:2|2:3,0:0:0:0:
274,98,7823,1,8,2:2:0:0:
274,98,7905,6,0,P|316:105|408:134,1,121.799996282959,10|0,1:3|1:1,0:0:0:0:
447,59,8394,1,10,2:3:0:0:
447,59,8557,2,0,P|460:77|484:123,1,60.8999981414796,0|8,1:1|2:3,0:0:0:0:
500,241,8883,1,2,1:2:0:0:
451,297,9046,1,10,2:3:0:0:
318,288,9209,6,0,P|348:280|378:274,1,60.8999981414796,4|0,1:2|0:0,0:0:0:0:
500,241,9535,1,8,2:3:0:0:
497,230,9617,1,8,2:3:0:0:
494,220,9698,2,0,L|481:163,1,52.1999984069825,8|8,2:3|2:2,0:0:0:0:
383,41,9861,1,8,3:3:0:0:
508,96,10024,1,8,2:3:0:0:
341,193,10187,1,8,3:3:0:0:
330,190,10269,1,8,2:3:0:0:
319,187,10350,1,4,2:3:0:0:
201,20,10513,5,4,1:2:0:0:
148,92,10676,2,0,P|197:101|238:115,1,78.2999976104737,2|8,1:2|2:2,0:0:0:0:
348,277,11002,2,0,P|299:268|258:254,1,78.2999976104737,2|0,2:2|1:1,0:0:0:0:
72,310,11328,1,0,1:1:0:0:
67,145,11492,1,8,2:2:0:0:
183,295,11655,6,0,P|171:332|165:371,1,78.2999976104737,2|0,1:2|0:0,0:0:0:0:
165,371,11981,1,2,1:2:0:0:
14,256,12144,2,0,P|54:232|100:240,1,78.2999976104737,10|0,2:2|1:1,0:0:0:0:
189,299,12470,5,2,2:2:0:0:
321,189,12633,1,2,1:3:0:0:
252,146,12796,5,10,2:2:0:0:
346,352,12959,2,0,P|371:300|474:300,1,156.599995220947,2|2,1:3|1:2,0:0:0:0:
290,268,13448,1,8,2:2:0:0:
433,187,13611,2,0,P|470:199|508:204,1,78.2999976104737,2|0,2:2|1:1,0:0:0:0:
436,100,13937,1,0,1:1:0:0:
351,206,14100,1,8,2:2:0:0:
267,19,14263,6,0,P|283:66|291:106,1,78.2999976104737,2|0,1:2|0:0,0:0:0:0:
142,244,14589,1,2,1:2:0:0:
241,261,14752,2,0,P|227:224|218:186,1,78.2999976104737,10|2,2:2|1:2,0:0:0:0:
47,30,15078,1,14,2:2:0:0:
236,106,15242,1,8,1:2:0:0:
243,104,15323,1,8,2:2:0:0:
250,102,15405,2,0,L|305:90,1,39.1499988052369,10|8,1:3|2:3,0:0:0:0:
185,227,15568,2,0,L|147:236,1,39.1499988052369,8|8,2:3|2:3,0:0:0:0:
16,131,15731,5,4,1:2:0:0:
125,101,15894,2,0,P|99:147|94:195,1,78.2999976104737,2|8,1:2|2:2,0:0:0:0:
154,298,16220,2,0,P|180:252|185:204,1,78.2999976104737,2|0,2:2|1:1,0:0:0:0:
33,287,16546,1,0,1:1:0:0:
117,373,16709,1,8,2:2:0:0:
260,257,16872,6,0,P|307:240|404:287,1,156.599995220947,2|2,1:2|1:2,0:0:0:0:
512,177,17361,2,0,P|475:163|437:154,1,78.2999976104737,10|0,2:2|1:1,0:0:0:0:
356,158,17687,1,2,2:2:0:0:
500,283,17850,1,2,1:3:0:0:
437,154,18013,5,10,2:2:0:0:
280,281,18176,1,6,1:2:0:0:
157,197,18339,5,0,1:1:0:0:
263,131,18502,2,0,P|249:167|240:205,1,78.2999976104737,2|8,1:2|2:2,0:0:0:0:
337,51,18828,2,0,P|294:88|194:77,1,156.599995220947,2|0,2:2|1:1,0:0:0:0:
32,165,19318,1,8,2:2:0:0:
95,0,19481,6,0,P|108:36|117:74,1,78.2999976104737,2|8,1:2|2:2,0:0:0:0:
78,227,19807,1,2,1:2:0:0:
290,209,19970,1,2,1:2:0:0:
263,131,20133,1,14,2:2:0:0:
119,309,20296,5,2,1:2:0:0:
108,304,20459,1,0,1:1:0:0:
317,384,20622,1,10,2:2:0:0:
315,370,20703,1,8,2:2:0:0:
310,357,20785,1,8,2:2:0:0:
305,342,20867,1,8,2:2:0:0:
302,329,20948,6,0,P|252:280|205:287,1,121.799996282959,2|8,0:0|2:2,0:0:0:0:
134,374,21519,1,8,2:2:0:0:
131,368,21600,2,0,P|119:314|92:232,1,121.799996282959,8|0,2:2|0:0,0:0:0:0:
12,149,22089,1,10,2:2:0:0:
10,158,22171,1,8,2:2:0:0:
8,168,22252,6,0,P|56:217|140:184,1,139.2,10|2,1:2|1:2,0:0:0:0:
223,156,22741,2,0,P|263:168|307:191,1,69.6,10|0,1:3|1:1,0:0:0:0:
155,87,23067,1,2,1:2:0:0:
224,24,23230,1,6,1:3:0:0:
288,179,23393,6,0,P|256:165|223:156,1,69.6,2|0,1:2|1:1,0:0:0:0:
315,30,23719,2,0,B|353:39|379:72|379:72|408:50|457:50,1,139.2,4|0,1:3|1:1,0:0:0:0:
498,152,24208,2,0,P|461:132|423:140,1,69.6,4|0,1:3|1:1,0:0:0:0:
400,254,24534,1,10,1:3:0:0:
404,263,24697,1,2,1:2:0:0:
318,249,24860,6,0,P|381:227|481:212,1,139.2,10|0,1:2|1:1,0:0:0:0:
244,359,25349,2,0,P|181:337|81:322,1,139.2,10|0,1:3|1:1,0:0:0:0:
219,198,25838,2,0,P|227:245|245:290,1,69.6,4|0,1:3|1:1,0:0:0:0:
364,384,26165,6,0,P|376:315|399:249,1,139.2,2|0,1:2|1:1,0:0:0:0:
233,265,26654,2,0,P|220:196|197:130,1,139.2,2|0,1:2|1:1,0:0:0:0:
284,17,27143,2,0,L|267:93,1,69.6,8|0,1:3|1:1,0:0:0:0:
144,212,27469,5,10,1:2:0:0:
93,151,27632,2,0,P|61:134|20:134,1,69.6,2|0,1:2|1:1,0:0:0:0:
144,212,27958,2,0,P|145:248|165:283,1,69.6,10|0,1:3|1:1,0:0:0:0:
176,136,28284,1,2,1:2:0:0:
303,199,28447,1,6,1:3:0:0:
227,292,28610,6,0,P|193:281|159:277,1,69.6,2|0,1:2|1:1,0:0:0:0:
0,317,28936,2,0,P|63:309|112:370,1,139.2,8|0,1:3|1:1,0:0:0:0:
70,276,29425,2,0,P|80:242|84:208,1,69.6,4|2,1:3|1:2,0:0:0:0:
145,89,29751,1,10,1:3:0:0:
221,175,29915,1,2,1:2:0:0:
303,10,30078,6,0,P|354:62|436:41,1,139.2,10|0,1:2|1:1,0:0:0:0:
506,157,30567,2,0,P|466:139|430:137,1,69.6,10|0,1:3|1:1,0:0:0:0:
366,262,30893,1,0,1:1:0:0:
366,262,31056,2,0,L|387:175,1,69.6,4|2,1:3|1:2,0:0:0:0:
509,339,31382,5,2,1:2:0:0:
441,278,31545,2,0,L|424:345,1,69.6,10|0,1:3|1:1,0:0:0:0:
423,345,31871,1,6,1:3:0:0:
294,215,32034,1,8,1:3:0:0:
448,152,32197,1,10,1:3:0:0:
242,76,32360,1,8,1:3:0:0:
270,290,32523,1,8,1:3:0:0:
389,14,32686,6,0,P|379:56|364:197,1,156.599995220947,4|10,1:2|2:3,0:0:0:0:
270,290,33175,1,2,2:2:0:0:
205,239,33338,5,2,1:3:0:0:
193,236,33501,1,2,2:2:0:0:
327,342,33665,5,10,2:3:0:0:
339,345,33828,1,2,2:2:0:0:
158,384,33991,6,0,P|100:332|137:241,1,156.599995220947,2|10,1:3|2:3,0:0:0:0:
172,147,34480,1,2,2:2:0:0:
41,227,34643,1,2,1:3:0:0:
29,223,34806,1,0,1:1:0:0:
122,78,34969,1,10,2:3:0:0:
194,230,35132,1,2,1:2:0:0:
43,55,35295,5,2,1:3:0:0:
43,55,35621,2,0,P|30:92|25:140,1,78.2999976104737,10|2,2:3|2:2,0:0:0:0:
194,230,35947,1,2,1:3:0:0:
103,267,36110,2,0,P|116:230|121:182,1,78.2999976104737,2|10,2:2|2:3,0:0:0:0:
157,38,36436,1,2,2:2:0:0:
157,38,36599,6,0,P|195:45|239:64,1,78.2999976104737,2|2,1:3|2:2,0:0:0:0:
364,85,36925,1,10,2:3:0:0:
322,22,37088,2,0,P|264:58|283:167,1,156.599995220947,2|0,2:2|1:1,0:0:0:0:
362,232,37578,1,10,2:3:0:0:
367,221,37741,1,0,1:1:0:0:
439,191,37904,6,0,P|491:203|527:224,1,78.2999976104737,2|0,1:3|0:0,0:0:0:0:
386,304,38230,2,0,P|401:355|401:396,1,78.2999976104737,10|0,2:3|0:0,0:0:0:0:
285,228,38556,2,0,P|248:267|212:287,1,78.2999976104737,2|0,1:3|0:0,0:0:0:0:
351,147,38882,2,0,L|334:46,1,78.2999976104737,10|0,2:3|0:0,0:0:0:0:
388,7,39208,5,2,1:3:0:0:
198,61,39371,2,0,P|230:93|271:88,1,78.2999976104737,2|10,2:2|2:3,0:0:0:0:
152,281,39697,2,0,P|97:259|-29:238,1,156.599995220947,2|0,2:2|1:1,0:0:0:0:
130,154,40186,1,10,2:3:0:0:
140,159,40349,1,0,1:1:0:0:
211,196,40512,6,0,P|225:236|234:285,1,78.2999976104737,2|2,1:3|2:2,0:0:0:0:
51,135,40838,2,0,P|37:95|28:46,1,78.2999976104737,10|2,2:3|2:2,0:0:0:0:
207,6,41165,1,2,1:3:0:0:
213,16,41328,1,2,1:2:0:0:
235,90,41491,1,8,2:3:0:0:
229,116,41572,1,8,2:3:0:0:
223,143,41654,1,10,2:3:0:0:
217,169,41735,1,8,2:3:0:0:
211,196,41817,6,0,B|249:205|277:240|277:240|316:216|357:223,1,156.599995220947,4|8,1:2|2:2,0:0:0:0:
470,136,42306,1,2,1:2:0:0:
358,36,42469,1,8,2:2:0:0:
351,40,42550,1,8,2:2:0:0:
342,46,42632,2,0,L|270:31,1,52.1999984069825,10|8,2:2|2:2,0:0:0:0:
213,16,42795,1,8,1:2:0:0:
67,147,42958,1,8,2:2:0:0:
73,154,43040,1,8,2:2:0:0:
77,159,43121,6,0,P|133:170|227:203,1,139.2,2|2,1:3|1:3,0:0:0:0:
210,195,43610,1,0,0:0:0:0:
302,336,43773,1,10,2:3:0:0:
348,269,43936,2,0,P|298:255|228:299,1,139.2,0|8,1:1|2:2,0:0:0:0:
181,363,44344,1,8,2:2:0:0:
175,354,44425,6,0,P|113:336|84:336,1,69.6,2|8,1:3|2:2,0:0:0:0:
70,265,44751,2,0,P|35:259|3:246,1,69.6,2|2,1:3|2:2,0:0:0:0:
216,199,45078,1,10,2:3:0:0:
151,153,45241,2,0,P|139:97|221:44,1,139.2,0|10,1:1|2:2,0:0:0:0:
383,19,45730,6,0,P|422:29|489:49,2,104.4,2|10|2,2:3|2:2|2:2,0:0:0:0:
193,43,46382,1,10,2:3:0:0:
256,88,46545,1,2,1:2:0:0:
383,19,46708,2,0,P|366:64|363:103,1,69.6,2|10,2:3|2:2,0:0:0:0:
261,171,47034,6,0,P|290:210|378:207,1,139.2,2|2,1:3|1:3,0:0:0:0:
502,203,47523,1,2,1:2:0:0:
337,135,47686,1,10,2:3:0:0:
449,96,47849,1,0,1:1:0:0:
495,211,48012,2,0,P|478:247|463:305,1,69.6,2|8,2:3|2:2,0:0:0:0:
366,378,48338,6,0,P|333:348|217:327,1,139.2,2|2,1:3|1:3,0:0:0:0:
93,308,48828,1,0,0:0:0:0:
119,380,48991,2,0,P|128:317|159:218,1,139.2,10|2,2:3|2:3,0:0:0:0:
87,95,49480,1,8,2:2:0:0:
94,101,49561,1,8,2:2:0:0:
102,107,49643,6,0,P|119:150|99:197,1,69.6,2|8,1:3|2:2,0:0:0:0:
0,205,49969,2,0,P|33:215|64:231,1,69.6,2|2,1:3|2:2,0:0:0:0:
216,316,50295,1,10,2:3:0:0:
216,316,50458,1,0,1:1:0:0:
353,96,50784,1,0,1:1:0:0:
362,189,50947,6,0,P|325:176|288:166,1,78.2999976104737,12|0,2:2|0:0,0:0:0:0:
189,29,51273,1,2,1:3:0:0:
195,38,51436,1,0,1:1:0:0:
128,185,51599,1,10,2:3:0:0:
50,72,51762,2,0,P|101:83|112:132,1,78.2999976104737,2|2,1:2|2:3,0:0:0:0:
80,248,52088,1,10,2:2:0:0:
208,171,52251,5,10,2:3:0:0:
269,325,52415,1,10,2:3:0:0:
270,317,52496,1,8,2:2:0:0:
271,309,52578,1,12,2:3:0:0:
287,165,52741,1,10,2:2:0:0:
132,315,52904,5,8,2:3:0:0:
322,384,53067,1,10,2:3:0:0:
195,250,53230,1,10,2:3:0:0:
184,254,53393,1,4,2:3:0:0:
485,154,53556,5,8,1:2:0:0:
291,56,53719,1,0,1:1:0:0:
317,263,53882,5,0,1:1:0:0:
403,99,54045,1,8,1:3:0:0:
442,224,54208,1,0,1:1:0:0:
278,138,54371,1,0,1:1:0:0:
254,323,54534,1,4,1:3:0:0:
442,224,54697,1,0,1:1:0:0:
206,41,54860,5,8,1:2:0:0:
133,279,55023,1,8,1:3:0:0:
322,384,55186,5,2,1:2:0:0:
366,167,55349,1,8,1:3:0:0:
133,279,55512,5,2,1:2:0:0:
297,218,55675,1,0,1:1:0:0:
122,124,55838,5,6,1:3:0:0:
214,205,56001,1,0,1:1:0:0:
47,346,56165,6,0,P|110:323|245:302,2,174,6|10|2,1:2|2:3|1:3,0:0:0:0:
214,205,56980,1,0,1:1:0:0:
76,195,57143,1,10,2:3:0:0:
283,379,57306,6,0,P|298:323|321:275,1,87,2|2,1:2|2:3,0:0:0:0:
174,125,57632,2,0,P|190:85|201:43,1,87,2|10,1:2|2:3,0:0:0:0:
437,182,57958,2,0,P|384:186|277:226,1,130.5,2|0,1:2|0:0,0:0:0:0:
303,213,58284,1,2,1:2:0:0:
436,76,58447,1,10,2:3:0:0:
504,243,58610,1,0,1:1:0:0:
351,328,58773,6,0,P|277:340|197:272,1,174,2|10,1:3|2:3,0:0:0:0:
42,384,59262,2,0,P|82:367|124:357,1,87,2|2,2:2|1:3,0:0:0:0:
0,123,59588,1,2,1:2:0:0:
162,190,59751,1,10,2:3:0:0:
126,51,59915,6,0,P|109:91|99:133,1,87,2|2,1:2|2:3,0:0:0:0:
61,239,60241,1,2,1:2:0:0:
224,128,60404,1,10,2:3:0:0:
33,16,60567,2,0,P|106:51|98:132,1,174,2|2,1:2|1:2,0:0:0:0:
0,181,61056,1,14,2:2:0:0:
186,296,61219,1,8,2:2:0:0:
292,79,61382,6,0,P|375:56|461:41,2,174,4|10|2,1:2|2:3|1:3,0:0:0:0:
244,204,62197,1,2,1:2:0:0:
363,26,62360,1,10,2:3:0:0:
509,269,62523,6,0,P|460:232|385:244,1,130.5,2|0,1:2|0:0,0:0:0:0:
387,243,62849,1,2,1:2:0:0:
512,103,63012,1,10,2:3:0:0:
439,310,63175,1,0,1:1:0:0:
387,243,63338,2,0,P|347:226|305:216,1,87,2|0,2:3|1:1,0:0:0:0:
182,346,63665,2,0,P|139:335|100:319,1,87,10|0,2:3|1:1,0:0:0:0:
193,112,63991,6,0,P|216:195|231:281,2,174,2|10|2,1:3|2:3|1:3,0:0:0:0:
94,27,64806,1,2,1:2:0:0:
280,110,64969,1,10,2:3:0:0:
288,108,65050,1,8,2:3:0:0:
298,106,65132,2,0,L|370:92,1,52.1999984069825,10|8,2:3|2:3,0:0:0:0:
135,211,65296,5,0,1:1:0:0:
26,73,65452,1,8,2:2:0:0:
172,28,65608,1,2,2:3:0:0:
49,229,65764,1,8,2:2:0:0:
286,195,65921,5,10,1:2:0:0:
275,192,66003,1,8,2:2:0:0:
264,189,66086,2,0,L|207:176,1,52.1999984069825,8|8,0:0|2:2,0:0:0:0:
101,306,66252,1,10,1:3:0:0:
112,303,66335,1,8,2:3:0:0:
123,300,66418,2,0,L|180:287,1,52.1999984069825,8|8,2:3|2:3,0:0:0:0:
367,176,66583,5,6,1:2:0:0:
123,92,66746,1,0,1:1:0:0:
123,300,66909,5,10,2:3:0:0:
289,169,67072,1,0,1:1:0:0:
381,363,67235,5,10,2:3:0:0:
206,254,67398,1,0,1:1:0:0:
366,88,67561,1,10,2:3:0:0:
471,294,67724,2,0,P|407:273|369:263,1,87,2|10,1:2|2:3,0:0:0:0:
347,3,68050,2,0,P|360:68|371:106,1,87,2|10,1:2|2:3,0:0:0:0:
177,239,68376,2,0,P|227:194|254:166,1,87,2|10,1:2|2:3,0:0:0:0:
219,43,68702,1,2,1:2:0:0:
341,188,68865,5,10,2:3:0:0:
158,139,69028,1,0,1:1:0:0:
365,87,69191,5,10,2:3:0:0:
308,299,69354,1,0,1:1:0:0:
134,57,69517,5,10,2:3:0:0:
209,339,69680,1,0,1:1:0:0:
304,28,69843,1,10,2:3:0:0:
402,289,70006,5,2,1:2:0:0:
181,129,70169,1,10,2:3:0:0:
127,312,70333,2,0,P|114:256|98:219,1,87,2|10,1:2|2:3,0:0:0:0:
224,0,70659,2,0,P|237:56|253:93,1,87,2|10,1:2|2:3,0:0:0:0:
369,210,70985,1,2,1:2:0:0:
422,142,71148,5,10,2:3:0:0:
395,128,71229,1,8,2:2:0:0:
365,124,71311,1,10,2:2:0:0:
335,130,71392,1,8,2:2:0:0:
310,147,71474,1,14,2:2:0:0:
284,162,71555,1,8,2:2:0:0:
255,169,71637,1,10,2:2:0:0:
224,165,71718,1,8,2:2:0:0:
198,151,71800,6,0,P|221:246|230:318,2,139.2,2|8|0,1:2|3:2|1:1,0:0:0:0:
188,60,72615,1,0,0:0:0:0:
188,60,72778,2,0,P|228:70|266:88,1,69.6,10|0,3:2|0:0,0:0:0:0:
386,24,73104,6,0,P|340:64|345:128,1,104.4,0|0,1:1|0:0,0:0:0:0:
381,168,73430,2,0,P|413:154|446:146,1,69.6,8|0,3:2|0:0,0:0:0:0:
497,80,73756,1,0,1:1:0:0:
497,80,73919,1,0,1:1:0:0:
491,216,74083,2,0,P|477:248|469:281,1,69.6,8|2,3:2|1:2,0:0:0:0:
374,384,74409,6,0,P|388:352|396:319,2,69.6,2|2|2,1:2|2:2|1:2,0:0:0:0:
289,357,74898,2,0,P|297:323|311:291,1,69.6,2|0,2:2|1:1,0:0:0:0:
288,210,75224,6,0,P|257:186|210:191,1,69.6,2|0,2:2|1:1,0:0:0:0:
179,309,75550,2,0,P|184:270|156:231,1,69.6,2|0,2:2|1:1,0:0:0:0:
36,279,75876,2,0,P|72:264|91:220,1,69.6,2|0,2:2|1:1,0:0:0:0:
140,159,76202,1,2,2:2:0:0:
140,159,76528,1,2,1:2:0:0:
122,156,76610,1,0,1:1:0:0:
105,154,76691,1,2,1:2:0:0:
88,151,76773,1,0,1:1:0:0:
71,149,76854,1,0,1:1:0:0:
53,147,76936,1,0,1:1:0:0:
36,144,77017,6,0,P|49:93|65:57,1,69.6,8|0,1:2|0:0,0:0:0:0:
131,23,77343,1,10,2:3:0:0:
129,29,77425,1,8,2:2:0:0:
127,35,77506,1,8,2:2:0:0:
217,173,77669,1,10,2:2:0:0:
354,99,77833,1,8,2:2:0:0:
409,156,77996,1,10,2:2:0:0:
415,158,78077,1,8,2:3:0:0:
421,160,78159,1,4,2:3:0:0:
254,4,78322,6,0,P|232:67|217:215,1,174,6|10,1:2|2:3,0:0:0:0:
239,252,78811,1,0,0:0:0:0:
354,148,78974,2,0,P|401:138|440:165,1,87,2|0,1:3|1:1,0:0:0:0:
493,231,79300,1,10,2:3:0:0:
351,383,79463,6,0,P|340:296|313:214,1,174,2|2,1:2|1:2,0:0:0:0:
281,113,79952,1,10,2:3:0:0:
157,267,80115,2,0,P|111:249|68:242,1,87,2|2,1:2|2:3,0:0:0:0:
16,183,80441,1,2,1:2:0:0:
124,337,80604,1,10,2:3:0:0:
238,230,80767,1,2,1:2:0:0:
152,125,80930,6,0,P|68:117|15:182,2,174,2|10|2,1:3|2:3|1:3,0:0:0:0:
238,230,81745,1,0,1:1:0:0:
298,57,81908,1,10,2:3:0:0:
212,68,82072,6,0,P|273:81|403:127,1,174,2|2,1:2|1:2,0:0:0:0:
491,242,82561,1,10,2:3:0:0:
439,167,82724,2,0,P|417:211|403:276,1,87,2|2,1:2|2:3,0:0:0:0:
357,348,83050,1,2,1:2:0:0:
493,254,83213,1,12,2:2:0:0:
343,185,83376,1,2,1:2:0:0:
272,322,83539,6,0,P|234:367|123:341,1,174,6|10,1:2|2:3,0:0:0:0:
82,283,84028,1,0,0:0:0:0:
199,189,84191,1,2,1:3:0:0:
204,199,84354,1,2,1:2:0:0:
44,98,84517,1,10,2:3:0:0:
108,196,84680,6,0,P|118:158|135:123,1,78.2999976104737,2|2,1:2|2:3,0:0:0:0:
274,10,85006,1,2,1:2:0:0:
285,107,85169,2,0,P|249:90|212:79,1,78.2999976104737,10|2,2:3|1:2,0:0:0:0:
212,79,85658,1,2,1:2:0:0:
108,196,85821,1,10,2:3:0:0:
96,192,85985,1,2,1:2:0:0:
206,250,86148,6,0,P|248:215|329:244,1,117.449996415711,2|0,1:3|0:0,0:0:0:0:
316,229,86474,2,0,P|349:181|332:142,1,78.2999976104737,10|0,2:3|0:0,0:0:0:0:
278,0,86800,1,2,1:3:0:0:
274,11,86963,1,2,1:2:0:0:
399,106,87126,1,8,2:3:0:0:
426,109,87207,1,8,2:3:0:0:
453,113,87289,1,10,2:3:0:0:
480,117,87370,1,8,2:3:0:0:
507,120,87452,1,0,1:1:0:0:
316,229,87615,5,10,2:2:0:0:
174,109,87778,1,2,1:3:0:0:
79,319,87941,1,10,2:2:0:0:
282,310,88104,1,10,1:2:0:0:
274,302,88186,1,8,2:2:0:0:
266,295,88267,2,0,L|191:276,1,52.1999984069825,10|8,2:2|2:2,0:0:0:0:
168,217,88430,1,10,1:3:0:0:
142,221,88512,1,8,2:3:0:0:
116,225,88593,1,6,2:3:0:0:
90,229,88675,1,4,2:3:0:0:
64,233,88756,6,0,P|25:168|65:78,2,174,6|10|2,1:2|2:3|1:3,0:0:0:0:
157,361,89571,1,0,1:1:0:0:
249,206,89735,2,0,B|265:200|265:200|278:199|278:199|295:195|295:195|317:194,1,65.25,10|0,2:3|1:1,0:0:0:0:
312,194,90224,5,0,1:1:0:0:
414,342,90387,1,10,2:3:0:0:
492,287,90550,2,0,P|422:267|349:256,1,139.2,0|0,1:1|1:1,0:0:0:0:
242,288,91039,1,10,2:3:0:0:
159,134,91202,1,0,1:1:0:0:
364,34,91365,6,0,P|411:103|386:184,2,174,2|10|2,1:3|2:3|1:3,0:0:0:0:
285,125,92180,1,0,1:1:0:0:
192,62,92343,1,10,2:3:0:0:
123,213,92506,6,0,P|139:264|157:384,1,174,0|0,1:1|1:1,0:0:0:0:
220,205,92995,1,10,2:3:0:0:
99,128,93158,2,0,P|47:166|70:291,1,174,0|0,1:1|1:1,0:0:0:0:
238,379,93648,2,0,P|278:362|319:350,1,87,14|0,2:2|0:0,0:0:0:0:
421,223,93974,6,0,P|380:185|296:198,2,139.2,2|8|0,1:2|3:2|1:1,0:0:0:0:
421,223,94952,1,10,3:2:0:0:
319,349,95278,6,0,P|253:324|168:310,1,139.2,0|8,1:1|3:2,0:0:0:0:
236,171,95930,2,0,P|290:191|328:194,1,69.6,0|0,1:1|1:1,0:0:0:0:
177,112,96256,2,0,P|143:119|111:133,1,69.6,8|0,3:2|1:1,0:0:0:0:
214,12,96582,6,0,P|277:67|340:49,1,139.2,2|0,1:2|1:1,0:0:0:0:
391,9,97071,1,2,2:2:0:0:
444,70,97235,2,0,P|419:136|405:221,1,139.2,2|0,1:2|1:1,0:0:0:0:
491,326,97724,1,2,2:2:0:0:
423,280,97887,6,0,P|384:290|338:306,1,69.6,2|2,1:2|2:2,0:0:0:0:
241,345,98213,2,0,P|274:353|307:364,1,69.6,2|2,1:2|2:2,0:0:0:0:
307,364,98702,1,2,1:2:0:0:
289,334,98783,1,0,1:1:0:0:
262,312,98865,1,2,1:2:0:0:
228,303,98946,1,0,1:1:0:0:
194,307,99028,1,2,1:2:0:0:
164,323,99110,1,0,1:1:0:0:
