osu file format v14

[General]
AudioFilename: audio.mp3
AudioLeadIn: 0
PreviewTime: 55106
Countdown: 0
SampleSet: Soft
StackLeniency: 0.7
Mode: 0
LetterboxInBreaks: 0
WidescreenStoryboard: 1

[Editor]
DistanceSpacing: 1
BeatDivisor: 4
GridSize: 4
TimelineZoom: 1

[Metadata]
Title:belief (Cut Ver.)
TitleUnicode:belief (Cut Ver.)
Artist:Kawada Mami
ArtistUnicode:川田まみ
Creator:- Nilou -
Version:Normal
Source:電撃文庫 FIGHTING CLIMAX
Tags:video game pop j-pop jpop Dengeki Bunko Faitingu Kuraimakkusu Opening Ecole Software SEGA 尾崎武士 Takeshi Ozaki 中沢伴行 Tomoyuki Nakazawa PlayStation 3 PS3 Vita Arcade Sajinn Kujinn Reform Syndicate_ Clorinde LGM Larsgonmad Sotarks fubuki actiol fujinn japanese rock jrock j-rock
BeatmapID:4397731
BeatmapSetID:2096969

[Difficulty]
HPDrainRate:3
CircleSize:3
OverallDifficulty:4
ApproachRate:5
SliderMultiplier:0.999999999999999
SliderTickRate:1

[Events]
//Background and Video events
0,0,"bg.jpg",0,0
//Break Periods
//Storyboard Layer 0 (Background)
//Storyboard Layer 1 (Fail)
//Storyboard Layer 2 (Pass)
//Storyboard Layer 3 (Foreground)
//Storyboard Layer 4 (Overlay)
//Storyboard Sound Samples

[TimingPoints]
79,326.086956521739,4,2,1,60,1,0
79,-100,4,2,1,60,0,0
405,-100,4,2,2,60,0,0
894,-100,4,2,1,60,0,0
1057,-100,4,2,3,60,0,0
1220,-100,4,2,1,60,0,0
1383,-100,4,2,2,60,0,0
2524,-100,4,2,3,60,0,0
2687,-100,4,2,4,60,0,0
2850,-100,4,2,2,60,0,0
3176,-100,4,2,5,60,0,0
3258,-100,4,2,1,60,0,0
3339,-100,4,2,2,60,0,0
3828,-100,4,2,4,60,0,0
4318,-100,4,2,2,60,0,0
4481,-100,4,2,1,60,0,0
4644,-100,4,2,2,60,0,0
5133,-100,4,2,1,60,0,0
5296,-100,4,2,2,60,0,0
6111,-100,4,2,6,60,0,0
6274,-100,4,2,3,60,0,0
6437,-100,4,2,7,60,0,0
6519,-100,4,2,1,60,0,0
6600,-100,4,2,2,60,0,0
7089,-100,4,2,1,60,0,0
7252,-100,4,2,2,60,0,0
7742,-100,4,2,5,60,0,0
7823,-100,4,2,1,60,0,0
7905,-100,4,2,6,60,0,0
8068,-100,4,2,2,60,0,0
8394,-100,4,2,5,60,0,0
8475,-100,4,2,1,60,0,0
8557,-100,4,2,2,60,0,0
9046,-100,4,2,4,60,0,0
9209,-100,4,2,5,60,0,0
9535,-100,4,2,3,62,0,0
9617,-100,4,2,8,62,0,0
9780,-100,4,2,3,62,0,0
9861,-100,4,2,8,62,0,0
10269,-100,4,2,4,62,0,0
10513,-100,4,2,9,70,0,0
10839,-100,4,2,5,70,0,0
12959,-100,4,2,8,70,0,0
13448,-100,4,2,5,70,0,0
15078,-100,4,2,3,70,0,0
15242,-100,4,2,5,70,0,0
15405,-100,4,2,1,70,0,0
15568,-100,4,2,3,70,0,0
15731,-100,4,2,8,70,0,0
16057,-100,4,2,5,70,0,0
18176,-100,4,2,7,70,0,0
18502,-100,4,2,5,70,0,0
20133,-100,4,2,4,70,0,0
20296,-100,4,2,5,70,0,0
20948,-100,4,2,5,70,0,0
21274,-100,4,2,1,50,0,0
22252,326.086956521739,4,2,8,60,1,0
22252,-100,4,2,8,60,0,0
22741,-100,4,2,9,60,0,0
23230,-100,4,2,1,60,0,0
24860,-100,4,2,8,60,0,0
25349,-100,4,2,1,60,0,0
26328,-100,4,2,9,60,0,0
26817,-100,4,2,1,60,0,0
27143,-100,4,2,9,60,0,0
27469,-100,4,2,8,60,0,0
27958,-100,4,2,9,60,0,0
28447,-100,4,2,1,60,0,0
28936,-100,4,2,9,60,0,0
29425,-100,4,2,1,60,0,0
30078,-100,4,2,8,60,0,0
30567,-100,4,2,1,60,0,0
31545,-100,4,2,9,60,0,0
31871,-100,4,2,1,60,0,0
32034,-100,4,2,10,60,0,0
32686,-100,4,2,7,65,0,0
33012,-100,4,2,11,65,0,0
33175,-100,4,2,5,65,0,0
33665,-100,4,2,11,65,0,0
33828,-100,4,2,5,65,0,0
34317,-100,4,2,12,65,0,0
34480,-100,4,2,8,65,0,0
34969,-100,4,2,11,65,0,0
35132,-100,4,2,8,65,0,0
35621,-100,4,2,11,65,0,0
35784,-100,4,2,5,65,0,0
36273,-100,4,2,12,65,0,0
36436,-100,4,2,5,65,0,0
36925,-100,4,2,12,65,0,0
37088,-100,4,2,8,65,0,0
37578,-100,4,2,11,65,0,0
37741,-100,4,2,5,65,0,0
38230,-100,4,2,11,65,0,0
38556,-100,4,2,5,65,0,0
38882,-100,4,2,11,65,0,0
39208,-100,4,2,8,65,0,0
39534,-100,4,2,12,65,0,0
39697,-100,4,2,8,65,0,0
40186,-100,4,2,12,65,0,0
40349,-100,4,2,8,65,0,0
40838,-100,4,2,11,65,0,0
41001,-100,4,2,5,65,0,0
41491,-100,4,2,3,65,0,0
41572,-100,4,2,10,65,0,0
41817,-100,4,2,7,65,0,0
41980,-100,4,2,5,65,0,0
42632,-100,4,2,5,65,0,0
43121,-100,4,2,5,60,0,0
43447,-100,4,2,8,60,0,0
43773,-100,4,2,11,60,0,0
43936,-100,4,2,8,60,0,0
44262,-100,4,2,1,60,0,0
44425,-100,4,2,5,60,0,0
44588,-100,4,2,1,60,0,0
44751,-100,4,2,8,60,0,0
45078,-100,4,2,12,60,0,0
45241,-100,4,2,8,60,0,0
45567,-100,4,2,3,60,0,0
45893,-100,4,2,1,60,0,0
46056,-100,4,2,8,60,0,0
46382,-100,4,2,11,60,0,0
46545,-100,4,2,5,60,0,0
47360,-100,4,2,8,60,0,0
47686,-100,4,2,12,60,0,0
47849,-100,4,2,5,60,0,0
48175,-100,4,2,1,60,0,0
48338,-100,4,2,5,60,0,0
48501,-100,4,2,1,60,0,0
48665,-100,4,2,8,60,0,0
48991,-100,4,2,11,60,0,0
49154,-100,4,2,8,60,0,0
49480,-100,4,2,1,60,0,0
49643,-100,4,2,5,60,0,0
49806,-100,4,2,1,60,0,0
49969,-100,4,2,8,60,0,0
50295,-100,4,2,12,60,0,0
50458,-100,4,2,5,60,0,0
50947,-100,4,2,6,70,0,0
51273,-100,4,2,5,70,0,0
51599,-100,4,2,11,70,0,0
51762,-100,4,2,8,70,0,0
52088,-100,4,2,3,70,0,0
52251,-100,4,2,1,70,0,0
52415,-100,4,2,10,70,0,0
52496,-100,4,2,3,70,0,0
52578,-100,4,2,11,70,0,0
52741,-100,4,2,3,70,0,0
52904,-100,4,2,1,70,0,0
53230,-100,4,2,4,70,0,0
53556,-100,4,2,7,60,0,0
54045,-100,4,2,9,60,0,0
54534,-100,4,2,7,60,0,0
55023,-100,4,2,1,60,0,0
55349,-100,4,2,9,60,0,0
55838,-100,4,2,1,60,0,0
56165,326.086956521739,4,2,1,80,1,0
56165,-100,4,2,1,80,0,0
56491,-100,4,2,12,80,0,0
56817,-100,4,2,8,80,0,0
57143,-100,4,2,11,80,0,0
57306,-100,4,2,8,80,0,0
57795,-100,4,2,12,80,0,0
57958,-100,4,2,8,80,0,0
58447,-100,4,2,11,80,0,0
58610,-100,4,2,5,80,0,0
59099,-100,4,2,11,80,0,0
59262,-100,4,2,8,80,0,0
59751,-100,4,2,11,80,0,0
59915,-100,4,2,8,80,0,0
60404,-100,4,2,11,80,0,0
60567,-100,4,2,8,80,0,0
61056,-100,4,2,4,80,0,0
61382,-100,4,2,7,80,0,0
61708,-100,4,2,11,80,0,0
62034,-100,4,2,5,80,0,0
62360,-100,4,2,12,80,0,0
62523,-100,4,2,8,80,0,0
63012,-100,4,2,12,80,0,0
63175,-100,4,2,5,80,0,0
63665,-100,4,2,11,80,0,0
63828,-100,4,2,5,80,0,0
64317,-100,4,2,12,80,0,0
64643,-100,4,2,8,80,0,0
64969,-100,4,2,4,80,0,0
65050,-100,4,2,10,80,0,0
65132,-100,4,2,10,80,0,0
65296,312.5,4,2,10,75,1,0
65296,-100,4,2,10,75,0,0
65452,-100,4,2,5,75,0,0
65921,331.491712707182,4,2,5,75,1,0
65921,-100,4,2,5,75,0,0
66252,-100,4,2,1,75,0,0
66418,-100,4,2,3,75,0,0
66583,326.086956521739,4,2,1,85,1,0
66583,-100,4,2,1,85,0,0
66603,-100,4,2,1,85,0,0
66909,-100,4,2,12,85,0,0
67072,-100,4,2,1,85,0,0
67235,-100,4,2,12,85,0,0
67255,-100,4,2,12,85,0,0
67398,-100,4,2,1,85,0,0
67561,-100,4,2,11,85,0,0
67724,-100,4,2,1,85,0,0
67887,-100,4,2,12,85,0,0
68050,-100,4,2,1,85,0,0
68213,-100,4,2,12,85,0,0
68376,-100,4,2,1,85,0,0
68539,-100,4,2,12,85,0,0
68702,-100,4,2,1,85,0,0
68865,-100,4,2,11,85,0,0
69028,-100,4,2,1,85,0,0
69191,-100,4,2,11,85,0,0
69354,-100,4,2,1,85,0,0
69517,-100,4,2,12,85,0,0
69680,-100,4,2,1,85,0,0
69843,-100,4,2,12,85,0,0
70006,-100,4,2,1,85,0,0
70169,-100,4,2,11,85,0,0
70333,-100,4,2,1,85,0,0
70496,-100,4,2,12,85,0,0
70659,-100,4,2,1,85,0,0
70822,-100,4,2,12,85,0,0
70985,-100,4,2,1,85,0,0
71148,-100,4,2,12,80,0,0
71229,-100,4,2,4,80,0,0
71250,-100,4,2,4,80,0,0
71474,-100,4,2,4,70,0,0
71800,-100,4,2,4,60,0,0
71820,-100,4,2,4,60,0,0
72126,-100,4,2,3,60,0,0
73919,-100,4,2,1,60,0,0
74083,-100,4,2,3,60,0,0
74246,-100,4,2,1,60,0,0
74409,-100,4,2,2,55,0,0
74429,-100,4,2,2,55,0,0
74735,-100,4,2,5,55,0,0
77017,-100,4,2,5,65,0,0
77038,-100,4,2,5,65,0,0
77343,-100,4,2,1,65,0,0
77425,-100,4,2,4,65,0,0
78322,326.086956521739,4,2,9,70,1,0
78322,-100,4,2,9,70,0,0
78342,-100,4,2,9,70,0,0
78648,-100,4,2,12,70,0,0
78974,-100,4,2,8,70,0,0
79300,-100,4,2,11,70,0,0
79463,-100,4,2,8,70,0,0
79952,-100,4,2,12,70,0,0
80115,-100,4,2,8,70,0,0
80604,-100,4,2,11,70,0,0
80767,-100,4,2,5,70,0,0
81256,-100,4,2,11,70,0,0
81582,-100,4,2,8,70,0,0
81908,-100,4,2,12,70,0,0
82072,-100,4,2,8,70,0,0
82561,-100,4,2,12,70,0,0
82724,-100,4,2,8,70,0,0
83213,-100,4,2,4,70,0,0
83376,-100,4,2,9,70,0,0
83865,-100,4,2,11,70,0,0
84191,-100,4,2,5,70,0,0
84211,-100,4,2,5,70,0,0
84517,-100,4,2,11,70,0,0
84680,-100,4,2,8,70,0,0
85169,-100,4,2,11,70,0,0
85332,-100,4,2,8,70,0,0
85821,-100,4,2,11,70,0,0
85985,-100,4,2,5,70,0,0
86474,-100,4,2,11,70,0,0
86800,-100,4,2,5,70,0,0
87126,-100,4,2,3,70,0,0
87207,-100,4,2,10,70,0,0
87309,-100,4,2,10,70,0,0
87615,-100,4,2,5,70,0,0
88430,-100,4,2,9,70,0,0
88512,-100,4,2,4,70,0,0
88756,-100,4,2,1,65,0,0
88777,-100,4,2,1,65,0,0
89082,-100,4,2,12,65,0,0
89245,-100,4,2,8,65,0,0
89735,-100,4,2,11,65,0,0
89857,-100,4,2,8,65,0,0
89898,-100,4,2,8,65,0,0
90387,-100,4,2,11,65,0,0
90550,-100,4,2,8,65,0,0
91039,-100,4,2,12,65,0,0
91059,-100,4,2,12,65,0,0
91202,-100,4,2,5,65,0,0
91691,-100,4,2,12,65,0,0
91854,-100,4,2,8,65,0,0
92343,-100,4,2,11,65,0,0
92506,-100,4,2,8,65,0,0
92995,-100,4,2,11,65,0,0
93158,-100,4,2,5,65,0,0
93648,-100,4,2,4,65,0,0
93974,-100,4,2,4,55,0,0
93994,-100,4,2,4,55,0,0
94300,-100,4,2,3,55,0,0
96093,-100,4,2,1,55,0,0
96256,-100,4,2,3,55,0,0
96419,-100,4,2,1,55,0,0
96582,-100,4,2,2,50,0,0
96603,-100,4,2,2,50,0,0
96908,-100,4,2,1,50,0,0

[Colours]
Combo1 : 239,208,143
Combo2 : 198,4,4
Combo3 : 227,203,119
Combo4 : 226,106,71

[HitObjects]
26,75,79,6,0,P|79:36|122:48,1,99.9999999999999,6|0,1:2|1:1,0:0:0:0:
150,68,568,1,2,2:2:0:0:
220,138,894,1,10,2:3:0:0:
220,138,1057,2,0,L|206:206,1,50,10|10,1:3|2:2,0:0:0:0:
160,273,1546,1,2,2:2:0:0:
226,347,1872,1,2,2:2:0:0:
226,347,2035,2,0,P|296:364|336:371,1,99.9999999999999,2|2,1:2|1:2,0:0:0:0:
420,345,2687,6,0,P|455:283|446:253,1,99.9999999999999,10|0,1:3|1:1,0:0:0:0:
418,219,3176,1,10,2:3:0:0:
363,135,3502,2,0,L|374:71,1,50,8|2,2:3|1:2,0:0:0:0:
396,42,3828,1,8,2:3:0:0:
396,42,3992,2,0,P|336:10|299:12,1,99.9999999999999,6|2,1:3|1:3,0:0:0:0:
222,66,4644,1,2,1:3:0:0:
261,157,4970,2,0,L|252:206,1,50,2|8,1:3|2:2,0:0:0:0:
257,256,5296,6,0,P|222:290|173:290,1,99.9999999999999,2|0,1:2|1:1,0:0:0:0:
125,278,5785,1,2,2:2:0:0:
43,219,6111,1,10,2:3:0:0:
43,219,6274,2,0,L|30:152,1,50,2|14,1:3|2:3,0:0:0:0:
26,70,6763,1,2,2:2:0:0:
111,18,7089,1,10,2:2:0:0:
111,18,7252,2,0,L|174:28,1,50,2|10,1:2|2:2,0:0:0:0:
205,46,7578,1,2,1:2:0:0:
302,22,7905,6,0,P|326:64|311:120,1,99.9999999999999,10|0,1:3|1:1,0:0:0:0:
280,147,8394,1,10,2:3:0:0:
280,147,8557,2,0,P|290:215|296:252,1,99.9999999999999,0|2,1:1|1:2,0:0:0:0:
286,345,9209,2,0,P|328:369|393:360,1,99.9999999999999,4|8,1:2|2:3,0:0:0:0:
424,348,9698,2,0,L|438:242,1,99.9999999999999,8|8,2:3|2:3,0:0:0:0:
476,218,10187,1,8,3:3:0:0:
426,137,10513,5,4,1:2:0:0:
426,137,10676,1,2,1:2:0:0:
354,207,11002,2,0,L|242:193,1,99.9999999999999,2|0,2:2|1:1,0:0:0:0:
154,190,11655,1,2,1:2:0:0:
150,94,11981,1,2,1:2:0:0:
150,94,12144,1,10,2:2:0:0:
220,21,12470,2,0,L|280:27,1,50,2|2,2:2|1:3,0:0:0:0:
320,12,12796,1,10,2:2:0:0:
320,12,12959,1,2,1:3:0:0:
398,73,13285,5,2,1:2:0:0:
349,160,13611,2,0,L|369:271,1,99.9999999999999,2|0,2:2|1:1,0:0:0:0:
435,331,14263,1,2,1:2:0:0:
344,368,14589,1,2,1:2:0:0:
344,368,14752,2,0,L|276:356,1,50,10|2,2:2|1:2,0:0:0:0:
253,331,15078,1,14,2:2:0:0:
157,360,15405,1,10,1:3:0:0:
77,299,15731,6,0,P|57:235|71:197,1,99.9999999999999,4|8,1:2|2:2,0:0:0:0:
97,165,16220,1,2,2:2:0:0:
192,195,16546,2,0,L|244:205,1,50,0|8,1:1|2:2,0:0:0:0:
290,199,16872,2,0,P|324:149|322:93,1,99.9999999999999,2|2,1:2|1:2,0:0:0:0:
300,68,17361,1,10,2:2:0:0:
213,17,17687,2,0,L|150:27,1,50,2|2,2:2|1:3,0:0:0:0:
114,17,18013,1,10,2:2:0:0:
114,17,18176,1,6,1:2:0:0:
31,72,18502,6,0,L|41:128,1,50,2|8,1:2|2:2,0:0:0:0:
81,148,18828,2,0,L|62:256,1,99.9999999999999,2|0,2:2|1:1,0:0:0:0:
79,299,19318,1,8,2:2:0:0:
79,299,19481,2,0,L|132:311,1,50,2|8,1:2|2:2,0:0:0:0:
164,343,19807,1,2,1:2:0:0:
164,343,19970,1,2,1:2:0:0:
259,312,20296,2,0,L|273:251,1,50,2|0,1:2|1:1,0:0:0:0:
301,224,20622,1,10,2:2:0:0:
301,224,20785,1,8,2:2:0:0:
478,54,22252,6,0,P|521:112|504:182,2,150,10|10|6,1:2|1:3|1:3,0:0:0:0:
434,28,23393,1,2,1:2:0:0:
364,99,23719,1,4,1:3:0:0:
364,99,23882,2,0,L|349:164,1,50,0|0,0:0|1:1,0:0:0:0:
361,196,24208,1,4,1:3:0:0:
288,264,24534,2,0,L|230:251,1,50,10|2,1:3|1:2,0:0:0:0:
208,213,24860,6,0,P|165:183|64:193,2,150,10|10|4,1:2|1:3|1:3,0:0:0:0:
259,298,26165,2,0,P|316:328|361:321,1,99.9999999999999,2|0,1:2|1:1,0:0:0:0:
399,316,26654,2,0,L|422:210,1,99.9999999999999,2|0,1:2|1:1,0:0:0:0:
449,177,27143,1,8,1:3:0:0:
435,78,27469,6,0,L|329:62,1,99.9999999999999,10|0,1:2|1:1,0:0:0:0:
295,34,27958,1,10,1:3:0:0:
195,45,28284,2,0,L|182:110,1,50,2|6,1:2|1:3,0:0:0:0:
173,142,28610,1,2,1:2:0:0:
102,213,28936,2,0,L|115:318,1,99.9999999999999,8|0,1:3|1:1,0:0:0:0:
140,355,29425,1,4,1:3:0:0:
239,365,29751,2,0,L|299:354,1,50,10|2,1:3|1:2,0:0:0:0:
338,354,30078,6,0,P|360:301|334:247,1,99.9999999999999,10|0,1:2|1:1,0:0:0:0:
303,239,30567,2,0,L|185:220,1,99.9999999999999,10|0,1:3|1:1,0:0:0:0:
120,179,31219,1,2,1:2:0:0:
120,179,31382,2,0,L|130:116,1,50,2|10,1:2|1:3,0:0:0:0:
94,35,31871,2,0,P|147:9|196:21,1,99.9999999999999,6|10,1:3|1:3,0:0:0:0:
225,45,32360,1,8,1:3:0:0:
304,105,32686,6,0,P|357:132|407:117,1,99.9999999999999,4|10,1:2|2:3,0:0:0:0:
492,103,33338,2,0,L|480:170,1,50,2|2,1:3|2:2,0:0:0:0:
492,201,33665,1,10,2:3:0:0:
467,298,33991,2,0,P|423:338|364:335,1,99.9999999999999,2|10,1:3|2:3,0:0:0:0:
345,310,34480,2,0,L|328:199,1,99.9999999999999,2|0,2:2|1:1,0:0:0:0:
328,161,34969,1,10,2:3:0:0:
247,101,35295,5,2,1:3:0:0:
168,162,35621,2,0,L|108:174,1,50,10|2,2:3|2:2,0:0:0:0:
75,190,35947,1,2,1:3:0:0:
75,190,36110,1,2,2:2:0:0:
81,289,36436,2,0,L|93:344,2,50,2|2|2,2:2|1:3|2:2,0:0:0:0:
179,274,37088,2,0,L|289:296,1,99.9999999999999,2|0,2:2|1:1,0:0:0:0:
305,334,37578,1,10,2:3:0:0:
405,330,37904,5,2,1:3:0:0:
395,230,38230,1,10,2:3:0:0:
304,188,38556,1,2,1:3:0:0:
220,241,38882,2,0,L|202:175,1,50,10|0,2:3|0:0,0:0:0:0:
213,143,39208,2,0,P|173:104|119:106,1,99.9999999999999,2|10,1:3|2:3,0:0:0:0:
84,119,39697,2,0,L|66:238,1,99.9999999999999,2|0,2:2|1:1,0:0:0:0:
42,260,40186,1,10,2:3:0:0:
106,336,40512,6,0,P|153:364|211:353,1,99.9999999999999,2|10,1:3|2:3,0:0:0:0:
240,336,41001,1,2,2:2:0:0:
240,336,41165,2,0,L|252:275,1,50,2|2,1:3|1:2,0:0:0:0:
227,189,41654,1,10,2:3:0:0:
308,131,41980,1,0,0:0:0:0:
271,38,42306,2,0,P|316:6|363:9,1,99.9999999999999,2|10,1:2|2:2,0:0:0:0:
401,34,42795,1,8,1:2:0:0:
479,96,43121,6,0,L|457:208,1,99.9999999999999,2|2,1:3|1:3,0:0:0:0:
484,291,43773,2,0,P|451:327|389:318,1,99.9999999999999,10|0,2:3|0:0,0:0:0:0:
339,249,44425,2,0,L|240:229,1,99.9999999999999,2|2,1:3|1:3,0:0:0:0:
192,241,44915,2,0,P|183:172|204:140,1,99.9999999999999,2|0,2:2|1:1,0:0:0:0:
206,52,45567,1,10,2:2:0:0:
206,52,45730,6,0,P|133:27|104:35,1,99.9999999999999,2|0,2:3|0:0,0:0:0:0:
67,38,46219,1,2,2:2:0:0:
67,38,46382,2,0,L|56:104,1,50,10|2,2:3|1:2,0:0:0:0:
32,129,46708,1,2,2:3:0:0:
114,185,47034,2,0,L|127:292,1,99.9999999999999,2|2,1:3|1:3,0:0:0:0:
146,330,47523,2,0,P|210:347|247:322,1,99.9999999999999,2|0,1:2|1:1,0:0:0:0:
271,297,48012,1,2,2:3:0:0:
345,229,48338,6,0,L|325:117,1,99.9999999999999,2|2,1:3|1:3,0:0:0:0:
360,35,48991,2,0,P|417:8|473:20,1,99.9999999999999,10|2,2:3|2:3,0:0:0:0:
486,105,49643,2,0,L|468:203,1,99.9999999999999,2|2,1:3|1:3,0:0:0:0:
481,251,50132,2,0,P|434:277|381:269,1,99.9999999999999,2|0,2:2|1:1,0:0:0:0:
345,249,50621,1,0,0:0:0:0:
259,301,50947,5,12,2:2:0:0:
176,245,51273,2,0,L|189:184,1,50,2|0,1:3|1:1,0:0:0:0:
217,157,51599,1,10,2:3:0:0:
217,157,51762,1,2,1:2:0:0:
156,77,52088,1,10,2:2:0:0:
156,77,52251,2,0,P|106:44|61:53,1,99.9999999999999,10|12,2:3|2:3,0:0:0:0:
33,84,52741,1,10,2:2:0:0:
17,182,53067,1,10,2:3:0:0:
17,182,53230,1,10,2:3:0:0:
83,256,53556,6,0,L|140:265,1,50,8|0,1:2|1:1,0:0:0:0:
167,299,53882,1,0,1:1:0:0:
259,260,54208,2,0,L|274:191,1,50,0|0,1:1|1:1,0:0:0:0:
229,181,54534,2,0,L|244:112,1,50,4|0,1:3|1:1,0:0:0:0:
276,98,54860,1,8,1:2:0:0:
361,46,55186,1,2,1:2:0:0:
437,111,55512,1,2,1:2:0:0:
399,204,55838,1,6,1:3:0:0:
454,286,56165,6,0,P|455:342|423:373,2,99.9999999999999,6|10|2,1:2|2:3|1:3,0:0:0:0:
399,204,57143,1,10,2:3:0:0:
399,204,57306,2,0,L|328:194,1,50,2|2,1:2|2:3,0:0:0:0:
304,219,57632,1,2,1:2:0:0:
232,289,57958,2,0,P|198:314|122:303,1,99.9999999999999,2|2,1:2|1:2,0:0:0:0:
92,305,58447,2,0,L|82:243,1,50,10|0,2:3|1:1,0:0:0:0:
42,227,58773,6,0,L|22:114,1,99.9999999999999,2|10,1:3|2:3,0:0:0:0:
35,79,59262,1,2,2:2:0:0:
122,29,59588,2,0,L|178:42,1,50,2|10,1:2|2:3,0:0:0:0:
218,27,59915,1,2,1:2:0:0:
275,109,60241,2,0,L|262:165,1,50,2|10,1:2|2:3,0:0:0:0:
259,207,60567,2,0,P|324:247|357:239,1,99.9999999999999,2|2,1:2|1:2,0:0:0:0:
393,239,61056,2,0,L|404:190,1,50,14|8,2:2|2:2,0:0:0:0:
440,155,61382,5,4,1:2:0:0:
503,78,61708,1,10,2:3:0:0:
429,10,62034,1,2,1:3:0:0:
429,10,62197,2,0,L|366:23,1,50,2|10,1:2|2:3,0:0:0:0:
330,20,62523,2,0,P|301:56|308:119,1,99.9999999999999,2|2,1:2|1:2,0:0:0:0:
342,137,63012,1,10,2:3:0:0:
399,218,63338,2,0,L|387:278,1,50,2|0,2:3|1:1,0:0:0:0:
362,309,63665,1,10,2:3:0:0:
266,340,63991,6,0,L|149:316,2,99.9999999999999,2|10|2,1:3|2:3|1:3,0:0:0:0:
313,355,64806,2,0,L|372:343,1,50,2|10,1:2|2:3,0:0:0:0:
411,338,65132,1,10,2:3:0:0:
479,262,65452,1,8,2:2:0:0:
479,262,65608,2,0,L|464:205,1,50,2|8,2:3|2:2,0:0:0:0:
469,166,65921,2,0,P|426:137|370:148,1,99.9999999999999,10|10,1:2|1:3,0:0:0:0:
292,193,66583,5,6,1:2:0:0:
226,268,66909,1,10,2:3:0:0:
150,202,67235,2,0,L|90:193,1,50,10|0,2:3|1:1,0:0:0:0:
56,184,67561,1,10,2:3:0:0:
56,184,67724,1,2,1:2:0:0:
14,93,68050,1,2,1:2:0:0:
84,22,68376,2,0,L|204:40,1,99.9999999999999,2|2,1:2|1:2,0:0:0:0:
232,30,68865,2,0,L|227:85,1,50,10|0,2:3|1:1,0:0:0:0:
264,113,69191,6,0,P|290:170|267:215,1,99.9999999999999,10|10,2:3|2:3,0:0:0:0:
235,229,69680,1,0,1:1:0:0:
215,326,70006,2,0,L|280:341,1,50,2|10,1:2|2:3,0:0:0:0:
307,361,70333,2,0,L|422:338,1,99.9999999999999,2|2,1:2|1:2,0:0:0:0:
452,356,70822,1,10,2:3:0:0:
452,356,70985,2,0,P|479:301|468:252,1,99.9999999999999,2|10,1:2|2:2,0:0:0:0:
433,234,71474,2,0,L|446:165,1,50,14|10,2:2|2:2,0:0:0:0:
467,141,71800,5,2,1:2:0:0:
391,75,72126,1,8,3:2:0:0:
391,75,72289,2,0,L|280:92,1,99.9999999999999
247,68,72778,2,0,P|198:88|179:147,1,99.9999999999999,10|0,3:2|1:1,0:0:0:0:
216,221,73430,1,8,3:2:0:0:
125,264,73756,2,0,L|140:362,1,99.9999999999999,0|8,1:1|3:2,0:0:0:0:
194,373,74246,1,2,1:2:0:0:
194,373,74409,5,2,1:2:0:0:
278,318,74735,1,2,1:2:0:0:
278,318,74898,2,0,L|392:336,1,99.9999999999999,2|2,2:2|2:2,0:0:0:0:
469,370,75550,1,2,2:2:0:0:
505,276,75876,1,2,2:2:0:0:
429,207,76202,2,0,P|405:187|336:189,1,99.9999999999999,2|2,2:2|1:2,0:0:0:0:
296,214,76691,1,2,1:2:0:0:
214,271,77017,5,8,1:2:0:0:
134,210,77343,2,0,L|119:147,1,50,10|8,2:3|2:2,0:0:0:0:
161,129,77669,2,0,L|146:66,1,50,10|8,2:2|2:2,0:0:0:0:
108,50,77996,1,10,2:2:0:0:
26,107,78322,2,0,L|8:221,2,99.9999999999999,6|10|2,1:2|2:3|1:3,0:0:0:0:
108,50,79300,1,10,2:3:0:0:
108,50,79463,6,0,P|183:35|219:51,1,99.9999999999999,2|2,1:2|1:2,0:0:0:0:
237,78,79952,1,10,2:3:0:0:
237,78,80115,1,2,1:2:0:0:
313,142,80441,1,2,1:2:0:0:
313,142,80604,2,0,L|304:199,1,50,10|2,2:3|1:2,0:0:0:0:
314,240,80930,2,0,P|385:222|423:241,2,99.9999999999999,2|10|2,1:3|2:3|1:3,0:0:0:0:
255,321,81908,1,10,2:3:0:0:
255,321,82072,6,0,L|141:339,1,99.9999999999999,2|2,1:2|1:2,0:0:0:0:
107,348,82561,1,10,2:3:0:0:
107,348,82724,1,2,1:2:0:0:
40,273,83050,1,2,1:2:0:0:
40,273,83213,2,0,L|49:216,1,50,12|2,2:2|1:2,0:0:0:0:
69,178,83539,2,0,P|115:152|164:157,1,99.9999999999999,6|10,1:2|2:3,0:0:0:0:
252,195,84191,2,0,L|265:130,2,50,2|2|10,1:3|1:2|2:3,0:0:0:0:
239,243,84680,1,2,1:2:0:0:
312,310,85006,5,2,1:2:0:0:
312,310,85169,2,0,L|370:303,1,50,10|2,2:3|1:2,0:0:0:0:
446,250,85658,1,2,1:2:0:0:
446,250,85821,2,0,L|457:186,1,50,10|2,2:3|1:2,0:0:0:0:
478,157,86148,2,0,P|432:118|379:122,1,99.9999999999999,2|10,1:3|2:3,0:0:0:0:
300,149,86800,2,0,L|239:138,1,50,2|2,1:3|1:2,0:0:0:0:
204,122,87126,1,8,2:3:0:0:
204,122,87289,1,10,2:3:0:0:
105,140,87615,5,10,2:2:0:0:
105,140,87778,2,0,P|72:181|79:235,1,99.9999999999999,2|10,1:3|1:2,0:0:0:0:
103,266,88267,1,10,2:2:0:0:
103,266,88430,2,0,L|167:271,1,50,10|6,1:3|2:3,0:0:0:0:
196,294,88756,1,6,1:2:0:0:
287,335,89082,1,10,2:3:0:0:
381,301,89408,2,0,L|391:240,1,50,2|0,1:3|1:1,0:0:0:0:
418,212,89735,1,10,2:3:0:0:
418,212,89898,1,0,0:0:0:0:
481,134,90224,6,0,L|470:81,1,50,0|10,1:1|2:3,0:0:0:0:
447,40,90550,2,0,P|391:24|345:38,1,99.9999999999999,0|0,1:1|1:1,0:0:0:0:
313,65,91039,1,10,2:3:0:0:
224,111,91365,2,0,L|242:212,1,99.9999999999999,2|10,1:3|2:3,0:0:0:0:
261,307,92017,2,0,L|320:318,2,50,2|0|10,1:3|1:1|2:3,0:0:0:0:
211,300,92506,6,0,P|154:346|121:342,1,99.9999999999999,0|0,1:1|1:1,0:0:0:0:
89,316,92995,2,0,L|78:261,1,50,10|0,2:3|1:1,0:0:0:0:
5,207,93485,1,0,1:1:0:0:
5,207,93648,2,0,L|16:152,1,50,14|0,2:2|0:0,0:0:0:0:
52,124,93974,2,0,P|118:106|160:119,1,99.9999999999999,2|8,1:2|3:2,0:0:0:0:
219,182,94626,2,0,P|268:188|314:170,1,99.9999999999999,0|10,1:1|3:2,0:0:0:0:
387,102,95278,5,0,1:1:0:0:
469,158,95604,1,8,3:2:0:0:
431,250,95930,2,0,L|442:300,1,50,0|0,1:1|1:1,0:0:0:0:
471,338,96256,1,8,3:2:0:0:
373,362,96582,2,0,P|326:333|276:347,1,99.9999999999999,2|0,1:2|1:1,0:0:0:0:
186,364,97235,2,0,L|170:255,1,99.9999999999999,2|0,1:2|1:1,0:0:0:0:
150,219,97724,1,2,2:2:0:0:
150,219,97887,5,2,1:2:0:0:
210,139,98213,2,0,L|274:148,1,50,2|2,1:2|2:2,0:0:0:0:
336,209,98702,2,0,L|469:187,1,125,2|0,1:2|1:1,0:0:0:0:
