osu file format v14

[General]
AudioFilename: audio.mp3
AudioLeadIn: 0
PreviewTime: 55106
Countdown: 0
SampleSet: Soft
StackLeniency: 0.7
Mode: 0
LetterboxInBreaks: 0
WidescreenStoryboard: 1

[Editor]
Bookmarks: 79,9372,10513,22252,32686,56165
DistanceSpacing: 1.3
BeatDivisor: 4
GridSize: 8
TimelineZoom: 1

[Metadata]
Title:belief (Cut Ver.)
TitleUnicode:belief (Cut Ver.)
Artist:Kawada Mami
ArtistUnicode:川田まみ
Creator:- Nilou -
Version:Hard ft. fubuki
Source:電撃文庫 FIGHTING CLIMAX
Tags:video game pop j-pop jpop Dengeki Bunko Faitingu Kuraimakkusu Opening Ecole Software SEGA 尾崎武士 Takeshi Ozaki 中沢伴行 Tomoyuki Nakazawa PlayStation 3 PS3 Vita Arcade Sajinn Kujinn Reform Syndicate_ Clorinde LGM Larsgonmad Sotarks fubuki actiol fujinn japanese rock jrock j-rock
BeatmapID:4398996
BeatmapSetID:2096969

[Difficulty]
HPDrainRate:4
CircleSize:3.4
OverallDifficulty:7
ApproachRate:8
SliderMultiplier:1.4
SliderTickRate:1

[Events]
//Background and Video events
0,0,"bg.jpg",0,0
//Break Periods
//Storyboard Layer 0 (Background)
//Storyboard Layer 1 (Fail)
//Storyboard Layer 2 (Pass)
//Storyboard Layer 3 (Foreground)
//Storyboard Layer 4 (Overlay)
//Storyboard Sound Samples

[TimingPoints]
79,326.086956521739,4,2,1,60,1,0
79,-111.111111111111,4,2,1,60,0,0
405,-111.111111111111,4,2,2,60,0,0
894,-111.111111111111,4,2,1,60,0,0
1057,-111.111111111111,4,2,3,60,0,0
1220,-111.111111111111,4,2,1,60,0,0
1383,-111.111111111111,4,2,2,60,0,0
2524,-111.111111111111,4,2,3,60,0,0
2687,-111.111111111111,4,2,4,60,0,0
2850,-111.111111111111,4,2,2,60,0,0
3176,-111.111111111111,4,2,5,60,0,0
3258,-111.111111111111,4,2,1,60,0,0
3339,-111.111111111111,4,2,2,60,0,0
3828,-111.111111111111,4,2,4,60,0,0
4318,-111.111111111111,4,2,2,60,0,0
4481,-111.111111111111,4,2,1,60,0,0
4644,-111.111111111111,4,2,2,60,0,0
5133,-111.111111111111,4,2,1,60,0,0
5296,-111.111111111111,4,2,2,60,0,0
6111,-111.111111111111,4,2,6,60,0,0
6274,-111.111111111111,4,2,3,60,0,0
6437,-111.111111111111,4,2,7,60,0,0
6519,-111.111111111111,4,2,1,60,0,0
6600,-111.111111111111,4,2,2,60,0,0
7089,-111.111111111111,4,2,1,60,0,0
7252,-111.111111111111,4,2,2,60,0,0
7742,-111.111111111111,4,2,5,60,0,0
7823,-111.111111111111,4,2,1,60,0,0
7905,-111.111111111111,4,2,6,60,0,0
8068,-111.111111111111,4,2,2,60,0,0
8394,-111.111111111111,4,2,5,60,0,0
8475,-111.111111111111,4,2,1,60,0,0
8557,-111.111111111111,4,2,2,60,0,0
9046,-111.111111111111,4,2,4,60,0,0
9209,-111.111111111111,4,2,5,60,0,0
9535,-111.111111111111,4,2,3,62,0,0
9617,-111.111111111111,4,2,8,62,0,0
9780,-111.111111111111,4,2,3,62,0,0
9861,-111.111111111111,4,2,8,62,0,0
10269,-111.111111111111,4,2,4,62,0,0
10513,-100,4,2,9,70,0,0
10839,-100,4,2,5,70,0,0
12959,-100,4,2,8,70,0,0
13448,-100,4,2,5,70,0,0
15078,-100,4,2,3,70,0,0
15242,-100,4,2,5,70,0,0
15405,-100,4,2,1,70,0,0
15568,-100,4,2,3,70,0,0
15731,-100,4,2,8,70,0,0
16057,-100,4,2,5,70,0,0
18176,-100,4,2,7,70,0,0
18502,-100,4,2,5,70,0,0
20133,-100,4,2,4,70,0,0
20296,-100,4,2,5,70,0,0
21274,-100,4,2,1,50,0,0
22252,326.086956521739,4,2,8,60,1,0
22252,-117.647058823529,4,2,8,60,0,0
22741,-117.647058823529,4,2,9,60,0,0
23230,-117.647058823529,4,2,1,60,0,0
24860,-117.647058823529,4,2,8,60,0,0
25349,-117.647058823529,4,2,1,60,0,0
26328,-117.647058823529,4,2,9,60,0,0
26817,-117.647058823529,4,2,1,60,0,0
27143,-117.647058823529,4,2,9,60,0,0
27469,-117.647058823529,4,2,8,60,0,0
27958,-117.647058823529,4,2,9,60,0,0
28447,-117.647058823529,4,2,1,60,0,0
28936,-117.647058823529,4,2,9,60,0,0
29425,-117.647058823529,4,2,1,60,0,0
30078,-117.647058823529,4,2,8,60,0,0
30567,-117.647058823529,4,2,1,60,0,0
31545,-117.647058823529,4,2,9,60,0,0
31871,-117.647058823529,4,2,1,60,0,0
32034,-117.647058823529,4,2,10,60,0,0
32686,-111.111111111111,4,2,7,65,0,0
33012,-111.111111111111,4,2,11,65,0,0
33175,-111.111111111111,4,2,5,65,0,0
33665,-111.111111111111,4,2,11,65,0,0
33828,-111.111111111111,4,2,5,65,0,0
34317,-111.111111111111,4,2,12,65,0,0
34480,-111.111111111111,4,2,8,65,0,0
34969,-111.111111111111,4,2,11,65,0,0
35132,-111.111111111111,4,2,8,65,0,0
35621,-111.111111111111,4,2,11,65,0,0
35784,-111.111111111111,4,2,5,65,0,0
36273,-111.111111111111,4,2,12,65,0,0
36436,-111.111111111111,4,2,5,65,0,0
36925,-111.111111111111,4,2,12,65,0,0
37088,-111.111111111111,4,2,8,65,0,0
37578,-111.111111111111,4,2,11,65,0,0
37741,-111.111111111111,4,2,5,65,0,0
38230,-111.111111111111,4,2,11,65,0,0
38556,-111.111111111111,4,2,5,65,0,0
38882,-111.111111111111,4,2,11,65,0,0
39208,-111.111111111111,4,2,8,65,0,0
39534,-111.111111111111,4,2,12,65,0,0
39697,-111.111111111111,4,2,8,65,0,0
40186,-111.111111111111,4,2,12,65,0,0
40349,-111.111111111111,4,2,8,65,0,0
40838,-111.111111111111,4,2,11,65,0,0
41001,-111.111111111111,4,2,5,65,0,0
41491,-111.111111111111,4,2,3,65,0,0
41572,-111.111111111111,4,2,10,65,0,0
41817,-111.111111111111,4,2,7,65,0,0
41980,-111.111111111111,4,2,5,65,0,0
43121,-111.111111111111,4,2,5,60,0,0
43447,-111.111111111111,4,2,8,60,0,0
43773,-111.111111111111,4,2,11,60,0,0
43936,-111.111111111111,4,2,8,60,0,0
44262,-111.111111111111,4,2,1,60,0,0
44425,-111.111111111111,4,2,5,60,0,0
44588,-111.111111111111,4,2,1,60,0,0
44751,-111.111111111111,4,2,8,60,0,0
45078,-111.111111111111,4,2,12,60,0,0
45241,-111.111111111111,4,2,8,60,0,0
45567,-111.111111111111,4,2,3,60,0,0
45893,-111.111111111111,4,2,1,60,0,0
46056,-111.111111111111,4,2,8,60,0,0
46382,-111.111111111111,4,2,11,60,0,0
46545,-111.111111111111,4,2,5,60,0,0
47360,-111.111111111111,4,2,8,60,0,0
47686,-111.111111111111,4,2,12,60,0,0
47849,-111.111111111111,4,2,5,60,0,0
48175,-111.111111111111,4,2,1,60,0,0
48338,-111.111111111111,4,2,5,60,0,0
48501,-111.111111111111,4,2,1,60,0,0
48665,-111.111111111111,4,2,8,60,0,0
48991,-111.111111111111,4,2,11,60,0,0
49154,-111.111111111111,4,2,8,60,0,0
49480,-111.111111111111,4,2,1,60,0,0
49643,-111.111111111111,4,2,5,60,0,0
49806,-111.111111111111,4,2,1,60,0,0
49969,-111.111111111111,4,2,8,60,0,0
50295,-111.111111111111,4,2,12,60,0,0
50458,-111.111111111111,4,2,5,60,0,0
50947,-111.111111111111,4,2,6,70,0,0
51273,-111.111111111111,4,2,5,70,0,0
51599,-111.111111111111,4,2,11,70,0,0
51762,-111.111111111111,4,2,8,70,0,0
52088,-111.111111111111,4,2,3,70,0,0
52251,-111.111111111111,4,2,1,70,0,0
52415,-111.111111111111,4,2,10,70,0,0
52496,-111.111111111111,4,2,3,70,0,0
52578,-111.111111111111,4,2,11,70,0,0
52741,-111.111111111111,4,2,3,70,0,0
52904,-111.111111111111,4,2,1,70,0,0
53230,-111.111111111111,4,2,4,70,0,0
53556,-111.111111111111,4,2,7,60,0,0
54045,-111.111111111111,4,2,9,60,0,0
54534,-111.111111111111,4,2,7,60,0,0
55023,-111.111111111111,4,2,1,60,0,0
55349,-111.111111111111,4,2,9,60,0,0
55838,-111.111111111111,4,2,1,60,0,0
56165,326.086956521739,4,2,1,80,1,0
56165,-95.2380952380952,4,2,1,80,0,0
56491,-95.2380952380952,4,2,12,80,0,0
56817,-95.2380952380952,4,2,8,80,0,0
57143,-95.2380952380952,4,2,11,80,0,0
57306,-95.2380952380952,4,2,8,80,0,0
57795,-95.2380952380952,4,2,12,80,0,0
57958,-95.2380952380952,4,2,8,80,0,0
58447,-95.2380952380952,4,2,11,80,0,0
58610,-95.2380952380952,4,2,5,80,0,0
59018,-95.2380952380952,4,2,5,80,0,0
59099,-95.2380952380952,4,2,11,80,0,0
59262,-95.2380952380952,4,2,8,80,0,0
59751,-95.2380952380952,4,2,11,80,0,0
59915,-95.2380952380952,4,2,8,80,0,0
60404,-95.2380952380952,4,2,11,80,0,0
60567,-95.2380952380952,4,2,8,80,0,0
61056,-95.2380952380952,4,2,4,80,0,0
61382,-95.2380952380952,4,2,7,80,0,0
61708,-95.2380952380952,4,2,11,80,0,0
62034,-95.2380952380952,4,2,5,80,0,0
62360,-95.2380952380952,4,2,12,80,0,0
62523,-95.2380952380952,4,2,8,80,0,0
63012,-95.2380952380952,4,2,12,80,0,0
63175,-95.2380952380952,4,2,5,80,0,0
63665,-95.2380952380952,4,2,11,80,0,0
63828,-95.2380952380952,4,2,5,80,0,0
64317,-95.2380952380952,4,2,12,80,0,0
64643,-95.2380952380952,4,2,8,80,0,0
64969,-95.2380952380952,4,2,4,80,0,0
65050,-95.2380952380952,4,2,10,80,0,0
65296,312.5,4,2,10,75,1,0
65296,-95.2380952380952,4,2,10,75,0,0
65452,-95.2380952380952,4,2,5,75,0,0
65921,331.491712707182,4,2,5,75,1,0
65921,-95.2380952380952,4,2,5,75,0,0
66252,-95.2380952380952,4,2,1,75,0,0
66418,-95.2380952380952,4,2,3,75,0,0
66583,326.086956521739,4,2,1,85,1,0
66583,-100,4,2,1,85,0,0
66603,-95.2380952380954,4,2,1,85,0,0
66909,-95.2380952380954,4,2,12,85,0,0
67072,-95.2380952380954,4,2,1,85,0,0
67235,-95.2380952380954,4,2,12,85,0,0
67398,-95.2380952380954,4,2,1,85,0,0
67561,-95.2380952380954,4,2,11,85,0,0
67724,-95.2380952380954,4,2,1,85,0,0
67887,-95.2380952380954,4,2,12,85,0,0
68050,-95.2380952380954,4,2,1,85,0,0
68213,-95.2380952380954,4,2,12,85,0,0
68376,-95.2380952380954,4,2,1,85,0,0
68539,-95.2380952380954,4,2,12,85,0,0
68641,-95.2380952380954,4,2,12,85,0,0
68702,-95.2380952380954,4,2,1,85,0,0
68722,-95.2380952380954,4,2,1,85,0,0
68865,-95.2380952380954,4,2,11,85,0,0
69028,-95.2380952380954,4,2,1,85,0,0
69191,-95.2380952380954,4,2,11,85,0,0
69354,-95.2380952380954,4,2,1,85,0,0
69517,-95.2380952380954,4,2,12,85,0,0
69680,-95.2380952380954,4,2,1,85,0,0
69843,-95.2380952380954,4,2,12,85,0,0
70006,-95.2380952380954,4,2,1,85,0,0
70169,-95.2380952380954,4,2,11,85,0,0
70333,-95.2380952380954,4,2,1,85,0,0
70496,-95.2380952380954,4,2,12,85,0,0
70659,-95.2380952380954,4,2,1,85,0,0
70822,-95.2380952380954,4,2,12,85,0,0
70985,-95.2380952380954,4,2,1,85,0,0
71148,-95.2380952380954,4,2,12,80,0,0
71229,-95.2380952380954,4,2,4,80,0,0
71474,-95.2380952380954,4,2,4,70,0,0
71800,-117.647058823529,4,2,4,60,0,0
72126,-117.647058823529,4,2,3,60,0,0
73919,-117.647058823529,4,2,1,60,0,0
74083,-117.647058823529,4,2,3,60,0,0
74246,-117.647058823529,4,2,1,60,0,0
74409,-117.647058823529,4,2,2,55,0,0
74429,-117.647058823529,4,2,2,55,0,0
74735,-117.647058823529,4,2,5,55,0,0
77017,-117.647058823529,4,2,5,65,0,0
77038,-117.647058823529,4,2,5,65,0,0
77343,-117.647058823529,4,2,1,65,0,0
77425,-117.647058823529,4,2,4,65,0,0
78322,326.086956521739,4,2,9,70,1,0
78322,-117.647058823529,4,2,9,70,0,0
78342,-111.111111111111,4,2,9,70,0,0
78648,-111.111111111111,4,2,12,70,0,0
78974,-111.111111111111,4,2,8,70,0,0
79300,-111.111111111111,4,2,11,70,0,0
79463,-111.111111111111,4,2,8,70,0,0
79952,-111.111111111111,4,2,12,70,0,0
80115,-111.111111111111,4,2,8,70,0,0
80604,-111.111111111111,4,2,11,70,0,0
80767,-111.111111111111,4,2,5,70,0,0
81256,-111.111111111111,4,2,11,70,0,0
81582,-111.111111111111,4,2,8,70,0,0
81908,-111.111111111111,4,2,12,70,0,0
82072,-111.111111111111,4,2,8,70,0,0
82561,-111.111111111111,4,2,12,70,0,0
82724,-111.111111111111,4,2,8,70,0,0
83213,-111.111111111111,4,2,4,70,0,0
83376,-111.111111111111,4,2,9,70,0,0
83865,-111.111111111111,4,2,11,70,0,0
84191,-111.111111111111,4,2,5,70,0,0
84517,-111.111111111111,4,2,11,70,0,0
84680,-111.111111111111,4,2,8,70,0,0
85169,-111.111111111111,4,2,11,70,0,0
85332,-111.111111111111,4,2,8,70,0,0
85821,-111.111111111111,4,2,11,70,0,0
85985,-111.111111111111,4,2,5,70,0,0
86474,-111.111111111111,4,2,11,70,0,0
86800,-111.111111111111,4,2,5,70,0,0
87126,-111.111111111111,4,2,3,70,0,0
87207,-111.111111111111,4,2,10,70,0,0
87615,-111.111111111111,4,2,5,70,0,0
88430,-111.111111111111,4,2,9,70,0,0
88512,-111.111111111111,4,2,4,70,0,0
88756,-111.111111111111,4,2,1,65,0,0
89082,-111.111111111111,4,2,12,65,0,0
89245,-111.111111111111,4,2,8,65,0,0
89735,-111.111111111111,4,2,11,65,0,0
89857,-111.111111111111,4,2,8,65,0,0
89898,-111.111111111111,4,2,8,65,0,0
90387,-111.111111111111,4,2,11,65,0,0
90550,-111.111111111111,4,2,8,65,0,0
91039,-111.111111111111,4,2,12,65,0,0
91202,-111.111111111111,4,2,5,65,0,0
91691,-111.111111111111,4,2,12,65,0,0
91854,-111.111111111111,4,2,8,65,0,0
92343,-111.111111111111,4,2,11,65,0,0
92506,-111.111111111111,4,2,8,65,0,0
92995,-111.111111111111,4,2,11,65,0,0
93158,-111.111111111111,4,2,5,65,0,0
93648,-111.111111111111,4,2,4,65,0,0
93974,-117.647058823529,4,2,4,55,0,0
94300,-117.647058823529,4,2,3,55,0,0
96093,-117.647058823529,4,2,1,55,0,0
96256,-117.647058823529,4,2,3,55,0,0
96419,-117.647058823529,4,2,1,55,0,0
96582,-117.647058823529,4,2,2,50,0,0
96603,-117.647058823529,4,2,2,50,0,0
96908,-117.647058823529,4,2,1,50,0,0

[Colours]
Combo1 : 239,208,143
Combo2 : 198,4,4
Combo3 : 227,203,119
Combo4 : 226,106,71

[HitObjects]
460,338,79,6,0,P|429:346|399:356,2,62.9999980773926,6|2|0,1:2|2:2|1:1,0:0:0:0:
496,265,568,2,0,P|444:230|382:234,1,125.999996154785,2|10,2:2|2:3,0:0:0:0:
326,293,1057,1,10,1:3:0:0:
326,293,1220,2,0,P|283:280|243:273,1,62.9999980773926,10|2,2:2|1:3,0:0:0:0:
199,325,1546,2,0,P|249:278|244:214,1,125.999996154785,2|2,2:2|2:2,0:0:0:0:
185,171,2035,1,2,1:2:0:0:
204,94,2198,1,10,2:2:0:0:
204,94,2361,2,0,P|243:79|285:69,1,62.9999980773926,2|2,1:2|2:3,0:0:0:0:
344,85,2687,6,0,P|418:71|448:19,2,125.999996154785,10|0|0,1:3|1:1|1:1,0:0:0:0:
282,139,3502,1,8,2:3:0:0:
219,85,3665,2,0,P|179:78|146:71,1,62.9999980773926,2|8,1:2|2:3,0:0:0:0:
82,39,3992,2,0,P|120:97|100:162,1,125.999996154785,6|2,1:3|1:3,0:0:0:0:
48,301,4644,2,0,P|90:310|118:323,1,62.9999980773926,2|8,1:3|2:3,0:0:0:0:
180,356,4970,2,0,P|198:318|217:277,1,62.9999980773926,2|8,1:3|2:2,0:0:0:0:
277,256,5296,6,0,P|241:220|208:221,2,62.9999980773926,2|2|0,1:2|2:2|1:1,0:0:0:0:
323,323,5785,2,0,P|378:337|441:277,1,125.999996154785,2|10,2:2|2:3,0:0:0:0:
481,235,6274,1,2,1:3:0:0:
481,235,6437,2,0,P|474:204|468:173,1,62.9999980773926,14|2,2:3|1:3,0:0:0:0:
387,162,6763,2,0,P|333:203|269:191,1,125.999996154785,2|10,2:2|2:2,0:0:0:0:
221,137,7252,1,2,1:2:0:0:
274,75,7415,1,10,2:2:0:0:
274,75,7578,2,0,P|240:56|198:54,1,62.9999980773926,2|10,1:2|2:3,0:0:0:0:
140,21,7905,6,0,B|111:55|111:55|97:150,1,125.999996154785,10|0,1:3|1:1,0:0:0:0:
145,216,8394,1,10,2:3:0:0:
145,216,8557,2,0,P|137:263|125:303,1,62.9999980773926,0|8,1:1|2:3,0:0:0:0:
212,299,8883,2,0,P|220:252|232:212,1,62.9999980773926,2|10,1:2|2:3,0:0:0:0:
288,187,9209,1,4,1:2:0:0:
433,105,9535,1,8,2:3:0:0:
433,105,9617,1,8,2:3:0:0:
433,105,9698,2,0,L|487:115,1,31.4999990386963,8|8,2:3|2:2,0:0:0:0:
490,141,9861,2,0,P|478:192|463:220,1,62.9999980773926,8|8,3:3|2:3,0:0:0:0:
432,272,10187,2,0,L|439:302,2,31.4999990386963,8|8|4,3:3|2:3|2:3,0:0:0:0:
360,231,10513,6,0,P|371:175|383:142,2,70,4|2|8,1:2|1:2|2:2,0:0:0:0:
316,310,11002,2,0,P|274:359|190:342,1,140,2|0,2:2|1:1,0:0:0:0:
126,304,11492,1,8,2:2:0:0:
126,304,11655,6,0,P|142:233|166:167,1,140,2|2,1:2|1:2,0:0:0:0:
226,102,12144,1,10,2:2:0:0:
226,102,12307,1,0,1:1:0:0:
165,34,12470,2,0,P|111:24|65:23,1,70,2|2,2:2|1:3,0:0:0:0:
40,94,12796,2,0,P|36:128|28:162,1,70,10|2,2:2|1:3,0:0:0:0:
78,239,13122,6,0,P|70:273|66:307,2,70,0|2|8,1:1|1:2|2:2,0:0:0:0:
157,194,13611,2,0,P|215:181|284:228,1,140,2|0,2:2|1:1,0:0:0:0:
312,306,14100,1,8,2:2:0:0:
312,306,14263,6,0,P|363:318|448:346,1,140,2|2,1:2|1:2,0:0:0:0:
500,272,14752,1,10,2:2:0:0:
500,272,14915,1,2,1:2:0:0:
429,214,15078,2,0,P|419:169|411:133,1,70,14|8,2:2|1:2,0:0:0:0:
469,72,15405,1,10,1:3:0:0:
469,72,15486,1,8,2:3:0:0:
469,72,15568,1,8,2:3:0:0:
389,28,15731,5,4,1:2:0:0:
389,28,15894,2,0,P|345:15|308:12,1,70,2|8,1:2|2:2,0:0:0:0:
230,21,16220,2,0,P|192:62|205:146,1,140,2|0,2:2|1:1,0:0:0:0:
266,204,16709,1,8,2:2:0:0:
266,204,16872,6,0,B|313:214|313:214|341:254|341:254|405:271,1,140,2|2,1:2|1:2,0:0:0:0:
473,270,17361,2,0,P|460:321|452:357,1,70,10|0,2:2|1:1,0:0:0:0:
368,362,17687,2,0,P|326:342|290:349,1,70,2|2,2:2|1:3,0:0:0:0:
215,367,18013,1,10,2:2:0:0:
215,367,18176,1,6,1:2:0:0:
142,312,18339,5,0,1:1:0:0:
142,312,18502,2,0,P|133:277|125:244,1,70,2|8,1:2|2:2,0:0:0:0:
55,185,18828,2,0,P|99:132|183:142,1,140,2|0,2:2|1:1,0:0:0:0:
252,159,19318,1,8,2:2:0:0:
316,95,19481,6,0,B|368:109|368:109|387:150|387:150|439:167,1,140,2|2,1:2|1:2,0:0:0:0:
502,113,19970,2,0,P|488:61|475:38,1,70,2|14,1:2|2:2,0:0:0:0:
396,12,20296,1,2,1:2:0:0:
396,12,20459,1,0,1:1:0:0:
324,65,20622,1,10,2:2:0:0:
324,65,20703,1,8,2:2:0:0:
324,65,20785,6,0,L|270:73,2,35,8|8|2,2:2|2:2|0:0,0:0:0:0:
11,54,22089,5,10,2:2:0:0:
11,54,22252,2,0,P|57:66|134:90,1,119.000002269745,10|2,1:2|1:2,0:0:0:0:
200,105,22741,1,10,1:3:0:0:
297,225,23067,2,0,L|288:286,1,59.5000011348725,2|6,1:2|1:3,0:0:0:0:
245,347,23393,6,0,P|197:369|135:345,1,119.000002269745,2|4,1:2|1:3,0:0:0:0:
101,278,23882,1,0,1:1:0:0:
101,278,24045,1,0,1:1:0:0:
156,224,24208,2,0,L|164:165,1,59.5000011348725,4|0,1:3|1:1,0:0:0:0:
125,98,24534,1,10,1:3:0:0:
259,22,24860,6,0,P|322:15|379:61,1,119.000002269745,10|0,1:2|1:1,0:0:0:0:
372,120,25349,2,0,P|397:61|465:35,1,119.000002269745,10|0,1:3|1:1,0:0:0:0:
498,92,25838,2,0,L|506:150,1,59.5000011348725,4|0,1:3|1:1,0:0:0:0:
505,228,26165,6,0,P|479:268|392:264,1,119.000002269745,2|0,1:2|1:1,0:0:0:0:
348,232,26654,2,0,P|286:243|217:261,1,119.000002269745,2|0,1:2|1:1,0:0:0:0:
175,309,27143,1,8,1:3:0:0:
61,203,27469,5,10,1:2:0:0:
61,203,27632,2,0,P|52:155|46:124,1,59.5000011348725,2|0,1:2|1:1,0:0:0:0:
51,67,27958,2,0,P|95:29|171:42,1,119.000002269745,10|2,1:3|1:2,0:0:0:0:
220,78,28447,1,6,1:3:0:0:
220,78,28610,6,0,P|231:123|236:152,1,59.5000011348725,2|0,1:2|1:1,0:0:0:0:
286,191,28936,2,0,P|261:239|253:306,1,119.000002269745,8|0,1:3|1:1,0:0:0:0:
310,353,29425,1,4,1:3:0:0:
463,371,29751,2,0,L|484:296,1,59.5000011348725,10|2,1:3|1:2,0:0:0:0:
502,240,30078,6,0,P|468:200|397:205,1,119.000002269745,10|0,1:2|1:1,0:0:0:0:
342,245,30567,2,0,P|289:223|216:212,1,119.000002269745,10|0,1:3|1:1,0:0:0:0:
165,167,31056,2,0,P|158:123|180:92,1,59.5000011348725,4|2,1:3|1:2,0:0:0:0:
208,48,31382,5,2,1:2:0:0:
208,48,31545,2,0,P|266:33|286:33,1,59.5000011348725,10|0,1:3|1:1,0:0:0:0:
339,12,31871,2,0,P|391:47|386:101,1,119.000002269745,6|10,1:3|1:3,0:0:0:0:
336,155,32360,1,8,1:3:0:0:
380,218,32523,1,8,1:3:0:0:
308,258,32686,6,0,P|289:316|269:384,1,125.999996154785,4|10,1:2|2:3,0:0:0:0:
196,356,33175,1,2,2:2:0:0:
196,356,33338,2,0,P|155:340|122:336,1,62.9999980773926,2|2,1:3|2:2,0:0:0:0:
55,351,33665,2,0,P|52:307|74:266,1,62.9999980773926,10|2,2:3|2:2,0:0:0:0:
132,255,33991,6,0,L|113:125,1,125.999996154785,2|10,1:3|2:3,0:0:0:0:
73,59,34480,2,0,P|129:26|204:44,1,125.999996154785,2|0,2:2|1:1,0:0:0:0:
261,85,34969,1,10,2:3:0:0:
261,85,35132,1,2,1:2:0:0:
334,48,35295,5,2,1:3:0:0:
476,128,35621,2,0,L|458:209,1,62.9999980773926,10|2,2:3|2:2,0:0:0:0:
495,264,35947,1,2,1:3:0:0:
495,264,36110,2,0,P|453:299|368:294,1,125.999996154785,2|2,2:2|2:2,0:0:0:0:
315,256,36599,5,2,1:3:0:0:
315,256,36762,2,0,L|297:127,1,125.999996154785,2|2,2:2|2:2,0:0:0:0:
253,62,37251,1,2,1:3:0:0:
253,62,37415,1,0,1:1:0:0:
176,33,37578,2,0,P|150:69|151:101,1,62.9999980773926,10|0,2:3|1:1,0:0:0:0:
179,162,37904,6,0,L|161:301,2,125.999996154785,2|10|2,1:3|2:3|1:3,0:0:0:0:
75,35,38882,1,10,2:3:0:0:
13,189,39208,5,2,1:3:0:0:
13,189,39371,2,0,L|25:262,1,62.9999980773926,2|10,2:2|2:3,0:0:0:0:
41,330,39697,2,0,P|156:333|174:314,1,125.999996154785,2|0,2:2|1:1,0:0:0:0:
213,273,40186,1,10,2:3:0:0:
213,273,40349,1,0,1:1:0:0:
275,326,40512,6,0,P|348:299|409:289,1,125.999996154785,2|10,1:3|2:3,0:0:0:0:
476,294,41001,1,2,2:2:0:0:
476,294,41165,2,0,P|492:239|499:212,1,62.9999980773926,2|2,1:3|1:2,0:0:0:0:
422,192,41491,2,0,L|390:197,2,31.4999990386963,8|8|10,2:3|2:3|2:3,0:0:0:0:
467,123,41817,6,0,P|474:55|426:2,1,125.999996154785,4|8,1:2|2:2,0:0:0:0:
283,51,42469,1,8,2:2:0:0:
283,51,42550,1,8,2:2:0:0:
283,51,42632,2,0,L|227:37,2,31.4999990386963,10|8|8,2:2|2:2|1:2,0:0:0:0:
347,101,42958,2,0,L|336:149,1,31.4999990386963,8|8,2:2|2:2,0:0:0:0:
330,171,43121,6,0,P|291:213|221:201,1,125.999996154785,2|2,1:3|1:3,0:0:0:0:
94,110,43773,2,0,P|73:181|59:251,1,125.999996154785,10|2,2:3|2:3,0:0:0:0:
100,303,44262,1,8,2:2:0:0:
100,303,44425,6,0,P|154:340|222:325,1,125.999996154785,2|2,1:3|1:3,0:0:0:0:
278,286,44915,2,0,P|298:189|311:145,1,125.999996154785,2|0,2:2|1:1,0:0:0:0:
382,20,45567,1,10,2:2:0:0:
382,20,45730,6,0,P|338:5|289:0,2,94.499997116089,2|10|2,2:3|2:2|2:2,0:0:0:0:
457,51,46382,2,0,L|465:123,1,62.9999980773926,10|2,2:3|1:2,0:0:0:0:
498,187,46708,1,2,2:3:0:0:
498,187,46871,1,10,2:2:0:0:
455,256,47034,6,0,P|412:282|332:257,1,125.999996154785,2|2,1:3|1:3,0:0:0:0:
261,248,47523,2,0,P|305:272|323:354,1,125.999996154785,2|0,1:2|1:1,0:0:0:0:
249,369,48012,2,0,L|165:353,1,62.9999980773926,2|8,2:3|2:2,0:0:0:0:
146,349,48257,1,8,2:2:0:0:
146,349,48338,6,0,P|124:283|159:227,1,125.999996154785,2|2,1:3|1:3,0:0:0:0:
296,165,48991,2,0,P|276:68|263:24,1,125.999996154785,10|2,2:3|2:3,0:0:0:0:
190,17,49480,1,8,2:2:0:0:
190,17,49561,1,8,2:2:0:0:
190,17,49643,6,0,P|126:14|69:56,1,125.999996154785,2|2,1:3|1:3,0:0:0:0:
20,107,50132,2,0,P|35:165|55:258,1,125.999996154785,2|0,2:2|1:1,0:0:0:0:
84,303,50621,2,0,P|126:315|159:326,1,62.9999980773926,2|0,2:3|1:1,0:0:0:0:
212,366,50947,6,0,P|258:337|269:247,1,125.999996154785,12|2,2:2|1:3,0:0:0:0:
219,211,51436,1,0,1:1:0:0:
219,211,51599,2,0,P|230:161|251:85,1,125.999996154785,10|2,2:3|2:3,0:0:0:0:
296,21,52088,1,10,2:2:0:0:
296,21,52251,5,10,2:3:0:0:
366,81,52415,1,10,2:3:0:0:
366,81,52496,1,8,2:2:0:0:
366,81,52578,1,12,2:3:0:0:
432,31,52741,2,0,P|466:66|462:147,1,125.999996154785,10|10,2:2|2:3,0:0:0:0:
398,185,53230,2,0,P|411:238|415:257,1,62.9999980773926,10|4,2:3|2:3,0:0:0:0:
456,315,53556,5,8,1:2:0:0:
456,315,53719,1,0,1:1:0:0:
389,362,53882,2,0,P|350:349|312:338,1,62.9999980773926,0|8,1:1|1:3,0:0:0:0:
248,358,54208,1,0,1:1:0:0:
248,358,54371,1,0,1:1:0:0:
185,304,54534,1,4,1:3:0:0:
223,231,54697,1,0,1:1:0:0:
164,173,54860,6,0,P|130:164|91:159,1,62.9999980773926,8|8,1:2|1:3,0:0:0:0:
33,116,55186,2,0,P|51:66|74:38,1,62.9999980773926,2|8,1:2|1:3,0:0:0:0:
124,12,55512,1,2,1:2:0:0:
124,12,55675,1,0,1:1:0:0:
179,71,55838,2,0,P|220:88|259:83,1,62.9999980773926,6|0,1:3|1:1,0:0:0:0:
309,151,56165,6,0,P|332:106|444:106,2,146.999995513916,6|10|2,1:2|2:3|1:3,0:0:0:0:
281,243,56980,1,0,1:1:0:0:
345,313,57143,1,10,2:3:0:0:
345,313,57306,6,0,P|390:327|425:338,1,73.4999977569581,2|2,1:2|2:3,0:0:0:0:
491,277,57632,2,0,P|513:232|502:192,1,73.4999977569581,2|10,1:2|2:3,0:0:0:0:
445,140,57958,2,0,P|395:114|294:103,1,146.999995513916,2|2,1:2|1:2,0:0:0:0:
210,101,58447,1,10,2:3:0:0:
168,186,58610,1,0,1:1:0:0:
74,167,58773,6,0,P|46:202|74:302,1,146.999995513916,2|10,1:3|2:3,0:0:0:0:
152,335,59262,2,0,P|212:319|236:317,1,73.4999977569581,2|2,2:2|1:3,0:0:0:0:
300,261,59588,1,2,1:2:0:0:
300,261,59751,1,10,2:3:0:0:
232,193,59915,6,0,P|237:149|253:106,1,73.4999977569581,2|2,1:2|2:3,0:0:0:0:
283,32,60241,1,2,1:2:0:0:
283,32,60404,1,10,2:3:0:0:
375,9,60567,2,0,P|420:33|421:127,1,146.999995513916,2|2,1:2|1:2,0:0:0:0:
347,175,61056,1,14,2:2:0:0:
412,244,61219,1,8,2:2:0:0:
341,308,61382,6,0,P|288:314|184:338,2,146.999995513916,4|10|2,1:2|2:3|1:3,0:0:0:0:
429,343,62197,2,0,P|478:343|507:320,1,73.4999977569581,2|10,1:2|2:3,0:0:0:0:
505,235,62523,6,0,P|486:157|476:79,1,146.999995513916,2|2,1:2|1:2,0:0:0:0:
410,22,63012,2,0,P|358:9|335:15,1,73.4999977569581,10|0,2:3|1:1,0:0:0:0:
253,54,63338,1,2,2:3:0:0:
253,54,63501,1,0,1:1:0:0:
313,127,63665,2,0,L|296:210,1,73.4999977569581,10|0,2:3|1:1,0:0:0:0:
256,285,63991,6,0,P|213:331|136:316,2,146.999995513916,2|10|2,1:3|2:3|1:3,0:0:0:0:
298,199,64806,1,2,1:2:0:0:
217,148,64969,1,10,2:3:0:0:
217,148,65050,1,8,2:3:0:0:
217,148,65132,1,10,2:3:0:0:
142,207,65296,6,0,P|86:192|58:187,1,73.4999977569581,0|8,1:1|2:2,0:0:0:0:
4,120,65608,2,0,P|3:77|30:36,1,73.4999977569581,2|8,2:3|2:2,0:0:0:0:
104,17,65921,1,10,1:2:0:0:
104,17,66003,1,8,2:2:0:0:
104,17,66086,2,0,L|156:32,1,36.749998878479,8|8,0:0|2:2,0:0:0:0:
157,69,66252,2,0,L|194:80,3,36.749998878479,10|8|8|8,1:3|2:3|2:3|2:3,0:0:0:0:
235,53,66583,6,0,P|276:29|314:33,1,70,6|0,1:2|1:1,0:0:0:0:
396,44,66909,1,10,2:3:0:0:
396,44,67072,1,0,1:1:0:0:
461,113,67235,1,10,2:3:0:0:
399,186,67398,1,0,1:1:0:0:
480,245,67561,1,10,2:3:0:0:
480,245,67724,6,0,L|462:330,1,73.4999977569581,2|10,1:2|2:3,0:0:0:0:
383,366,68050,2,0,P|352:334|307:335,1,73.4999977569581,2|10,1:2|2:3,0:0:0:0:
232,353,68376,2,0,L|207:198,1,146.999995513916,2|2,1:2|1:2,0:0:0:0:
230,114,68865,1,10,2:3:0:0:
152,59,69028,1,0,1:1:0:0:
68,104,69191,6,0,P|39:139|56:248,1,146.999995513916,10|10,2:3|2:3,0:0:0:0:
103,311,69680,2,0,L|180:328,1,73.4999977569581,0|10,1:1|2:3,0:0:0:0:
261,366,70006,1,2,1:2:0:0:
261,366,70169,1,10,2:3:0:0:
329,298,70333,6,0,P|316:247|316:216,1,73.4999977569581,2|10,1:2|2:3,0:0:0:0:
397,177,70659,2,0,P|394:140|383:105,1,73.4999977569581,2|10,1:2|2:3,0:0:0:0:
332,24,70985,1,2,1:2:0:0:
249,71,71148,1,10,2:3:0:0:
249,71,71229,1,8,2:2:0:0:
249,71,71311,2,0,L|199:59,2,36.749998878479,10|8|14,2:2|2:2|2:2,0:0:0:0:
306,147,71637,1,10,2:2:0:0:
306,147,71800,6,0,P|286:194|276:276,2,119.000002269745,2|8|0,1:2|3:2|1:1,0:0:0:0:
446,82,72778,2,0,P|467:108|471:140,1,59.5000011348725,10|0,3:2|0:0,0:0:0:0:
471,210,73104,6,0,P|412:218|357:240,2,119.000002269745,0|8|0,1:1|3:2|1:1,0:0:0:0:
501,286,73919,1,0,1:1:0:0:
501,286,74083,2,0,P|493:330|490:353,1,59.5000011348725,8|2,3:2|1:2,0:0:0:0:
417,369,74409,6,0,P|372:360|336:354,1,59.5000011348725,2|2,1:2|2:2,0:0:0:0:
301,305,74735,1,2,1:2:0:0:
301,305,74898,2,0,P|256:296|220:290,1,59.5000011348725,2|0,2:2|1:1,0:0:0:0:
188,237,75224,6,0,P|134:214|80:236,2,119.000002269745,2|2|2,2:2|2:2|2:2,0:0:0:0:
307,340,76202,1,2,2:2:0:0:
420,234,76528,1,2,1:2:0:0:
420,234,76610,1,0,1:1:0:0:
420,234,76691,2,0,L|431:180,3,29.7500005674362,2|0|0|0,1:2|1:1|1:1|1:1,0:0:0:0:
436,167,77017,5,8,1:2:0:0:
422,12,77343,2,0,P|390:35|347:27,1,59.5000011348725,10|8,2:3|2:2,0:0:0:0:
296,17,77669,1,10,2:2:0:0:
296,17,77833,1,8,2:2:0:0:
238,68,77996,2,0,P|232:105|223:142,1,59.5000011348725,10|4,2:2|2:3,0:0:0:0:
178,186,78322,6,0,P|133:158|53:176,2,119.000002269745,6|10|2,1:2|2:3|1:3,0:0:0:0:
208,267,79137,1,0,1:1:0:0:
208,267,79300,1,10,2:3:0:0:
275,313,79463,6,0,P|319:301|409:282,1,125.999996154785,2|2,1:2|1:2,0:0:0:0:
480,295,79952,1,10,2:3:0:0:
480,295,80115,2,0,P|505:234|476:173,1,125.999996154785,2|2,1:2|1:2,0:0:0:0:
410,144,80604,2,0,P|355:158|324:166,1,62.9999980773926,10|2,2:3|1:2,0:0:0:0:
274,124,80930,6,0,P|231:109|147:96,2,125.999996154785,2|10|2,1:3|2:3|1:3,0:0:0:0:
330,184,81745,1,0,1:1:0:0:
286,253,81908,1,10,2:3:0:0:
286,253,82072,6,0,P|240:263|209:269,1,62.9999980773926,2|2,1:2|2:3,0:0:0:0:
167,324,82398,1,2,1:2:0:0:
167,324,82561,2,0,P|121:334|90:340,1,62.9999980773926,10|2,2:3|1:2,0:0:0:0:
23,195,83050,1,2,1:2:0:0:
23,195,83213,2,0,P|33:149|39:118,1,62.9999980773926,12|2,2:2|1:2,0:0:0:0:
27,51,83539,6,0,P|106:24|157:47,1,125.999996154785,6|10,1:2|2:3,0:0:0:0:
203,92,84028,1,0,0:0:0:0:
203,92,84191,2,0,P|189:131|180:172,1,62.9999980773926,2|2,1:3|1:2,0:0:0:0:
204,231,84517,1,10,2:3:0:0:
204,231,84680,6,0,P|249:263|327:241,1,125.999996154785,2|2,1:2|1:2,0:0:0:0:
387,212,85169,1,10,2:3:0:0:
387,212,85332,2,0,P|401:146|407:80,1,125.999996154785,2|2,1:2|1:2,0:0:0:0:
360,20,85821,2,0,P|333:4|276:13,1,62.9999980773926,10|2,2:3|1:2,0:0:0:0:
241,57,86148,6,0,P|175:35|104:40,2,125.999996154785,2|10|2,1:3|2:3|1:3,0:0:0:0:
292,120,86963,1,2,1:2:0:0:
238,182,87126,2,0,L|182:192,3,31.4999990386963,8|8|10|8,2:3|2:3|2:3|2:3,0:0:0:0:
166,195,87452,5,0,1:1:0:0:
107,252,87615,1,10,2:2:0:0:
107,252,87778,2,0,P|123:302|129:338,1,62.9999980773926,2|10,1:3|2:2,0:0:0:0:
196,353,88104,2,0,P|229:329|273:333,1,62.9999980773926,10|10,1:2|2:2,0:0:0:0:
335,362,88430,1,10,1:3:0:0:
335,362,88512,1,8,2:3:0:0:
335,362,88593,2,0,L|387:351,1,31.4999990386963,6|4,2:3|2:3,0:0:0:0:
404,369,88756,6,0,P|427:315|409:242,1,125.999996154785,6|10,1:2|2:3,0:0:0:0:
353,191,89245,2,0,P|306:176|218:166,1,125.999996154785,2|0,2:2|1:1,0:0:0:0:
155,120,89735,6,0,L|166:75,1,47.2499985580445,10|0,2:3|1:1,0:0:0:0:
346,14,90224,6,0,P|378:38|409:39,1,62.9999980773926,0|10,1:1|2:3,0:0:0:0:
481,43,90550,2,0,L|459:179,1,125.999996154785,0|0,1:1|1:1,0:0:0:0:
476,247,91039,1,10,2:3:0:0:
476,247,91202,1,0,1:1:0:0:
431,315,91365,6,0,P|386:346|319:337,1,125.999996154785,2|10,1:3|2:3,0:0:0:0:
250,290,91854,2,0,L|270:150,1,125.999996154785,2|0,2:2|1:1,0:0:0:0:
242,87,92343,1,10,2:3:0:0:
242,87,92506,6,0,P|179:51|107:65,1,125.999996154785,0|0,1:1|1:1,0:0:0:0:
59,100,92995,1,10,2:3:0:0:
59,100,93158,2,0,P|68:147|71:171,1,62.9999980773926,0|2,1:1|2:3,0:0:0:0:
50,244,93485,1,0,1:1:0:0:
50,244,93648,2,0,P|96:258|119:265,1,62.9999980773926,14|0,2:2|0:0,0:0:0:0:
178,299,93974,6,0,P|118:293|76:342,2,119.000002269745,2|8|0,1:2|3:2|1:1,0:0:0:0:
312,375,94952,1,10,3:2:0:0:
394,244,95278,6,0,L|419:117,1,119.000002269745,0|8,1:1|3:2,0:0:0:0:
335,35,95930,2,0,P|296:25|269:22,1,59.5000011348725,0|0,1:1|1:1,0:0:0:0:
208,58,96256,1,8,3:2:0:0:
208,58,96419,1,0,1:1:0:0:
162,120,96582,6,0,P|179:171|194:241,1,119.000002269745,2|0,1:2|1:1,0:0:0:0:
230,302,97071,2,0,P|266:316|294:320,2,59.5000011348725,2|2|2,2:2|1:2|2:2,0:0:0:0:
264,151,97724,1,2,2:2:0:0:
264,151,97887,6,0,P|310:137|340:135,1,59.5000011348725,2|2,1:2|2:2,0:0:0:0:
390,168,98213,2,0,P|395:197|405:225,1,59.5000011348725,2|2,1:2|2:2,0:0:0:0:
487,356,98702,2,0,L|433:343,5,29.7500005674362,2|0|2|0|2|0,1:2|1:1|1:2|1:1|1:2|1:1,0:0:0:0:
