osu file format v14

[General]
AudioFilename: audio.mp3
AudioLeadIn: 0
PreviewTime: 77686
Countdown: 0
SampleSet: Soft
StackLeniency: 0.7
Mode: 0
LetterboxInBreaks: 0
WidescreenStoryboard: 0

[Editor]
DistanceSpacing: 0.9
BeatDivisor: 4
GridSize: 4
TimelineZoom: 2.500002

[Metadata]
Title:as x sist ~Amae Beta na Watashi Nari ni~ (Short Ver.)
TitleUnicode:as×sist ~甘えベタな私なりに~ (Short Ver.)
Artist:Kawada Mami
ArtistUnicode:川田まみ
Creator:Shunao
Version:Nano's Easy
Source:甘えかたは彼女なりに。
Tags:amaekata wa kanojo nari ni a synopsis of girls who don't flatter me. galgame giga visual novel vn eroge shogunmoon -nanoripe- agatsu dored digidrake osuplayer111 andrea op opening japanese pop j-pop jpop female vocals vocalist
BeatmapID:1755293
BeatmapSetID:836969

[Difficulty]
HPDrainRate:3
CircleSize:3
OverallDifficulty:2
ApproachRate:3
SliderMultiplier:1
SliderTickRate:1

[Events]
//Background and Video events
0,0,"BG1.jpg",0,0
Video,447,"video.avi"
//Break Periods
//Storyboard Layer 0 (Background)
//Storyboard Layer 1 (Fail)
//Storyboard Layer 2 (Pass)
//Storyboard Layer 3 (Foreground)
//Storyboard Layer 4 (Overlay)
//Storyboard Sound Samples

[TimingPoints]
2597,357.142857142857,4,2,2,30,1,0
16882,-100,4,2,2,50,0,0
17061,-100,4,2,2,50,0,0
17239,-100,4,2,2,50,0,0
17596,-100,4,2,2,50,0,0
17775,-100,4,2,2,50,0,0
17954,-100,4,2,2,55,0,0
18221,-100,4,2,2,5,0,0
18311,-100,4,2,2,60,0,0
41168,-100,4,2,2,30,0,0
51168,-100,4,2,2,40,0,0
52596,-100,4,2,2,50,0,0
64025,-100,4,2,2,60,0,0
78311,-100,4,2,2,75,0,1
89561,-100,4,2,2,75,0,0
89739,-100,4,2,2,75,0,1
101168,-100,4,2,2,40,0,0
106882,-100,4,2,2,5,0,0

[Colours]
Combo1 : 255,128,192
Combo2 : 198,114,207
Combo3 : 0,103,230
Combo4 : 132,193,255

[HitObjects]
81,172,16882,6,0,P|62:77|151:163,1,300,2|8,0:0|0:0,0:0:0:0:
148,241,18311,6,0,L|267:226,1,100,4|8,1:2|0:0,0:0:0:0:
276,143,19025,2,0,L|375:155,1,100,0|10,1:0|0:0,0:0:0:0:
464,168,19739,2,0,P|480:262|421:355,1,200,0|0,1:0|1:0,0:0:0:0:
340,370,20811,1,10,0:0:0:0:
283,304,21168,6,0,L|72:292,1,200,0|0,1:0|1:0,0:0:0:0:
8,243,22239,1,10,0:0:0:0:
62,171,22596,2,0,P|125:192|224:96,1,200,0|0,1:0|1:0,0:0:0:0:
205,26,23668,1,10,0:0:0:0:
289,56,24025,6,0,B|400:43|400:43|438:55,1,150,6|0,1:2|0:0,0:0:0:0:
506,111,24918,1,0,1:0:0:0:
441,173,25275,2,0,B|404:184|404:184|293:171,1,150,6|8,1:2|0:0,0:0:0:0:
209,205,26168,2,0,P|196:248|221:317,1,100,0|8,1:0|0:0,0:0:0:0:
271,365,26882,6,0,L|477:346,1,200,2|0,1:2|1:0,0:0:0:0:
494,259,27954,1,10,0:0:0:0:
430,195,28311,2,0,P|412:145|457:56,2,150,6|0|10,1:2|0:0|0:0,0:0:0:0:
365,257,29739,6,0,L|250:247,1,100,4|8,1:2|0:0,0:0:0:0:
197,307,30454,2,0,L|97:315,1,100,0|10,1:0|0:0,0:0:0:0:
24,261,31168,2,0,P|63:201|40:67,1,200,0|0,1:0|1:0,0:0:0:0:
118,22,32239,1,10,0:0:0:0:
180,86,32596,6,0,L|283:91,1,100,0|8,1:0|0:0,0:0:0:0:
344,153,33311,2,0,B|325:265|325:265|345:312,2,150,0|6|8,1:0|1:2|0:0,0:0:0:0:
432,167,34739,1,2,1:2:0:0:
492,100,35096,1,8,0:0:0:0:
434,32,35454,6,0,P|369:10|283:37,2,150,6|2|8,1:2|0:0|0:0,0:0:0:0:
396,113,36882,2,0,L|420:319,1,200,0|0,0:0|0:0,0:0:0:0:
352,372,37954,1,8,0:0:0:0:
301,297,38311,6,0,P|256:269|204:270,1,100,2|8,1:2|0:0,0:0:0:0:
151,336,39025,2,0,L|-3:316,2,150,0|2|10,1:0|0:0|0:0,0:0:0:0:
211,268,40454,1,8,0:0:0:0:
153,199,40811,1,8,0:0:0:0:
217,135,41168,6,0,P|286:162|401:102,2,200,6|0|0,0:0|0:0|0:0,0:0:0:0:
75,23,43311,1,0,0:0:0:0:
18,93,43668,1,2,0:0:0:0:
88,148,44025,6,0,L|70:350,2,200,2|0|0,0:0|0:0|0:0,0:0:0:0:
229,36,46168,1,0,0:0:0:0:
317,53,46525,1,2,0:0:0:0:
381,116,46882,6,0,L|407:322,2,200,6|0|0,0:0|0:0|0:0,0:0:0:0:
213,181,49025,1,0,0:0:0:0:
186,267,49382,1,2,0:0:0:0:
106,225,49739,6,0,P|81:177|133:39,1,200,2|0,0:0|0:0,0:0:0:0:
301,18,51168,1,8,0:0:0:0:
346,95,51525,1,8,0:0:0:0:
413,36,51882,2,0,P|463:24|522:42,1,100,0|8,1:0|0:0,0:0:0:0:
503,124,52596,6,0,L|494:237,1,100,4|8,1:2|0:0,0:0:0:0:
420,274,53311,2,0,B|311:258|311:258|258:269,2,150,0|2|8,1:0|0:0|0:0,0:0:0:0:
413,363,54739,2,0,L|302:346,1,100,0|8,1:0|0:0,0:0:0:0:
271,266,55454,6,0,L|153:276,1,100,0|8,1:0|0:0,0:0:0:0:
116,202,56168,2,0,P|93:133|133:50,2,150,0|2|8,1:0|0:0|0:0,0:0:0:0:
170,274,57596,1,0,1:0:0:0:
92,319,57954,1,8,0:0:0:0:
162,375,58311,6,0,L|285:367,1,100,2|8,1:2|0:0,0:0:0:0:
341,326,59025,2,0,B|455:337|455:337|494:324,2,150,0|2|8,0:0|0:0|0:0,0:0:0:0:
271,268,60454,2,0,P|259:216|285:160,1,100,0|8,1:0|0:0,0:0:0:0:
305,88,61168,6,0,L|454:77,1,150,2|2,1:2|0:0,0:0:0:0:
502,153,62061,1,0,1:0:0:0:
477,239,62418,2,0,L|307:227,1,150,2|10,0:0|0:0,0:0:0:0:
258,170,63311,1,0,1:0:0:0:
178,211,63668,1,10,0:0:0:0:
95,173,64025,6,0,P|77:119|121:27,2,150,14|0|8,0:0|1:0|0:0,0:0:0:0:
178,211,65454,2,0,L|169:322,1,100,8|8,0:0|0:0,0:0:0:0:
259,322,66168,2,0,L|267:222,1,100,8|8,0:0|0:0,0:0:0:0:
348,183,66882,6,0,B|456:194|456:194|498:182,2,150,10|0|8,0:0|1:0|0:0,0:0:0:0:
321,96,68311,2,0,P|271:87|208:103,1,100,8|8,0:0|0:0,0:0:0:0:
195,181,69025,2,0,P|146:190|97:180,1,100,8|8,0:0|0:0,0:0:0:0:
50,103,69739,6,0,L|59:268,2,150,10|0|8,0:0|1:0|0:0,0:0:0:0:
105,31,71168,2,0,P|151:24|211:33,1,100,8|8,0:0|0:0,0:0:0:0:
254,105,71882,2,0,P|300:112|360:103,1,100,8|8,0:0|0:0,0:0:0:0:
442,112,72596,6,0,P|461:155|453:214,1,100,6|8,0:0|0:0,0:0:0:0:
378,252,73311,2,0,L|227:238,2,150,0|0|8,1:0|1:0|0:0,0:0:0:0:
459,290,74739,1,0,1:0:0:0:
410,365,75096,1,8,0:0:0:0:
324,335,75454,6,0,L|216:325,1,100,12|8,0:0|0:0,0:0:0:0:
151,272,76168,2,0,P|168:228|118:136,1,150,8|0,0:0|1:0,0:0:0:0:
81,219,77061,2,0,L|17:229,1,50,8|8,0:0|0:0,0:0:0:0:
31,226,78311,5,4,1:2:0:0:
85,297,78668,1,8,0:0:0:0:
154,240,79025,2,0,P|195:224|261:254,1,100,0|10,1:0|0:0,0:0:0:0:
331,209,79739,2,0,L|309:95,2,100,0|8|0,1:0|0:0|1:0,0:0:0:0:
384,281,80811,1,10,0:0:0:0:
335,356,81168,6,0,P|299:367|235:349,1,100,0|8,1:0|0:0,0:0:0:0:
176,287,81882,2,0,L|16:302,2,150,0|2|10,1:0|0:0|0:0,0:0:0:0:
216,206,83311,1,2,1:2:0:0:
303,228,83668,1,10,0:0:0:0:
284,139,84025,6,0,L|265:22,1,100,4|8,1:2|0:0,0:0:0:0:
180,19,84739,2,0,B|81:9|81:9|31:36,2,150,0|6|10,1:0|1:2|0:0,0:0:0:0:
267,39,86168,1,0,1:0:0:0:
223,117,86525,1,10,0:0:0:0:
140,153,86882,6,0,L|39:168,1,100,2|8,1:2|0:0,0:0:0:0:
11,252,87596,2,0,P|5:295|44:355,1,100,0|8,1:0|0:0,0:0:0:0:
119,354,88311,2,0,B|219:316|219:316|280:332,1,150,6|0,1:2|1:0,0:0:0:0:
341,366,89204,1,10,0:0:0:0:
400,298,89561,2,0,L|411:241,1,50,10|14,0:0|0:0,0:0:0:0:
348,182,90096,5,8,0:0:0:0:
420,128,90454,2,0,P|426:72|396:27,1,100,0|10,1:0|0:0,0:0:0:0:
317,15,91168,2,0,L|212:33,1,100,2|8,1:2|0:0,0:0:0:0:
132,59,91882,1,0,1:0:0:0:
72,126,92239,2,0,P|64:188|81:227,2,100,8|2|8,0:0|1:2|0:0,0:0:0:0:
151,167,93311,6,0,B|263:188|263:188|313:160,2,150,0|6|10,1:0|1:2|0:0,0:0:0:0:
150,77,94739,1,2,1:2:0:0:
226,30,95096,1,10,0:0:0:0:
315,36,95454,6,0,L|424:63,1,100,6|10,1:2|0:0,0:0:0:0:
483,115,96168,2,0,P|493:157|457:225,1,100,0|10,1:0|0:0,0:0:0:0:
421,281,96882,2,0,B|260:251|260:251|216:279,1,200,0|0,0:0|1:0,0:0:0:0:
178,345,97954,1,10,0:0:0:0:
94,311,98311,6,0,L|112:189,1,100,2|10,1:2|0:0,0:0:0:0:
174,150,99025,2,0,B|289:174|289:174|334:147,2,150,0|6|10,1:0|1:2|0:0,0:0:0:0:
103,93,100454,1,10,0:0:0:0:
32,148,100811,1,10,0:0:0:0:
256,192,101168,12,0,105454,0:0:0:0:
