osu file format v14

[General]
AudioFilename: audio.mp3
AudioLeadIn: 0
PreviewTime: 77686
Countdown: 0
SampleSet: Soft
StackLeniency: 0.7
Mode: 0
LetterboxInBreaks: 0
WidescreenStoryboard: 1

[Editor]
DistanceSpacing: 1.4
BeatDivisor: 4
GridSize: 4
TimelineZoom: 2.400001

[Metadata]
Title:as x sist ~Amae Beta na Watashi Nari ni~ (Short Ver.)
TitleUnicode:as×sist ~甘えベタな私なりに~ (Short Ver.)
Artist:Kawada Mami
ArtistUnicode:川田まみ
Creator:Shunao
Version:Andrea's Insane
Source:甘えかたは彼女なりに。
Tags:amaekata wa kanojo nari ni a synopsis of girls who don't flatter me. galgame giga visual novel vn eroge shogunmoon -nanoripe- agatsu dored digidrake osuplayer111 andrea op opening japanese pop j-pop jpop female vocals vocalist
BeatmapID:1763965
BeatmapSetID:836969

[Difficulty]
HPDrainRate:6
CircleSize:4
OverallDifficulty:7.5
ApproachRate:9
SliderMultiplier:1.6
SliderTickRate:1

[Events]
//Background and Video events
Video,447,"video.avi"
0,0,"BG3.jpg",0,0
//Break Periods
//Storyboard Layer 0 (Background)
//Storyboard Layer 1 (Fail)
//Storyboard Layer 2 (Pass)
//Storyboard Layer 3 (Foreground)
//Storyboard Layer 4 (Overlay)
//Storyboard Sound Samples

[TimingPoints]
2597,357.142857142857,4,2,2,30,1,0
16882,-142.857142857143,4,2,2,50,0,0
17507,-111.111111111111,4,2,2,50,0,0
17596,-111.111111111111,4,2,2,50,0,0
17954,-111.111111111111,4,2,2,55,0,0
18221,-111.111111111111,4,2,2,5,0,0
18311,-111.111111111111,4,2,2,60,0,0
41168,-142.857142857143,4,2,2,30,0,0
51168,-142.857142857143,4,2,2,40,0,0
52596,-111.111111111111,4,2,2,50,0,0
64025,-100,4,2,2,60,0,0
78311,-90.9090909090909,4,2,2,75,0,1
101168,-100,4,2,2,40,0,0
102596,-100,4,2,2,30,0,0
104025,-100,4,2,2,20,0,0
105454,-100,4,2,2,10,0,0
106882,-100,4,2,2,5,0,0

[Colours]
Combo1 : 255,128,192
Combo2 : 198,114,207
Combo3 : 0,103,230
Combo4 : 132,193,255

[HitObjects]
208,68,16882,6,0,P|256:44|304:68,1,111.999996582031,2|0,0:0|0:0,0:0:0:0:
344,284,17596,1,8,3:0:0:0:
256,348,17775,1,0,1:0:0:0:
256,348,17864,1,0,1:0:0:0:
256,348,17954,1,8,0:0:0:0:
168,284,18132,1,0,0:0:0:0:
32,128,18311,6,0,B|88:128|88:128|120:112|120:112|176:112,1,143.999995605469,4|8,1:2|0:0,0:0:0:0:
256,32,18846,1,2,0:0:0:0:
340,112,19025,2,0,P|380:112|412:136,1,71.9999978027344,0|0,1:0|1:0,0:0:0:0:
352,328,19382,2,0,P|312:328|280:304,1,71.9999978027344,10|2,0:0|0:0,0:0:0:0:
172,272,19739,6,0,B|120:272|120:272|88:256|88:256|32:256,1,143.999995605469,0|8,1:0|0:0,0:0:0:0:
31,128,20275,1,2,0:0:0:0:
116,48,20454,2,0,B|152:48|152:48|184:68,1,71.9999978027344,0|0,1:0|1:0,0:0:0:0:
396,48,20811,2,0,B|360:48|360:48|328:68,1,71.9999978027344,10|2,0:0|0:0,0:0:0:0:
256,156,21168,2,0,B|232:224|280:224|256:296,1,143.999995605469,0|8,1:0|0:0,0:0:0:0:
328,192,21704,1,2,0:0:0:0:
184,260,21882,2,0,P|144:260|112:280,1,71.9999978027344,0|0,1:0|1:0,0:0:0:0:
328,192,22239,2,0,P|368:192|400:172,1,71.9999978027344,10|2,0:0|0:0,0:0:0:0:
164,72,22596,5,0,1:0:0:0:
348,72,22775,1,0,1:0:0:0:
184,192,22954,2,0,P|160:260|184:324,1,143.999995605469,8|0,0:0|1:0,0:0:0:0:
328,324,23489,1,0,1:0:0:0:
428,220,23668,1,10,0:0:0:0:
328,120,23846,1,2,0:0:0:0:
328,120,23936,1,2,0:0:0:0:
328,120,24025,6,0,B|280:120|248:88|248:88|192:88,2,143.999995605469,6|8|0,1:2|0:0|1:0,0:0:0:0:
332,4,24918,1,0,1:0:0:0:
180,4,25096,1,8,0:0:0:0:
48,124,25275,2,0,B|25:192|25:192|48:260,1,143.999995605469,6|0,1:2|1:0,0:0:0:0:
324,336,25811,2,0,B|256:313|256:313|188:336,1,143.999995605469,8|0,0:0|1:0,0:0:0:0:
368,256,26346,1,0,1:0:0:0:
144,256,26525,2,0,L|224:228,1,71.9999978027344,8|0,0:0|0:0,0:0:0:0:
320,44,26882,6,0,P|256:16|192:44,1,143.999995605469,2|8,1:2|0:0,0:0:0:0:
356,152,27418,1,2,0:0:0:0:
156,152,27596,2,0,B|156:192|156:192|140:228,1,71.9999978027344,0|0,1:0|1:0,0:0:0:0:
356,152,27954,2,0,B|356:192|356:192|372:228,1,71.9999978027344,10|2,0:0|0:0,0:0:0:0:
180,332,28311,1,6,1:2:0:0:
332,332,28489,1,0,1:0:0:0:
256,192,28668,2,0,B|232:120|280:120|256:52,1,143.999995605469,10|10,0:0|0:0,0:0:0:0:
356,152,29204,1,0,1:0:0:0:
356,152,29293,1,0,1:0:0:0:
356,152,29382,2,0,P|392:152|420:172,1,71.9999978027344,10|10,0:0|0:0,0:0:0:0:
324,336,29739,6,0,B|284:336|256:316|256:316|228:336|188:336,1,143.999995605469,4|8,1:2|0:0,0:0:0:0:
316,256,30275,1,2,0:0:0:0:
196,256,30454,2,0,L|160:192,1,71.9999978027344,0|0,1:0|1:0,0:0:0:0:
316,256,30811,2,0,L|352:192,1,71.9999978027344,10|2,0:0|0:0,0:0:0:0:
256,32,31168,6,0,B|248:92|248:92|264:116|264:116|256:172,1,143.999995605469,0|8,1:0|0:0,0:0:0:0:
196,256,31704,1,2,0:0:0:0:
316,256,31882,2,0,B|352:256|352:256|384:276,1,71.9999978027344,0|2,1:0|0:0,0:0:0:0:
196,256,32239,2,0,B|160:256|160:256|128:276,1,71.9999978027344,10|2,0:0|0:0,0:0:0:0:
144,356,32596,2,0,L|60:232,1,143.999995605469,0|8,1:0|0:0,0:0:0:0:
0,152,33132,1,2,0:0:0:0:
128,40,33311,6,0,B|160:60|160:60|196:60,1,71.9999978027344,0|0,1:0|1:0,0:0:0:0:
318,60,33668,1,10,0:0:0:0:
440,256,33846,2,0,P|468:192|440:128,1,143.999995605469,6|0,1:2|1:0,0:0:0:0:
320,328,34382,2,0,P|256:356|192:328,2,143.999995605469,8|2|8,0:0|1:2|0:0,0:0:0:0:
256,192,35275,1,2,0:0:0:0:
256,192,35364,1,2,0:0:0:0:
256,192,35454,5,6,1:2:0:0:
191,56,35632,2,0,P|255:28|320:56,2,143.999995605469,2|2|0,0:0|0:0|1:0,0:0:0:0:
164,168,36525,1,8,0:0:0:0:
348,168,36704,2,0,B|348:208|368:236|368:236|348:264|348:304,1,143.999995605469,2|0,0:0|1:0,0:0:0:0:
256,236,37239,1,8,0:0:0:0:
164,304,37418,2,0,B|164:264|144:236|144:236|164:208|164:168,1,143.999995605469,2|0,0:0|1:0,0:0:0:0:
348,52,37954,1,8,0:0:0:0:
256,236,38132,1,2,0:0:0:0:
164,52,38311,5,2,1:2:0:0:
349,168,38489,1,0,0:0:0:0:
163,168,38668,2,0,P|88:168|40:216,1,143.999995605469,8|0,0:0|1:0,0:0:0:0:
128,352,39204,1,0,1:0:0:0:
128,352,39293,1,0,1:0:0:0:
128,352,39382,1,8,0:0:0:0:
256,308,39561,1,2,0:0:0:0:
384,352,39739,1,4,1:2:0:0:
472,192,39918,6,0,P|432:192|404:176,1,71.9999978027344,2|10,0:0|0:0,0:0:0:0:
340,48,40275,1,8,0:0:0:0:
340,48,40364,1,8,0:0:0:0:
340,48,40454,1,8,0:0:0:0:
172,48,40632,1,8,0:0:0:0:
172,48,40721,1,8,0:0:0:0:
172,48,40811,1,8,0:0:0:0:
108,176,40989,1,8,0:0:0:0:
256,280,41168,5,6,0:0:0:0:
404,176,41525,1,2,0:0:0:0:
404,176,42239,1,2,0:0:0:0:
404,176,42954,1,2,0:0:0:0:
256,32,43668,1,2,0:0:0:0:
108,176,44025,5,2,0:0:0:0:
256,320,44382,1,2,0:0:0:0:
256,320,45096,1,2,0:0:0:0:
256,320,45811,1,2,0:0:0:0:
404,176,46525,1,2,0:0:0:0:
256,32,46882,5,6,0:0:0:0:
108,176,47239,1,2,0:0:0:0:
108,176,47954,1,2,0:0:0:0:
108,176,48668,1,2,0:0:0:0:
108,176,49382,1,2,0:0:0:0:
56,376,49739,5,2,0:0:0:0:
256,320,50096,1,2,0:0:0:0:
256,320,50811,1,2,0:0:0:0:
404,176,51168,6,0,L|404:120,1,55.9999982910157,8|0,0:0|1:0,0:0:0:0:
256,28,51525,2,0,L|256:92,1,55.9999982910157,8|0,0:0|1:0,0:0:0:0:
108,176,51882,2,0,L|108:120,1,55.9999982910157,0|8,1:0|0:0,0:0:0:0:
108,48,52150,1,8,0:0:0:0:
108,48,52239,1,8,0:0:0:0:
256,176,52418,1,2,0:0:0:0:
404,48,52596,6,0,B|404:88|424:116|424:116|404:144|404:184,1,143.999995605469,4|8,1:2|0:0,0:0:0:0:
344,284,53132,1,2,0:0:0:0:
168,284,53311,2,0,B|132:284|132:284|96:264,1,71.9999978027344,0|0,1:0|1:0,0:0:0:0:
12,192,53668,1,8,0:0:0:0:
100,118,53846,2,0,P|176:116|224:68,1,143.999995605469,2|0,0:0|0:0,0:0:0:0:
376,68,54382,2,0,B|416:68|416:68|444:84,1,71.9999978027344,8|0,0:0|0:0,0:0:0:0:
443,301,54739,2,0,B|408:344|360:344|360:344|304:344,1,143.999995605469,0|8,1:0|0:0,0:0:0:0:
256,244,55275,1,2,0:0:0:0:
200,344,55454,6,0,P|160:344|128:324,1,71.9999978027344,0|2,1:0|0:0,0:0:0:0:
32,192,55811,2,0,B|72:144|72:144|104:136|104:136|140:92,1,143.999995605469,8|0,0:0|1:0,0:0:0:0:
312,4,56346,1,0,1:0:0:0:
204,140,56525,1,8,0:0:0:0:
200,4,56704,1,2,0:0:0:0:
308,140,56882,2,0,B|380:140|380:140|440:184,1,143.999995605469,0|8,1:0|0:0,0:0:0:0:
440,300,57418,1,0,0:0:0:0:
488,120,57596,2,0,L|424:72,1,71.9999978027344,0|0,1:0|1:0,0:0:0:0:
256,32,57954,6,0,B|184:8|184:56|112:32,1,143.999995605469,8|2,0:0|1:2,0:0:0:0:
40,264,58489,1,0,0:0:0:0:
40,120,58668,1,8,0:0:0:0:
115,350,58846,2,0,B|184:328|184:376|256:352,1,143.999995605469,2|0,0:0|1:0,0:0:0:0:
256,236,59382,1,8,0:0:0:0:
396,350,59561,2,0,B|328:328|328:376|256:352,1,143.999995605469,2|0,0:0|0:0,0:0:0:0:
152,226,60096,2,0,P|143:191|152:156,1,71.9999978027344,8|0,0:0|0:0,0:0:0:0:
290,88,60454,2,0,P|255:79|220:88,1,71.9999978027344,0|0,1:0|1:0,0:0:0:0:
360,226,60811,2,0,P|369:191|360:156,1,71.9999978027344,8|2,0:0|0:0,0:0:0:0:
220,297,61168,6,0,P|160:331|100:297,1,143.999995605469,2|8,1:2|0:0,0:0:0:0:
100,86,61704,2,0,P|160:53|220:87,1,143.999995605469,2|0,0:0|1:0,0:0:0:0:
312,264,62239,1,8,0:0:0:0:
312,120,62418,1,2,0:0:0:0:
404,312,62596,1,0,1:0:0:0:
404,72,62775,1,0,0:0:0:0:
496,264,62954,1,10,0:0:0:0:
496,120,63132,1,0,0:0:0:0:
312,264,63311,5,0,1:0:0:0:
496,264,63489,1,0,1:0:0:0:
496,264,63579,1,0,1:0:0:0:
496,264,63668,1,10,0:0:0:0:
312,120,63846,1,0,0:0:0:0:
128,84,64025,6,0,P|90:71|54:84,1,80,14|0,0:0|0:0,0:0:0:0:
53,299,64382,2,0,P|90:313|128:300,1,80,8|0,0:0|1:0,0:0:0:0:
256,196,64739,1,8,0:0:0:0:
256,196,64918,1,0,1:0:0:0:
384,84,65096,2,0,P|422:71|458:84,1,80,8|0,0:0|1:0,0:0:0:0:
458,299,65453,2,0,P|421:313|384:300,1,80,8|0,0:0|1:0,0:0:0:0:
256,196,65811,1,8,0:0:0:0:
256,196,65989,1,0,1:0:0:0:
128,84,66168,2,0,B|120:124|120:124|128:164,1,80,8|0,0:0|1:0,0:0:0:0:
384,162,66525,2,0,B|392:124|392:124|384:84,1,80,8|0,0:0|1:0,0:0:0:0:
216,348,66882,6,0,B|254:355|254:355|294:347,1,80,10|0,0:0|0:0,0:0:0:0:
294,36,67239,2,0,B|254:28|254:28|216:36,1,80,8|0,0:0|1:0,0:0:0:0:
204,272,67596,1,8,0:0:0:0:
256,111,67775,1,0,1:0:0:0:
308,272,67954,1,8,0:0:0:0:
171,173,68132,1,0,1:0:0:0:
340,173,68311,6,0,P|364:136|364:96,1,80,8|0,0:0|1:0,0:0:0:0:
171,173,68668,2,0,P|147:136|147:96,1,80,8|0,0:0|1:0,0:0:0:0:
308,272,69025,2,0,P|332:309|332:349,1,80,8|0,0:0|1:0,0:0:0:0:
204,272,69382,2,0,P|180:309|180:349,1,80,8|0,0:0|1:0,0:0:0:0:
256,111,69739,6,0,L|256:28,1,80,10|0,0:0|1:0,0:0:0:0:
152,192,70096,2,0,L|72:192,1,80,8|0,0:0|1:0,0:0:0:0:
256,273,70454,2,0,L|256:356,1,80,8|0,0:0|1:0,0:0:0:0:
360,192,70811,2,0,L|440:192,1,80,8|0,0:0|1:0,0:0:0:0:
152,112,71168,5,8,0:0:0:0:
152,272,71346,1,0,1:0:0:0:
360,272,71525,1,8,0:0:0:0:
360,112,71704,1,0,1:0:0:0:
256,272,71882,2,0,B|248:312|248:312|256:352,1,80,8|0,0:0|1:0,0:0:0:0:
256,112,72239,2,0,B|264:72|264:72|256:32,1,80,8|2,0:0|0:0,0:0:0:0:
184,24,72507,1,2,0:0:0:0:
184,24,72596,6,0,B|144:16|144:16|104:24,1,80,6|0,0:0|0:0,0:0:0:0:
32,268,72954,2,0,B|16:220|16:220|34:192|16:160|16:160|32:116,1,160,8|0,0:0|1:0,0:0:0:0:
160,268,73489,1,0,1:0:0:0:
160,116,73668,1,8,0:0:0:0:
332,344,73846,2,0,B|288:360|288:360|256:342|228:360|228:360|180:344,1,160,0|0,1:0|1:0,0:0:0:0:
352,116,74382,1,8,0:0:0:0:
352,268,74561,1,0,0:0:0:0:
480,116,74739,2,0,B|496:160|496:160|478:192|496:220|496:220|480:268,1,160,0|8,1:0|0:0,0:0:0:0:
352,116,75275,1,0,1:0:0:0:
256,28,75454,6,0,B|196:28|196:28|152:44|152:44|96:44,1,160,12|8,0:0|0:0,0:0:0:0:
40,324,75989,1,0,1:0:0:0:
96,151,76168,1,8,0:0:0:0:
152,324,76346,1,0,1:0:0:0:
5,217,76525,1,8,0:0:0:0:
186,217,76704,2,0,B|268:192|268:240|344:216,1,160,0|8,1:0|0:0,0:0:0:0:
412,40,77239,2,0,B|330:65|330:17|254:41,1,160,8|0,0:0|1:0,0:0:0:0:
128,40,77775,1,8,0:0:0:0:
128,40,77864,1,8,0:0:0:0:
128,40,77954,1,8,0:0:0:0:
20,104,78132,1,8,0:0:0:0:
20,280,78311,6,0,P|100:312|180:280,1,176.000005371094,4|8,1:2|0:0,0:0:0:0:
257,10,78846,1,2,0:0:0:0:
196,200,79025,1,0,1:0:0:0:
357,82,79204,1,0,1:0:0:0:
157,82,79382,1,10,0:0:0:0:
319,200,79561,1,2,0:0:0:0:
480,320,79739,6,0,B|416:320|416:320|372:340|372:340|308:340,1,176.000005371094,0|8,1:0|0:0,0:0:0:0:
256,228,80275,1,2,0:0:0:0:
204,340,80454,2,0,P|160:340|124:316,1,88.000002685547,0|0,1:0|1:0,0:0:0:0:
124,67,80811,2,0,P|160:43|204:44,1,88.000002685547,10|2,0:0|0:0,0:0:0:0:
308,44,81168,2,0,B|372:44|372:44|416:64|416:64|480:64,1,176.000005371094,0|8,1:0|0:0,0:0:0:0:
352,128,81704,1,2,0:0:0:0:
352,128,81882,2,0,L|260:128,1,88.000002685547,0|0,1:0|1:0,0:0:0:0:
160,256,82239,2,0,L|252:256,1,88.000002685547,10|2,0:0|0:0,0:0:0:0:
372,256,82596,5,2,1:2:0:0:
256,120,82775,1,0,1:0:0:0:
456,192,82954,1,10,0:0:0:0:
256,120,83132,1,0,0:0:0:0:
456,92,83311,1,2,1:2:0:0:
256,120,83489,1,0,1:0:0:0:
388,16,83668,1,10,0:0:0:0:
256,120,83846,1,2,0:0:0:0:
256,120,83936,1,2,0:0:0:0:
256,120,84025,6,0,B|212:120|212:120|176:96,1,88.000002685547,4|2,1:2|0:0,0:0:0:0:
256,264,84382,2,0,B|212:264|212:264|176:288,1,88.000002685547,8|2,0:0|0:0,0:0:0:0:
256,92,84739,2,0,B|212:92|212:92|176:68,1,88.000002685547,0|0,1:0|1:0,0:0:0:0:
256,292,85096,2,0,B|212:292|212:292|176:316,1,88.000002685547,10|6,0:0|1:2,0:0:0:0:
60,116,85454,1,0,0:0:0:0:
60,268,85632,1,0,1:0:0:0:
256,192,85811,2,0,B|340:164|340:216|428:192,1,176.000005371094,10|0,0:0|1:0,0:0:0:0:
304,260,86346,1,0,1:0:0:0:
388,124,86525,1,10,0:0:0:0:
248,48,86704,1,0,0:0:0:0:
160,180,86882,6,0,B|160:228|128:260|128:260|160:296|160:340,1,176.000005371094,2|8,1:2|0:0,0:0:0:0:
256,260,87418,1,2,0:0:0:0:
352,340,87596,2,0,B|352:296|384:260|384:260|352:228|352:180,1,176.000005371094,0|8,1:0|0:0,0:0:0:0:
188,60,88132,1,2,0:0:0:0:
324,60,88311,2,0,P|411:67|466:130,1,176.000005371094,6|10,1:2|0:0,0:0:0:0:
332,216,88846,1,0,1:0:0:0:
332,216,89025,2,0,L|376:136,1,88.000002685547,0|10,0:0|0:0,0:0:0:0:
180,168,89382,2,0,L|136:248,1,88.000002685547,8|10,0:0|0:0,0:0:0:0:
100,308,89650,1,8,0:0:0:0:
100,308,89739,6,0,B|140:332|140:332|184:332,1,88.000002685547,14|0,0:0|0:0,0:0:0:0:
412,308,90096,2,0,B|372:332|372:332|328:332,1,88.000002685547,8|2,0:0|0:0,0:0:0:0:
172,244,90454,1,0,1:0:0:0:
340,244,90632,1,0,1:0:0:0:
256,8,90811,2,0,L|256:96,1,88.000002685547,10|2,0:0|0:0,0:0:0:0:
180,192,91168,2,0,B|256:236|256:236|332:192,1,176.000005371094,2|8,1:2|0:0,0:0:0:0:
216,304,91704,1,2,0:0:0:0:
216,304,91882,2,0,L|136:256,1,88.000002685547,0|0,1:0|1:0,0:0:0:0:
296,304,92239,2,0,L|376:256,1,88.000002685547,8|2,0:0|0:0,0:0:0:0:
340,44,92596,6,0,B|296:44|256:20|256:20|212:44|172:44,1,176.000005371094,2|8,1:2|0:0,0:0:0:0:
412,148,93132,1,2,0:0:0:0:
100,148,93311,2,0,P|90:189|100:232,1,88.000002685547,0|0,1:0|1:0,0:0:0:0:
411,232,93668,2,0,P|421:189|411:147,1,88.000002685547,10|6,0:0|1:2,0:0:0:0:
180,360,94025,5,0,0:0:0:0:
256,200,94204,1,0,1:0:0:0:
332,360,94382,1,10,0:0:0:0:
180,360,94561,1,2,0:0:0:0:
329,254,94739,2,0,B|376:254|376:254|411:231,1,88.000002685547,2|2,1:2|1:2,0:0:0:0:
178,251,95096,2,0,B|131:251|131:251|96:228,1,88.000002685547,10|2,0:0|0:0,0:0:0:0:
36,188,95364,1,2,0:0:0:0:
36,188,95454,6,0,P|26:147|36:104,1,88.000002685547,6|2,1:2|0:0,0:0:0:0:
256,28,95811,2,0,P|266:69|256:112,1,88.000002685547,10|2,0:0|0:0,0:0:0:0:
176,68,96168,2,0,B|240:68|240:68|288:92|288:92|348:92,1,176.000005371094,0|10,1:0|0:0,0:0:0:0:
492,192,96704,2,0,B|428:192|428:192|380:168|380:168|320:168,1,176.000005371094,2|0,0:0|1:0,0:0:0:0:
176,268,97239,2,0,B|240:268|240:268|288:244|288:244|348:244,1,176.000005371094,10|0,0:0|1:0,0:0:0:0:
346,92,97775,1,0,1:0:0:0:
166,92,97954,1,10,0:0:0:0:
151,108,98043,1,2,0:0:0:0:
137,125,98132,1,2,0:0:0:0:
123,142,98221,1,2,0:0:0:0:
108,160,98311,6,0,B|108:208|108:208|128:244,1,88.000002685547,2|2,1:2|0:0,0:0:0:0:
384,242,98668,2,0,B|404:208|404:208|404:160,1,88.000002685547,10|2,0:0|0:0,0:0:0:0:
180,60,99025,1,0,1:0:0:0:
332,60,99204,1,0,1:0:0:0:
256,192,99382,1,10,0:0:0:0:
180,324,99561,2,0,B|256:368|256:368|332:324,1,176.000005371094,6|0,1:2|1:0,0:0:0:0:
332,60,100096,6,0,B|256:16|256:16|180:60,1,176.000005371094,10|10,0:0|0:0,0:0:0:0:
148,180,100632,1,8,0:0:0:0:
148,180,100721,1,8,0:0:0:0:
148,180,100811,1,10,0:0:0:0:
256,240,100989,1,8,0:0:0:0:
364,180,101168,6,0,P|256:134|148:180,1,240,6|0,0:0|0:0,0:0:0:0:
256,240,101882,1,2,0:0:0:0:
256,192,101971,12,0,106882,0:0:0:0:
