osu file format v14

[General]
AudioFilename: audio.mp3
AudioLeadIn: 0
PreviewTime: 230286
Countdown: 0
SampleSet: Soft
StackLeniency: 0.7
Mode: 2
LetterboxInBreaks: 0
WidescreenStoryboard: 0

[Editor]
Bookmarks: 102036,189036,213036,255036,292536
DistanceSpacing: 0.1
BeatDivisor: 4
GridSize: 8
TimelineZoom: 1.5

[Metadata]
Title:Wings of Courage -Sora o Koete-
TitleUnicode:Wings of Courage -空を超えて-
Artist:Kawada Mami
ArtistUnicode:川田まみ
Creator:wonjae
Version:Beyond the Sky
Source:蒼の彼方のフォーリズム
Tags:jpop j-pop pop dapu dapuluous -[shady]- sprite opening ao no kanata no four rhythm Aokana across the blue visual novel vn eroge beyond the sky into the firmament video game japanese anime insert song
BeatmapID:3227442
BeatmapSetID:1580594

[Difficulty]
HPDrainRate:5
CircleSize:4
OverallDifficulty:8.8
ApproachRate:8.8
SliderMultiplier:1.8
SliderTickRate:2

[Events]
//Background and Video events
0,0,"watermelon.jpg",0,0
//Break Periods
2,177236,188377
//Storyboard Layer 0 (Background)
//Storyboard Layer 1 (Fail)
//Storyboard Layer 2 (Pass)
//Storyboard Layer 3 (Foreground)
//Storyboard Layer 4 (Overlay)
//Storyboard Sound Samples

[TimingPoints]
9036,375,4,2,1,40,1,0
13536,-100,4,2,1,30,0,0
14473,-100,4,2,1,30,0,0
14661,-100,4,2,1,50,0,0
14707,-100,4,2,1,30,0,0
15036,-100,4,2,1,60,0,0
17379,-100,4,2,1,5,0,0
17473,-100,4,2,1,60,0,0
17567,-100,4,2,1,5,0,0
17661,-100,4,2,1,60,0,0
23379,-100,4,2,1,5,0,0
23473,-100,4,2,1,60,0,0
23567,-100,4,2,1,5,0,0
23661,-100,4,2,1,60,0,0
29379,-100,4,2,1,5,0,0
29473,-100,4,2,1,60,0,0
29567,-100,4,2,1,5,0,0
29661,-100,4,2,1,60,0,0
36129,-100,4,2,1,5,0,0
36223,-100,4,2,1,60,0,0
38707,-100,4,2,1,5,0,0
39036,-100,4,2,1,50,0,0
41379,-100,4,2,1,5,0,0
41473,-100,4,2,1,50,0,0
41567,-100,4,2,1,5,0,0
41661,-100,4,2,1,50,0,0
45036,-100,4,2,1,60,0,0
47942,-100,4,2,1,5,0,0
48036,-100,4,2,1,55,0,0
50942,-100,4,2,1,5,0,0
51036,-100,4,2,1,50,0,0
53379,-100,4,2,1,5,0,0
53473,-100,4,2,1,50,0,0
53567,-100,4,2,1,5,0,0
53661,-100,4,2,1,50,0,0
57036,-100,4,2,1,60,0,0
59942,-100,4,2,1,5,0,0
60036,-100,4,2,1,55,0,0
62379,-100,4,2,1,5,0,0
62473,-100,4,2,1,55,0,0
62567,-100,4,2,1,5,0,0
62661,-100,4,2,1,55,0,0
63036,-100,4,2,1,50,0,0
65942,-100,4,2,1,5,0,0
66036,-100,4,2,1,50,0,0
69036,-100,4,2,1,55,0,0
70254,-100,4,2,1,5,0,0
70348,-100,4,2,1,55,0,0
71754,-100,4,2,1,5,0,0
71848,-100,4,2,1,55,0,0
73254,-100,4,2,1,5,0,0
73348,-100,4,2,1,55,0,0
75036,-100,4,2,1,60,0,0
76348,-100,4,2,1,65,0,0
76629,-100,4,2,1,5,0,0
76723,-100,4,2,1,65,0,0
76817,-100,4,2,1,5,0,0
76911,-100,4,2,1,65,0,0
78036,-100,4,2,1,85,0,1
80379,-100,4,2,1,5,0,1
80473,-100,4,2,1,85,0,1
80567,-100,4,2,1,5,0,1
80661,-100,4,2,1,85,0,1
83942,-100,4,2,1,5,0,1
84036,-100,4,2,1,85,0,1
89379,-100,4,2,1,5,0,1
89473,-100,4,2,1,85,0,1
89567,-100,4,2,1,5,0,1
89661,-100,4,2,1,85,0,1
92379,-100,4,2,1,5,0,1
92473,-100,4,2,1,85,0,1
92567,-100,4,2,1,5,0,1
92661,-100,4,2,1,85,0,1
96692,-100,4,2,1,5,0,1
96786,-100,4,2,1,85,0,1
100067,-100,4,2,1,5,0,1
100161,-100,4,2,1,85,0,1
100254,-100,4,2,1,5,0,1
100348,-100,4,2,1,85,0,1
100536,-100,4,2,1,70,0,1
102036,-90.9090909090909,4,2,1,70,0,0
104379,-90.9090909090909,4,2,1,5,0,0
104473,-90.9090909090909,4,2,1,70,0,0
104567,-90.9090909090909,4,2,1,5,0,0
104661,-90.9090909090909,4,2,1,70,0,0
110379,-90.9090909090909,4,2,1,5,0,0
110473,-90.9090909090909,4,2,1,70,0,0
110567,-90.9090909090909,4,2,1,5,0,0
110661,-90.9090909090909,4,2,1,70,0,0
114036,-90.9090909090909,4,2,1,50,0,0
116379,-90.9090909090909,4,2,1,5,0,0
116473,-90.9090909090909,4,2,1,50,0,0
116567,-90.9090909090909,4,2,1,5,0,0
116661,-90.9090909090909,4,2,1,50,0,0
120036,-90.9090909090909,4,2,1,60,0,0
122942,-90.9090909090909,4,2,1,5,0,0
123036,-90.9090909090909,4,2,1,55,0,0
125942,-90.9090909090909,4,2,1,5,0,0
126036,-90.9090909090909,4,2,1,50,0,0
130536,-90.9090909090909,4,2,1,55,0,0
132036,-90.9090909090909,4,2,1,60,0,0
134942,-90.9090909090909,4,2,1,5,0,0
135036,-90.9090909090909,4,2,1,55,0,0
137379,-90.9090909090909,4,2,1,5,0,0
137473,-90.9090909090909,4,2,1,55,0,0
137567,-90.9090909090909,4,2,1,5,0,0
137661,-90.9090909090909,4,2,1,55,0,0
138036,-90.9090909090909,4,2,1,50,0,0
140942,-90.9090909090909,4,2,1,5,0,0
141036,-90.9090909090909,4,2,1,50,0,0
144036,-90.9090909090909,4,2,1,55,0,0
145254,-90.9090909090909,4,2,1,5,0,0
145348,-90.9090909090909,4,2,1,55,0,0
146754,-90.9090909090909,4,2,1,5,0,0
146848,-90.9090909090909,4,2,1,55,0,0
148254,-90.9090909090909,4,2,1,5,0,0
148348,-90.9090909090909,4,2,1,55,0,0
150036,-90.9090909090909,4,2,1,60,0,0
151348,-90.9090909090909,4,2,1,65,0,0
151629,-90.9090909090909,4,2,1,5,0,0
151723,-90.9090909090909,4,2,1,65,0,0
151817,-90.9090909090909,4,2,1,5,0,0
151911,-90.9090909090909,4,2,1,65,0,0
153036,-90.9090909090909,4,2,1,85,0,1
155379,-90.9090909090909,4,2,1,5,0,1
155473,-90.9090909090909,4,2,1,85,0,1
155567,-90.9090909090909,4,2,1,5,0,1
155661,-90.9090909090909,4,2,1,85,0,1
158942,-90.9090909090909,4,2,1,5,0,1
159036,-90.9090909090909,4,2,1,85,0,1
160817,-90.9090909090909,4,2,1,5,0,1
160911,-90.9090909090909,4,2,1,85,0,1
164379,-90.9090909090909,4,2,1,5,0,1
164473,-90.9090909090909,4,2,1,85,0,1
164567,-90.9090909090909,4,2,1,5,0,1
164661,-90.9090909090909,4,2,1,85,0,1
167379,-90.9090909090909,4,2,1,5,0,1
167473,-90.9090909090909,4,2,1,85,0,1
167567,-90.9090909090909,4,2,1,5,0,1
167661,-90.9090909090909,4,2,1,85,0,1
171692,-90.9090909090909,4,2,1,5,0,1
171786,-90.9090909090909,4,2,1,85,0,1
175067,-90.9090909090909,4,2,1,5,0,1
175161,-90.9090909090909,4,2,1,85,0,1
175254,-90.9090909090909,4,2,1,5,0,1
175348,-90.9090909090909,4,2,1,85,0,1
175536,-90.9090909090909,4,2,1,70,0,1
177036,-90.9090909090909,4,2,1,40,0,0
178629,-90.9090909090909,4,2,1,5,0,0
178723,-90.9090909090909,4,2,1,40,0,0
184629,-90.9090909090909,4,2,1,5,0,0
184723,-90.9090909090909,4,2,1,40,0,0
189036,-90.9090909090909,4,2,1,50,0,0
191379,-90.9090909090909,4,2,1,5,0,0
191473,-90.9090909090909,4,2,1,50,0,0
191567,-90.9090909090909,4,2,1,5,0,0
191661,-90.9090909090909,4,2,1,50,0,0
194379,-90.9090909090909,4,2,1,5,0,0
194473,-90.9090909090909,4,2,1,50,0,0
194567,-90.9090909090909,4,2,1,5,0,0
194661,-90.9090909090909,4,2,1,50,0,0
195036,-90.9090909090909,4,2,1,55,0,0
200379,-90.9090909090909,4,2,1,5,0,0
200473,-90.9090909090909,4,2,1,55,0,0
200567,-90.9090909090909,4,2,1,5,0,0
200661,-90.9090909090909,4,2,1,55,0,0
201036,-90.9090909090909,4,2,1,65,0,0
225036,-90.9090909090909,4,2,1,75,0,0
228317,-90.9090909090909,4,2,1,5,0,0
228411,-90.9090909090909,4,2,1,75,0,0
231036,-90.9090909090909,4,2,1,45,0,0
234786,-90.9090909090909,4,2,1,50,0,0
235161,-90.9090909090909,4,2,1,55,0,0
235536,-90.9090909090909,4,2,1,60,0,0
235911,-90.9090909090909,4,2,1,65,0,0
236286,-90.9090909090909,4,2,1,70,0,0
236661,-90.9090909090909,4,2,1,45,0,0
237036,-90.9090909090909,4,2,1,85,0,1
242379,-90.9090909090909,4,2,1,5,0,1
242473,-90.9090909090909,4,2,1,85,0,1
242567,-90.9090909090909,4,2,1,5,0,1
242661,-90.9090909090909,4,2,1,85,0,1
245379,-90.9090909090909,4,2,1,5,0,1
245473,-90.9090909090909,4,2,1,85,0,1
245567,-90.9090909090909,4,2,1,5,0,1
245661,-90.9090909090909,4,2,1,85,0,1
249692,-90.9090909090909,4,2,1,5,0,1
249786,-90.9090909090909,4,2,1,85,0,1
253067,-90.9090909090909,4,2,1,5,0,1
253161,-90.9090909090909,4,2,1,85,0,1
253254,-90.9090909090909,4,2,1,5,0,1
253348,-90.9090909090909,4,2,1,85,0,1
253536,-90.9090909090909,4,2,1,70,0,1
255036,-90.9090909090909,4,2,1,80,0,1
258317,-90.9090909090909,4,2,1,5,0,1
258411,-90.9090909090909,4,2,1,80,0,1
261317,-90.9090909090909,4,2,1,5,0,1
261411,-90.9090909090909,4,2,1,80,0,1
267317,-90.9090909090909,4,2,1,5,0,1
267411,-90.9090909090909,4,2,1,80,0,1
270317,-90.9090909090909,4,2,1,5,0,1
270411,-90.9090909090909,4,2,1,80,0,1
273317,-90.9090909090909,4,2,1,5,0,1
273411,-90.9090909090909,4,2,1,80,0,1
276036,-90.9090909090909,4,2,1,60,0,1
279036,-90.9090909090909,4,2,1,45,0,0
280911,-90.9090909090909,4,2,1,40,0,0
282036,-90.9090909090909,4,2,1,35,0,0
284661,-90.9090909090909,4,2,1,40,0,0
284942,-90.9090909090909,4,2,1,5,0,0
285036,-90.9090909090909,4,2,1,45,0,0
286536,-90.9090909090909,4,2,1,35,0,0
288036,-90.9090909090909,4,2,1,25,0,0
289536,-90.9090909090909,4,2,1,15,0,0
291036,-90.9090909090909,4,2,1,5,0,0

[Colours]
Combo1 : 255,98,255
Combo2 : 0,128,192
Combo3 : 90,193,243
Combo4 : 118,0,236

[HitObjects]
125,288,9036,6,0,L|105:187,1,90,2|4,1:2|0:3,0:0:0:0:
213,217,9411,2,0,L|221:102,1,90,0|4,1:2|0:3,0:0:0:0:
325,160,9786,2,0,L|320:53,1,90,0|4,1:2|0:3,0:0:0:0:
421,106,10161,2,0,L|441:10,1,90,0|4,1:2|0:3,0:0:0:0:
285,68,10536,6,0,L|172:82,1,90,2|4,1:2|0:3,0:0:0:0:
271,111,10911,2,0,L|363:131,1,90,0|4,1:2|0:3,0:0:0:0:
260,152,11286,2,0,L|160:159,1,90,0|4,1:2|0:3,0:0:0:0:
270,199,11661,2,0,L|367:218,1,90,0|4,1:2|0:3,0:0:0:0:
202,66,12036,6,0,L|9:83,1,180,2|0,1:2|1:0,0:0:0:0:
101,107,12598,2,0,L|281:138,1,180,0|0,1:0|1:0,0:0:0:0:
361,207,13348,1,4,0:3:0:0:
361,207,13442,1,4,0:3:0:0:
361,207,13536,6,0,L|249:207,1,90,0|4,1:0|0:3,0:0:0:0:
219,206,13817,1,4,0:3:0:0:
271,207,13911,2,0,L|386:207,1,90,8|4,0:0|0:3,0:0:0:0:
413,207,14192,1,4,0:3:0:0:
350,204,14286,5,4,0:3:0:0:
304,157,14379,1,0,0:0:0:0:
292,95,14473,1,4,0:3:0:0:
304,157,14567,1,0,0:0:0:0:
350,204,14661,1,0,1:0:0:0:
413,207,14754,1,0,1:0:0:0:
465,206,14848,1,0,1:0:0:0:
413,207,14942,1,0,1:0:0:0:
239,243,15036,6,0,L|139:254,2,90,6|6|10,1:2|0:3|0:0,0:0:0:0:
394,170,15598,2,0,L|193:170,1,180,6|6,0:3|0:3,0:0:0:0:
214,170,16161,1,8,0:0:0:0:
368,106,16348,6,0,L|462:96,1,90,2|0,1:2|0:0,0:0:0:0:
302,58,16723,2,0,L|201:57,1,90,6|10,0:3|0:0,0:0:0:0:
370,106,17098,2,0,L|476:101,1,90,6|2,0:3|1:2,0:0:0:0:
194,205,17473,2,0,L|193:236,1,22.5,6|0,0:3|0:0,0:0:0:0:
262,282,17661,2,0,L|353:281,1,90,10|0,0:0|0:0,0:0:0:0:
99,167,18036,6,0,L|-1:179,2,90,2|6|10,1:2|0:3|0:0,0:0:0:0:
252,188,18598,2,0,P|321:249|285:321,1,180,6|6,0:3|0:3,0:0:0:0:
205,319,19161,1,8,0:0:0:0:
33,247,19348,6,0,L|234:236,1,180,2|6,1:2|0:3,0:0:0:0:
475,40,19911,2,0,L|385:40,1,90,10|6,0:0|0:3,0:0:0:0:
302,86,20286,1,2,1:2:0:0:
276,157,20473,1,6,0:3:0:0:
293,233,20661,1,10,0:0:0:0:
381,279,20848,1,0,0:0:0:0:
109,267,21036,6,0,L|14:277,2,90,6|6|10,1:2|0:3|0:0,0:0:0:0:
260,170,21598,2,0,L|37:156,1,180,6|6,0:3|0:3,0:0:0:0:
80,158,22161,1,8,0:0:0:0:
239,92,22348,6,0,L|337:92,1,90,2|0,1:2|0:0,0:0:0:0:
185,155,22723,2,0,L|68:160,1,90,6|10,0:3|0:0,0:0:0:0:
248,264,23098,2,0,L|372:269,1,90,6|2,0:3|1:2,0:0:0:0:
71,226,23473,2,0,L|68:200,1,22.5,6|0,0:3|0:0,0:0:0:0:
131,138,23661,2,0,L|225:137,1,90,10|0,0:0|0:0,0:0:0:0:
479,63,24036,6,0,L|356:60,1,90,2|6,1:2|0:3,0:0:0:0:
239,122,24411,1,8,0:0:0:0:
187,140,24504,1,8,0:0:0:0:
239,122,24598,1,8,0:0:0:0:
187,140,24692,1,8,0:0:0:0:
138,164,24786,1,0,1:0:0:0:
373,220,25161,5,8,0:0:0:0:
425,238,25254,1,8,0:0:0:0:
373,220,25348,1,8,0:0:0:0:
425,238,25442,1,8,0:0:0:0:
474,262,25536,1,0,1:0:0:0:
223,247,25911,5,8,0:0:0:0:
171,265,26004,1,8,0:0:0:0:
223,247,26098,1,8,0:0:0:0:
171,265,26192,1,8,0:0:0:0:
122,289,26286,2,0,L|224:301,1,90,0|8,1:0|0:0,0:0:0:0:
372,342,26661,2,0,L|282:333,1,90,0|8,1:0|0:0,0:0:0:0:
231,328,26942,1,8,0:0:0:0:
410,232,27036,6,0,L|524:218,2,90,6|6|10,1:2|0:3|0:0,0:0:0:0:
251,186,27598,2,0,L|465:176,1,180,6|6,0:3|0:3,0:0:0:0:
430,177,28161,1,8,0:0:0:0:
274,123,28348,6,0,L|168:121,1,90,2|0,1:2|0:0,0:0:0:0:
338,196,28723,2,0,L|433:198,1,90,6|10,0:3|0:0,0:0:0:0:
275,252,29098,2,0,L|181:256,1,90,6|2,0:3|1:2,0:0:0:0:
472,170,29473,1,6,0:3:0:0:
472,170,29520,1,0,0:0:0:0:
403,169,29661,2,0,L|302:169,1,90,10|0,0:0|0:0,0:0:0:0:
52,85,30036,6,0,L|169:84,2,90,2|6|10,1:2|0:3|0:0,0:0:0:0:
216,112,30598,2,0,P|274:146|221:229,1,180,6|6,0:3|0:3,0:0:0:0:
152,229,31161,1,8,0:0:0:0:
321,269,31348,6,0,L|537:278,1,180,2|6,1:2|0:3,0:0:0:0:
232,313,31911,2,0,L|129:315,1,90,10|6,0:0|0:3,0:0:0:0:
61,287,32286,1,2,1:2:0:0:
47,198,32473,1,6,0:3:0:0:
94,127,32661,1,10,0:2:0:0:
202,104,32848,1,0,0:0:0:0:
458,175,33036,6,0,L|363:188,2,90,6|6|10,1:2|0:3|0:0,0:0:0:0:
293,242,33598,2,0,L|202:261,1,90,6|0,0:3|1:0,0:0:0:0:
293,272,33973,2,0,L|393:291,1,90,6|8,0:3|0:0,0:0:0:0:
98,232,34348,6,0,L|4:259,1,90,2|0,0:2|1:0,0:0:0:0:
86,293,34723,2,0,L|191:301,1,90,6|8,0:3|0:0,0:0:0:0:
331,331,35098,2,0,L|208:336,1,90,6|0,0:3|1:0,0:0:0:0:
399,266,35473,2,0,L|521:257,1,90,6|10,0:3|0:0,0:0:0:0:
193,215,35848,6,0,L|184:115,1,90,6|0,1:2|0:0,0:0:0:0:
345,100,36223,1,0,1:0:0:0:
184,125,36411,2,0,L|185:221,1,90,8|0,0:0|0:0,0:0:0:0:
345,100,36786,2,0,L|447:102,1,90,0|0,1:0|1:0,0:0:0:0:
275,313,37161,6,0,L|58:312,1,180,8|0,0:0|0:0,0:0:0:0:
389,237,37723,1,0,1:0:0:0:
435,227,37817,1,0,1:0:0:0:
389,237,37911,2,0,L|281:251,1,90,8|0,0:0|1:0,0:0:0:0:
137,273,38286,2,0,L|264:298,1,90,0|0,1:0|1:0,0:0:0:0:
478,268,38661,2,0,L|452:269,1,22.5,8|0,0:3|0:0,0:0:0:0:
64,189,39036,6,0,L|171:180,1,90,6|0,1:2|0:0,0:0:0:0:
242,148,39411,2,0,L|130:113,1,90,0|0,1:0|0:0,0:0:0:0:
235,103,39786,2,0,L|346:83,1,90,0|4,1:0|0:3,0:0:0:0:
248,78,40161,6,0,L|126:47,1,90,0|4,1:2|0:3,0:0:0:0:
321,60,40536,2,0,L|417:43,2,90,0|0|0,1:2|0:0|1:2,0:0:0:0:
234,73,41098,1,0,0:0:0:0:
400,143,41286,2,0,P|474:217|421:273,1,180,2|6,1:2|0:3,0:0:0:0:
402,273,41754,1,4,0:3:0:0:
343,268,41848,1,6,1:3:0:0:
188,254,42036,6,0,L|83:275,2,90,0|0|2,1:0|0:0|1:2,0:0:0:0:
338,186,42598,2,0,P|336:121|243:71,1,180,0|4,0:0|0:3,0:0:0:0:
86,48,43161,2,0,L|214:65,1,90,2|6,1:2|0:3,0:0:0:0:
326,152,43536,6,0,L|430:162,1,90,2|6,1:2|0:3,0:0:0:0:
347,222,43911,2,0,L|227:239,1,90,2|0,1:2|0:0,0:0:0:0:
424,245,44286,2,0,L|334:235,2,90,0|4|0,1:0|0:3|1:2,0:0:0:0:
288,255,44848,1,4,1:3:0:0:
29,132,45036,6,0,L|157:132,2,90,6|0|10,1:2|1:2|0:0,0:0:0:0:
287,57,45786,2,0,L|386:60,2,90,0|2|8,1:2|1:2|0:2,0:0:0:0:
455,62,46348,1,2,1:2:0:0:
455,62,46723,6,0,L|338:51,1,90,0|8,1:2|0:0,0:0:0:0:
67,155,47098,2,0,L|69:270,1,90,2|0,1:2|0:0,0:0:0:0:
157,250,47473,2,0,L|216:242,1,45,0|0,1:2|0:0,0:0:0:0:
391,229,47661,2,0,P|438:263|410:330,1,135,10|0,0:0|0:0,0:0:0:0:
180,324,48036,6,0,L|91:329,2,90,6|0|10,1:2|1:2|0:0,0:0:0:0:
410,195,48786,2,0,L|303:196,2,90,0|2|8,1:2|1:2|0:0,0:0:0:0:
258,200,49348,1,2,1:2:0:0:
258,200,49723,6,0,L|159:199,1,90,0|8,1:2|0:0,0:0:0:0:
311,321,50098,2,0,L|400:320,1,90,2|0,1:2|0:0,0:0:0:0:
338,263,50473,2,0,L|287:266,1,45,0|0,1:2|0:0,0:0:0:0:
93,121,50661,2,0,P|51:175|83:222,1,135,10|0,0:0|0:0,0:0:0:0:
307,287,51036,6,0,L|416:289,1,90,6|0,1:2|0:0,0:0:0:0:
332,314,51411,2,0,L|217:321,1,90,0|0,1:0|0:0,0:0:0:0:
168,274,51786,2,0,L|266:272,1,90,0|4,1:0|0:3,0:0:0:0:
194,210,52161,2,0,L|90:208,1,90,0|4,1:2|0:3,0:0:0:0:
273,136,52536,6,0,L|366:134,2,90,0|0|0,1:2|0:2|1:2,0:0:0:0:
189,145,53098,1,0,0:0:0:0:
358,313,53286,2,0,P|424:267|354:208,1,180,2|6,1:2|0:3,0:0:0:0:
327,204,53754,1,4,0:3:0:0:
283,199,53848,1,6,1:3:0:0:
130,155,54036,6,0,L|240:142,2,90,0|0|2,1:0|0:0|1:2,0:0:0:0:
278,139,54598,2,0,P|332:181|274:267,1,180,0|4,0:0|0:3,0:0:0:0:
137,287,55161,2,0,L|234:282,1,90,0|4,1:2|0:3,0:0:0:0:
386,243,55536,6,0,L|296:242,1,90,0|2,1:2|0:2,0:0:0:0:
219,187,55911,2,0,L|318:179,1,90,2|2,1:2|0:0,0:0:0:0:
235,135,56286,2,0,L|145:139,2,90,0|4|0,1:2|1:3|1:2,0:0:0:0:
395,91,56848,1,4,1:3:0:0:
116,90,57036,6,0,L|234:90,2,90,6|0|10,1:2|1:2|0:0,0:0:0:0:
392,190,57786,2,0,L|296:194,2,90,0|2|8,1:2|1:2|0:0,0:0:0:0:
238,196,58348,1,2,1:2:0:0:
123,137,58723,6,0,L|124:233,1,90,0|8,1:2|0:0,0:0:0:0:
277,255,59098,2,0,L|394:266,1,90,2|0,1:2|0:0,0:0:0:0:
447,316,59473,2,0,L|395:307,1,45,0|0,1:2|0:0,0:0:0:0:
220,296,59661,2,0,L|78:301,1,135,10|0,0:0|0:0,0:0:0:0:
279,120,60036,6,0,L|398:122,2,90,6|0|10,1:2|1:2|0:0,0:0:0:0:
34,236,60786,2,0,L|162:228,2,90,0|2|8,1:2|1:2|0:0,0:0:0:0:
194,235,61348,1,2,1:2:0:0:
379,218,61723,6,0,L|381:117,1,90,0|8,1:2|0:0,0:0:0:0:
290,128,62098,2,0,L|420:128,1,90,0|8,0:0|0:0,0:0:0:0:
214,191,62473,2,0,L|105:204,1,90,0|8,1:0|0:0,0:0:0:0:
69,206,62754,1,8,0:0:0:0:
124,201,62848,1,8,0:0:0:0:
185,200,62942,1,8,0:0:0:0:
399,334,63036,6,0,P|455:275|368:227,1,180,6|0,1:2|1:0,0:0:0:0:
320,218,63598,2,0,L|140:219,1,180,2|0,0:0|0:0,0:0:0:0:
227,178,64161,1,2,1:2:0:0:
318,154,64348,6,0,P|383:111|304:67,1,180,2|2,0:0|0:0,0:0:0:0:
226,62,64911,2,0,L|108:74,1,90,2|0,1:2|0:0,0:0:0:0:
224,111,65286,2,0,L|322:134,1,90,0|0,1:0|0:0,0:0:0:0:
386,170,65661,2,0,L|287:182,1,90,2|0,1:2|0:0,0:0:0:0:
121,201,66036,6,0,P|71:235|137:311,1,180,2|0,1:2|1:0,0:0:0:0:
215,314,66598,1,0,0:0:0:0:
297,297,66786,2,0,L|83:276,1,180,0|2,1:0|1:2,0:0:0:0:
46,228,67348,6,0,L|249:222,1,180,2|2,0:0|0:0,0:0:0:0:
130,214,67911,2,0,L|125:111,1,90,2|2,1:2|0:0,0:0:0:0:
226,223,68286,2,0,L|232:112,1,90,0|2,1:0|0:0,0:0:0:0:
333,161,68661,2,0,L|432:159,1,90,0|4,1:0|0:3,0:0:0:0:
160,52,69036,6,0,L|60:67,1,90,6|0,1:2|1:0,0:0:0:0:
156,105,69411,2,0,L|253:131,1,90,2|0,1:2|0:0,0:0:0:0:
317,167,69786,2,0,L|228:184,2,90,2|0|10,1:2|0:0|0:3,0:0:0:0:
165,202,70348,6,0,P|103:237|177:299,1,180,2|0,0:0|0:0,0:0:0:0:
309,317,70911,2,0,L|205:335,1,90,2|0,1:2|0:0,0:0:0:0:
285,264,71286,2,0,L|390:257,1,90,2|0,1:2|0:0,0:0:0:0:
453,206,71661,2,0,L|334:201,1,90,10|2,0:3|0:0,0:0:0:0:
110,271,72036,6,0,P|48:244|124:171,1,180,6|0,1:2|1:0,0:0:0:0:
172,145,72598,1,0,0:0:0:0:
234,92,72786,1,0,1:0:0:0:
260,21,72973,1,0,0:0:0:0:
234,92,73161,1,8,0:3:0:0:
172,145,73348,1,0,1:0:0:0:
76,173,73536,6,0,L|230:199,2,135,0|0|0,1:0|1:0|1:0,0:0:0:0:
238,230,74286,2,0,L|79:256,2,135,2|0|0,1:2|1:0|1:0,0:0:0:0:
487,123,75036,5,6,1:2:0:0:
402,142,75223,1,2,1:2:0:0:
487,123,75411,1,2,1:2:0:0:
338,167,75598,2,0,P|277:220|355:273,1,180,2|2,1:2|1:2,0:0:0:0:
420,288,76161,1,0,0:0:0:0:
157,338,76348,6,0,L|50:346,1,90,2|0,1:2|0:0,0:0:0:0:
358,195,76723,2,0,L|391:197,1,22.5,2|0,1:2|0:0,0:0:0:0:
148,144,76911,1,2,1:2:0:0:
380,73,77286,1,0,0:0:0:0:
229,95,77473,1,0,0:0:0:0:
147,135,77661,1,0,0:0:0:0:
111,252,77848,1,0,0:0:0:0:
378,295,78036,6,0,L|496:311,1,90,6|4,1:2|0:3,0:0:0:0:
311,235,78411,2,0,L|213:246,1,90,8|6,0:0|0:3,0:0:0:0:
61,118,78786,1,2,1:2:0:0:
97,235,78973,1,6,1:3:0:0:
179,275,79161,1,10,0:0:0:0:
330,297,79348,1,2,2:2:0:0:
67,267,79536,6,0,L|51:161,1,90,2|4,1:2|0:3,0:0:0:0:
220,160,79911,2,0,L|316:141,1,90,8|4,0:0|0:3,0:0:0:0:
138,79,80286,1,2,1:2:0:0:
302,138,80473,1,6,0:3:0:0:
177,205,80661,1,10,0:0:0:0:
131,295,80848,1,0,0:0:0:0:
403,331,81036,6,0,L|218:323,1,180,6|8,1:2|0:0,0:0:0:0:
151,252,81598,1,4,0:3:0:0:
325,247,81786,2,0,L|427:238,2,90,0|4|10,1:0|1:3|0:0,0:0:0:0:
157,247,82348,6,0,P|97:199|162:124,1,180,6|4,1:3|0:3,0:0:0:0:
305,106,82911,2,0,L|407:97,1,90,8|4,0:0|0:3,0:0:0:0:
223,59,83286,2,0,L|31:61,1,180,0|10,1:0|0:0,0:0:0:0:
125,64,83848,1,0,0:0:0:0:
392,176,84036,6,0,P|390:253|279:260,1,180,6|10,1:2|0:0,0:0:0:0:
139,307,84598,2,0,L|256:307,1,90,6|0,0:3|1:0,0:0:0:0:
390,201,84973,2,0,L|275:201,2,90,6|10|6,0:3|0:0|0:3,0:0:0:0:
124,194,85536,6,0,L|118:90,1,90,2|4,1:2|0:3,0:0:0:0:
390,201,85911,2,0,L|273:207,1,90,10|6,0:0|0:3,0:0:0:0:
146,257,86286,2,0,L|240:271,1,90,0|6,1:0|0:3,0:0:0:0:
390,201,86661,2,0,L|289:210,1,90,8|2,0:0|0:0,0:0:0:0:
27,169,87036,6,0,L|225:144,1,180,6|8,1:2|0:0,0:0:0:0:
374,96,87598,1,4,0:3:0:0:
392,92,87692,1,0,1:0:0:0:
374,96,87786,2,0,L|265:104,1,90,2|4,1:2|0:3,0:0:0:0:
116,193,88161,2,0,L|212:193,1,90,10|6,0:0|1:3,0:0:0:0:
251,195,88442,1,0,1:0:0:0:
471,295,88536,6,0,L|354:301,2,90,2|4|10,1:2|0:3|0:0,0:0:0:0:
306,276,89098,1,4,0:3:0:0:
277,278,89192,1,0,1:0:0:0:
306,276,89286,2,0,L|405:275,1,90,0|6,1:0|1:3,0:0:0:0:
223,150,89661,1,8,0:0:0:0:
151,170,89754,1,8,0:0:0:0:
114,216,89848,1,8,0:0:0:0:
104,266,89942,1,8,0:0:0:0:
308,330,90036,6,0,L|424:334,1,90,6|4,1:2|0:3,0:0:0:0:
238,256,90411,2,0,L|119:252,1,90,8|6,0:2|0:3,0:0:0:0:
316,203,90786,1,0,1:0:0:0:
167,198,90973,1,4,1:3:0:0:
100,155,91161,1,8,0:0:0:0:
71,78,91348,1,6,1:3:0:0:
338,153,91536,6,0,L|456:169,1,90,0|4,0:0|0:3,0:0:0:0:
265,224,91911,2,0,L|168:237,1,90,8|6,0:0|0:3,0:0:0:0:
310,168,92286,1,2,1:2:0:0:
154,141,92473,1,6,0:3:0:0:
248,153,92661,1,10,0:0:0:0:
289,228,92848,1,0,0:0:0:0:
27,322,93036,6,0,L|246:324,1,180,6|8,1:2|0:0,0:0:0:0:
371,246,93598,2,0,L|239:228,1,90,6|0,0:3|1:0,0:0:0:0:
110,171,93973,2,0,L|228:163,1,90,6|8,0:3|0:0,0:0:0:0:
483,81,94348,6,0,L|293:71,1,180,6|4,1:2|0:3,0:0:0:0:
141,147,94911,2,0,P|87:166|141:259,1,180,10|2,0:0|1:2,0:0:0:0:
217,274,95473,1,4,0:3:0:0:
380,342,95661,2,0,L|485:344,1,90,10|6,0:0|0:3,0:0:0:0:
211,269,96036,6,0,L|89:272,1,90,6|4,1:2|0:3,0:0:0:0:
281,195,96411,2,0,L|293:96,1,90,10|0,0:0|0:0,0:0:0:0:
129,75,96786,2,0,L|227:83,2,90,2|4|10,1:2|0:3|0:0,0:0:0:0:
288,109,97348,6,0,P|277:189|162:200,1,180,6|4,1:3|0:3,0:0:0:0:
349,317,97911,2,0,L|457:322,1,90,10|4,0:0|0:3,0:0:0:0:
277,308,98286,2,0,L|160:318,1,90,2|4,1:2|0:3,0:0:0:0:
24,180,98661,2,0,L|127:181,1,90,10|4,0:0|0:3,0:0:0:0:
370,188,99036,5,8,0:0:0:0:
434,189,99129,1,8,0:0:0:0:
434,189,99223,1,8,0:0:0:0:
370,188,99317,1,8,0:0:0:0:
353,245,99411,1,8,0:0:0:0:
382,298,99504,1,8,0:0:0:0:
446,303,99598,2,0,L|327:299,1,90,8|0,0:0|1:0,0:0:0:0:
100,286,99973,2,0,L|209:285,1,90,10|10,0:0|1:2,0:0:0:0:
371,283,100348,1,8,0:0:0:0:
371,283,100442,1,8,0:0:0:0:
185,229,100536,6,0,B|96:226|96:226|76:132,1,180,6|0,1:2|0:0,0:0:0:0:
233,77,101098,2,0,L|258:69,1,22.5,2|0,1:2|0:0,0:0:0:0:
76,56,101473,2,0,L|201:61,2,90,2|0|0,0:0|0:0|0:0,0:0:0:0:
385,113,102036,6,0,L|385:227,1,99.0000030212403,6|6,1:2|0:3,0:0:0:0:
232,192,102411,2,0,L|232:296,1,99.0000030212403,10|6,0:2|0:3,0:0:0:0:
344,192,102786,2,0,L|344:304,1,99.0000030212403,0|6,1:0|0:3,0:0:0:0:
208,192,103161,1,8,0:0:0:0:
472,192,103348,6,0,P|472:288|384:288,1,198.000006042481,6|6,1:3|0:3,0:0:0:0:
248,272,103911,1,10,0:0:0:0:
352,192,104098,2,0,L|451:192,2,99.0000030212403,6|2|6,0:3|1:2|0:3,0:0:0:0:
104,192,104661,2,0,L|104:80,1,99.0000030212403,10|0,0:0|0:0,0:0:0:0:
376,64,105036,6,0,L|488:64,1,99.0000030212403,2|6,1:2|0:3,0:0:0:0:
288,136,105411,1,10,0:0:0:0:
200,192,105598,1,6,0:3:0:0:
200,192,105786,1,0,1:0:0:0:
288,136,105973,1,6,0:3:0:0:
440,192,106161,1,8,0:0:0:0:
176,192,106348,6,0,P|112:128|184:64,1,198.000006042481,6|6,1:3|0:3,0:0:0:0:
328,312,106911,2,0,L|200:312,1,99.0000030212403,10|6,0:0|0:3,0:0:0:0:
130,312,107286,2,0,L|242:312,1,99.0000030212403,2|6,1:2|0:3,0:0:0:0:
487,192,107661,2,0,L|487:296,1,99.0000030212403,8|0,0:0|0:0,0:0:0:0:
224,56,108036,6,0,L|224:160,1,99.0000030212403,6|6,1:2|0:3,0:0:0:0:
384,56,108411,2,0,L|384:160,1,99.0000030212403,10|6,0:0|0:3,0:0:0:0:
280,192,108786,2,0,L|280:304,1,99.0000030212403,0|6,1:0|0:3,0:0:0:0:
432,296,109161,1,8,0:0:0:0:
176,296,109348,6,0,P|80:296|32:216,1,198.000006042481,6|6,1:3|0:3,0:0:0:0:
184,192,109911,2,0,L|296:192,1,99.0000030212403,10|6,0:0|0:3,0:0:0:0:
352,192,110286,1,2,1:2:0:0:
200,192,110473,1,6,0:3:0:0:
472,192,110661,2,0,L|472:93,1,99.0000030212403,10|0,0:0|0:0,0:0:0:0:
200,56,111036,6,0,L|312:56,1,99.0000030212403,6|6,1:2|0:3,0:0:0:0:
176,192,111411,1,8,0:0:0:0:
128,179,111504,1,8,0:0:0:0:
81,191,111598,1,8,0:0:0:0:
45,225,111692,1,8,0:0:0:0:
31,272,111786,1,0,1:0:0:0:
280,40,111973,6,0,L|176:40,1,99.0000030212403,4|8,0:3|0:0,0:0:0:0:
135,56,112254,1,8,0:0:0:0:
116,100,112348,1,8,0:0:0:0:
136,144,112442,1,8,0:0:0:0:
181,160,112536,1,0,1:0:0:0:
432,152,112723,6,0,P|381:151|344:192,1,99.0000030212403,4|8,0:3|0:0,0:0:0:0:
416,200,113004,1,8,0:0:0:0:
456,232,113098,1,8,0:0:0:0:
456,272,113192,1,8,0:0:0:0:
416,304,113286,1,0,1:0:0:0:
240,240,113473,2,0,L|352:240,2,99.0000030212403,8|0|0,0:2|1:0|0:0,0:0:0:0:
496,192,114036,5,6,1:2:0:0:
224,192,114411,1,0,1:0:0:0:
424,48,114786,2,0,B|424:144|424:144|320:144,1,198.000006042481,0|0,1:0|1:2,0:0:0:0:
72,64,115536,6,0,L|72:264,1,198.000006042481,0|0,1:2|1:2,0:0:0:0:
352,192,116286,1,2,1:2:0:0:
232,192,116473,1,6,0:3:0:0:
152,192,116661,1,6,0:3:0:0:
328,192,116848,6,0,L|328:304,1,99.0000030212403,6|0,1:3|1:0,0:0:0:0:
80,192,117411,1,2,1:2:0:0:
328,192,117786,1,0,1:0:0:0:
96,96,118161,6,0,L|96:304,1,198.000006042481,2|0,1:2|1:2,0:0:0:0:
336,96,118911,2,0,P|432:96|480:192,1,198.000006042481,2|0,1:2|1:2,0:0:0:0:
240,192,119661,1,0,1:2:0:0:
392,192,119848,1,4,0:3:0:0:
124,65,120036,6,0,L|12:65,2,99.0000030212403,6|0|10,1:2|1:2|0:0,0:0:0:0:
328,288,120786,2,0,L|224:288,2,99.0000030212403,0|2|8,1:2|1:2|0:0,0:0:0:0:
80,72,121348,6,0,P|24:144|88:224,1,198.000006042481,2|0,1:2|1:2,0:0:0:0:
240,136,121911,2,0,L|360:136,1,99.0000030212403,8|2,0:0|1:2,0:0:0:0:
112,192,122473,1,0,1:2:0:0:
368,216,122661,2,0,L|472:216,1,99.0000030212403,10|0,0:0|0:0,0:0:0:0:
208,48,123036,5,6,1:2:0:0:
112,48,123223,1,0,1:2:0:0:
64,48,123411,1,10,0:0:0:0:
240,128,123786,2,0,L|128:128,2,99.0000030212403,0|2|8,1:2|1:2|0:0,0:0:0:0:
496,128,124348,6,0,P|496:216|400:216,1,198.000006042481,2|0,1:2|1:2,0:0:0:0:
256,224,124911,2,0,L|120:224,1,99.0000030212403,8|2,0:0|1:2,0:0:0:0:
360,192,125473,1,0,1:2:0:0:
115,192,125661,2,0,L|16:192,1,99.0000030212403,10|0,0:0|0:0,0:0:0:0:
296,80,126036,6,0,L|400:80,1,99.0000030212403,6|0,1:2|0:0,0:0:0:0:
152,80,126598,1,4,0:3:0:0:
344,192,126973,1,4,0:3:0:0:
208,192,127161,1,0,0:0:0:0:
158,192,127254,1,0,0:0:0:0:
109,192,127348,1,4,0:3:0:0:
376,192,127723,5,0,0:0:0:0:
144,288,128286,1,2,1:2:0:0:
288,288,128473,1,2,1:2:0:0:
432,288,128661,1,2,1:2:0:0:
144,208,128848,1,6,1:3:0:0:
344,72,129223,5,0,1:2:0:0:
176,72,129411,1,2,1:2:0:0:
376,176,129786,2,0,L|264:176,1,99.0000030212403,0|4,1:0|0:3,0:0:0:0:
112,160,130161,2,0,L|224:160,1,99.0000030212403,2|6,1:2|0:3,0:0:0:0:
464,80,130536,5,0,1:2:0:0:
320,80,130723,1,2,1:2:0:0:
176,80,130911,1,2,1:2:0:0:
320,168,131098,1,2,1:2:0:0:
64,232,131286,5,2,1:2:0:0:
16,264,131379,1,0,1:0:0:0:
16,312,131473,1,0,1:0:0:0:
64,344,131567,1,0,1:0:0:0:
240,256,131661,1,0,1:0:0:0:
288,249,131754,1,0,1:0:0:0:
332,269,131848,1,0,1:0:0:0:
359,310,131942,1,0,1:0:0:0:
128,104,132036,6,0,L|24:104,2,99.0000030212403,6|0|10,1:2|1:2|0:0,0:0:0:0:
336,128,132786,1,0,1:2:0:0:
232,128,132973,1,2,1:2:0:0:
152,128,133161,1,8,0:0:0:0:
424,192,133348,6,0,P|488:248|416:312,1,198.000006042481,2|0,1:2|1:2,0:0:0:0:
264,296,133911,2,0,L|160:296,1,99.0000030212403,8|2,0:0|1:2,0:0:0:0:
360,192,134473,1,0,1:2:0:0:
96,192,134661,2,0,L|96:93,1,99.0000030212403,10|0,0:0|0:0,0:0:0:0:
376,48,135036,6,0,L|496:48,2,99.0000030212403,6|0|10,1:2|1:2|0:0,0:0:0:0:
176,192,135786,1,0,1:2:0:0:
288,192,135973,1,2,1:2:0:0:
352,192,136161,1,8,0:0:0:0:
80,192,136348,6,0,P|80:280|176:280,1,198.000006042481,2|0,1:2|1:2,0:0:0:0:
312,272,136911,1,8,0:2:0:0:
152,88,137098,1,0,0:0:0:0:
112,128,137191,1,8,0:0:0:0:
80,168,137286,2,0,L|183:169,1,99.0000030212403,0|0,1:0|1:0,0:0:0:0:
440,72,137661,1,8,0:0:0:0:
488,104,137754,1,8,0:0:0:0:
488,152,137848,1,8,0:0:0:0:
440,184,137942,1,8,0:0:0:0:
240,192,138036,6,0,P|144:192|96:272,1,198.000006042481,6|0,0:0|1:0,0:0:0:0:
352,272,138786,2,0,L|352:376,1,99.0000030212403,0|0,1:0|0:0,0:0:0:0:
224,240,139161,2,0,L|224:352,1,99.0000030212403,2|2,1:2|0:2,0:0:0:0:
352,272,139536,5,0,1:0:0:0:
192,112,139723,1,2,0:0:0:0:
344,112,139911,2,0,P|440:112|480:200,1,198.000006042481,2|0,1:2|1:0,0:0:0:0:
376,192,140473,1,0,1:0:0:0:
128,192,140661,1,6,0:0:0:0:
376,192,141036,6,0,P|432:224|368:320,1,198.000006042481,2|0,1:2|1:0,0:0:0:0:
144,80,141786,2,0,P|64:80|32:184,1,198.000006042481,0|2,1:0|1:2,0:0:0:0:
232,192,142536,5,0,1:0:0:0:
128,112,142723,1,2,0:0:0:0:
240,112,142911,1,2,1:2:0:0:
320,112,143098,1,2,0:0:0:0:
168,192,143286,1,0,1:0:0:0:
376,240,143661,2,0,L|488:240,1,99.0000030212403,0|4,1:0|0:3,0:0:0:0:
192,56,144036,5,6,1:2:0:0:
352,56,144411,2,0,P|424:104|360:168,2,198.000006042481,2|2|10,1:2|1:2|0:3,0:0:0:0:
104,192,145348,6,0,P|40:248|104:320,1,198.000006042481,2|0,0:0|0:0,0:0:0:0:
248,192,145911,2,0,P|320:240|256:304,2,198.000006042481,2|2|10,1:2|1:2|0:3,0:0:0:0:
112,192,146848,1,0,1:0:0:0:
376,80,147036,6,0,L|480:80,1,99.0000030212403,6|0,1:2|0:0,0:0:0:0:
352,144,147411,2,0,L|464:144,1,99.0000030212403,0|0,1:2|0:0,0:0:0:0:
296,40,147786,2,0,L|184:40,1,99.0000030212403,0|0,1:0|0:0,0:0:0:0:
456,192,148161,6,0,P|456:280|360:280,1,198.000006042481,8|0,0:3|1:0,0:0:0:0:
216,192,148817,1,0,1:0:0:0:
368,128,149098,1,0,1:0:0:0:
184,128,149286,2,0,L|352:128,2,148.50000453186,2|0|0,1:2|1:0|1:0,0:0:0:0:
440,192,150036,5,6,1:2:0:0:
496,192,150223,1,2,1:2:0:0:
440,248,150411,1,2,1:2:0:0:
344,248,150598,1,2,1:2:0:0:
115,192,150973,6,0,L|16:192,1,99.0000030212403,2|0,1:2|0:0,0:0:0:0:
272,72,151348,2,0,L|376:72,1,99.0000030212403,2|0,1:2|0:0,0:0:0:0:
216,192,151723,1,2,1:2:0:0:
488,192,151911,1,2,1:2:0:0:
192,64,152286,1,0,0:0:0:0:
288,48,152473,1,0,0:0:0:0:
375,91,152661,1,0,0:0:0:0:
422,177,152848,1,0,0:0:0:0:
128,296,153036,6,0,L|24:296,1,99.0000030212403,6|4,1:2|0:3,0:0:0:0:
192,224,153411,2,0,L|296:224,1,99.0000030212403,8|6,0:0|0:3,0:0:0:0:
456,144,153786,1,2,1:2:0:0:
484,236,153973,1,6,0:3:0:0:
435,319,154161,1,8,0:0:0:0:
341,339,154348,1,2,2:0:0:0:
80,128,154536,6,0,L|192:128,1,99.0000030212403,0|4,1:0|0:3,0:0:0:0:
328,56,154911,2,0,L|224:56,1,99.0000030212403,8|4,0:0|0:3,0:0:0:0:
384,136,155286,1,2,1:2:0:0:
488,136,155473,1,6,0:3:0:0:
336,184,155661,1,10,0:0:0:0:
440,192,155848,1,0,0:0:0:0:
160,304,156036,6,0,L|360:304,1,198.000006042481,6|8,1:2|0:0,0:0:0:0:
358,304,156598,1,4,0:3:0:0:
224,248,156786,2,0,L|224:136,1,99.0000030212403,0|4,1:0|1:3,0:0:0:0:
376,192,157161,1,10,0:0:0:0:
112,128,157348,6,0,P|48:192|120:256,1,198.000006042481,6|4,1:3|0:3,0:0:0:0:
264,96,157911,2,0,L|152:96,1,99.0000030212403,8|4,0:0|0:3,0:0:0:0:
320,56,158286,2,0,P|418:56|488:128,1,198.000006042481,0|10,1:0|0:0,0:0:0:0:
392,128,158848,1,0,0:0:0:0:
120,192,159036,6,0,P|56:256|128:320,1,198.000006042481,6|10,1:2|0:0,0:0:0:0:
272,304,159598,2,0,L|376:304,1,99.0000030212403,6|0,0:3|1:0,0:0:0:0:
120,48,159973,2,0,L|232:48,2,99.0000030212403,6|8|6,0:3|0:0|0:3,0:0:0:0:
272,192,160536,6,0,L|272:72,1,99.0000030212403,2|0,1:2|0:0,0:0:0:0:
120,96,160911,1,10,0:0:0:0:
368,192,161098,2,0,P|392:280|304:280,1,198.000006042481,6|6,0:3|0:3,0:0:0:0:
160,200,161661,2,0,L|56:200,1,99.0000030212403,8|2,0:0|0:2,0:0:0:0:
376,192,162036,6,0,P|440:256|368:320,1,198.000006042481,6|8,1:2|0:0,0:0:0:0:
200,120,162598,1,4,0:3:0:0:
152,120,162692,1,0,1:0:0:0:
200,64,162786,2,0,L|312:64,1,99.0000030212403,2|4,1:2|0:3,0:0:0:0:
144,192,163161,1,10,0:0:0:0:
416,192,163348,5,4,1:3:0:0:
464,192,163442,1,0,1:0:0:0:
416,240,163536,2,0,L|288:240,1,99.0000030212403,2|4,1:2|0:3,0:0:0:0:
208,240,163911,1,8,0:0:0:0:
317,240,164098,1,6,1:3:0:0:
168,72,164286,2,0,L|64:72,1,99.0000030212403,2|6,1:2|1:3,0:0:0:0:
344,72,164661,1,8,0:0:0:0:
391,61,164754,1,8,0:0:0:0:
436,80,164848,1,8,0:0:0:0:
462,122,164942,1,8,0:0:0:0:
232,328,165036,6,0,L|128:328,1,99.0000030212403,6|4,1:2|0:3,0:0:0:0:
288,256,165411,2,0,L|392:256,1,99.0000030212403,8|6,0:0|0:3,0:0:0:0:
240,192,165786,1,2,1:2:0:0:
221,100,165973,1,4,1:3:0:0:
296,44,166161,1,8,0:0:0:0:
378,90,166348,1,6,1:3:0:0:
120,176,166536,6,0,L|21:176,1,99.0000030212403,0|4,0:0|0:3,0:0:0:0:
168,272,166911,2,0,L|272:272,1,99.0000030212403,8|6,0:0|0:3,0:0:0:0:
16,96,167286,2,0,L|128:96,1,99.0000030212403,2|6,1:2|0:3,0:0:0:0:
264,40,167661,2,0,L|368:40,1,99.0000030212403,10|0,0:0|0:0,0:0:0:0:
72,192,168036,6,0,L|288:192,1,198.000006042481,6|8,1:2|0:0,0:0:0:0:
128,248,168598,2,0,L|128:352,1,99.0000030212403,6|0,0:3|1:0,0:0:0:0:
376,256,168973,2,0,L|480:256,1,99.0000030212403,6|8,0:3|0:0,0:0:0:0:
208,64,169348,6,0,P|108:64|50:144,1,198.000006042481,6|4,1:2|0:3,0:0:0:0:
208,192,169911,2,0,P|277:245|200:296,2,198.000006042481,10|2|10,0:0|1:2|0:0,0:0:0:0:
104,192,170848,1,6,0:3:0:0:
376,120,171036,6,0,L|496:120,1,99.0000030212403,6|4,1:2|0:3,0:0:0:0:
200,160,171411,2,0,L|200:56,1,99.0000030212403,10|0,0:0|0:0,0:0:0:0:
352,64,171786,2,0,L|456:64,1,99.0000030212403,2|4,1:2|0:3,0:0:0:0:
296,136,172161,1,10,0:0:0:0:
448,192,172348,6,0,P|480:264|384:304,1,198.000006042481,6|4,1:3|0:3,0:0:0:0:
128,144,172911,2,0,L|16:144,1,99.0000030212403,10|4,0:0|0:3,0:0:0:0:
176,224,173286,2,0,L|296:224,1,99.0000030212403,2|4,1:2|0:3,0:0:0:0:
128,304,173661,1,10,0:0:0:0:
376,304,173848,1,6,0:3:0:0:
216,48,174036,5,8,0:0:0:0:
168,39,174129,1,8,0:0:0:0:
125,62,174223,1,8,0:0:0:0:
104,106,174317,1,8,0:0:0:0:
288,144,174411,2,0,L|368:144,1,49.5000015106202,8|8,0:0|0:0,0:0:0:0:
168,216,174598,2,0,L|64:216,1,99.0000030212403,8|0,0:0|1:0,0:0:0:0:
200,304,174973,2,0,L|88:304,1,99.0000030212403,10|10,0:2|1:2,0:0:0:0:
248,240,175348,2,0,L|312:240,1,49.5000015106202,8|8,0:0|0:0,0:0:0:0:
115,56,175536,6,0,L|16:56,1,99.0000030212403,6|0,1:2|0:0,0:0:0:0:
264,56,175911,1,2,0:0:0:0:
16,56,176098,1,2,1:2:0:0:
304,120,176473,2,0,L|205:120,1,99.0000030212403,2|2,1:2|0:0,0:0:0:0:
72,192,176848,1,2,0:0:0:0:
336,192,177036,5,6,1:2:0:0:
258,239,189036,6,0,L|385:246,1,99.0000030212403,2|2,1:2|0:0,0:0:0:0:
284,268,189411,2,0,L|182:283,1,99.0000030212403,2|2,1:2|0:0,0:0:0:0:
356,244,189786,2,0,L|355:124,1,99.0000030212403,0|2,1:0|0:0,0:0:0:0:
449,142,190161,2,0,L|337:145,1,99.0000030212403,0|2,1:0|0:0,0:0:0:0:
180,67,190536,6,0,L|297:67,1,99.0000030212403,0|2,1:0|0:0,0:0:0:0:
191,77,190911,2,0,P|170:144|208:191,1,99.0000030212403,2|2,1:2|0:0,0:0:0:0:
334,212,191286,1,2,1:2:0:0:
334,212,191473,2,2,L|290:220,1,24.7500007553101,2|0,0:0|0:0,0:0:0:0:
175,246,191661,2,0,P|168:303|225:333,1,99.0000030212403,2|0,1:2|0:0,0:0:0:0:
446,172,192036,6,0,L|324:177,1,99.0000030212403,6|2,1:2|0:0,0:0:0:0:
282,232,192411,2,0,L|392:240,1,99.0000030212403,2|2,1:2|0:0,0:0:0:0:
216,283,192786,2,0,L|108:303,2,99.0000030212403,0|2|0,1:0|0:0|1:0,0:0:0:0:
473,177,193348,6,0,L|243:165,1,198.000006042481,2|2,1:2|0:0,0:0:0:0:
99,81,193911,2,0,L|106:197,1,99.0000030212403,2|2,1:2|0:0,0:0:0:0:
209,205,194286,2,0,L|104:234,1,99.0000030212403,2|2,1:2|1:2,0:0:0:0:
295,269,194661,2,0,L|418:277,1,99.0000030212403,2|0,1:2|0:0,0:0:0:0:
393,275,194942,1,0,0:0:0:0:
206,304,195036,6,0,L|79:315,2,99.0000030212403,2|6|2,1:2|0:3|1:2,0:0:0:0:
296,299,195598,1,6,0:3:0:0:
123,253,195786,2,0,P|52:201|122:143,1,198.000006042481,0|0,1:0|1:0,0:0:0:0:
384,142,196348,6,0,L|182:237,2,198.000006042481,6|6|6,0:3|0:3|0:3,0:0:0:0:
139,170,197473,2,0,L|132:68,1,99.0000030212403,6|2,1:3|1:2,0:0:0:0:
420,50,197848,5,2,1:2:0:0:
256,192,198036,12,0,200661,1:0:0:0:
349,169,201036,6,0,L|454:163,2,99.0000030212403,6|6|8,0:0|0:3|0:0,0:0:0:0:
264,178,201598,1,4,0:3:0:0:
176,215,201786,2,0,L|182:323,1,99.0000030212403,0|4,1:0|1:3,0:0:0:0:
264,178,202161,2,0,L|265:49,1,99.0000030212403,10|4,0:0|0:3,0:0:0:0:
370,58,202536,6,0,L|371:189,1,99.0000030212403,0|4,1:0|0:3,0:0:0:0:
202,218,202911,2,0,L|92:245,1,99.0000030212403,10|4,0:0|0:3,0:0:0:0:
202,218,203286,2,0,L|316:246,1,99.0000030212403,2|4,1:2|0:3,0:0:0:0:
470,295,203661,1,10,0:0:0:0:
297,240,203848,6,0,L|93:286,1,198.000006042481,6|6,1:3|0:3,0:0:0:0:
275,205,204411,2,0,L|398:214,1,99.0000030212403,10|4,0:0|0:3,0:0:0:0:
93,230,204786,2,0,P|25:184|111:141,1,198.000006042481,2|10,1:2|0:0,0:0:0:0:
182,135,205348,1,2,0:0:0:0:
461,183,205536,6,0,P|469:111|352:46,1,198.000006042481,2|8,1:2|0:0,0:0:0:0:
293,39,206098,1,4,0:3:0:0:
15,40,206286,2,0,L|235:43,1,198.000006042481,2|8,1:2|0:0,0:0:0:0:
212,42,206848,1,4,0:3:0:0:
498,234,207036,6,0,L|357:236,1,99.0000030212403,6|4,1:2|0:3,0:0:0:0:
228,303,207411,2,0,L|214:192,1,99.0000030212403,10|4,0:0|0:3,0:0:0:0:
351,201,207786,2,0,P|412:161|333:92,1,198.000006042481,2|10,1:2|0:0,0:0:0:0:
174,44,208348,6,0,L|413:41,1,198.000006042481,6|4,1:3|0:3,0:0:0:0:
199,123,208911,2,0,L|97:144,1,99.0000030212403,10|4,0:0|0:3,0:0:0:0:
14,199,209286,2,0,L|140:214,2,99.0000030212403,2|4|10,1:2|0:3|0:0,0:0:0:0:
311,250,209848,6,0,P|413:227|440:114,1,198.000006042481,6|6,1:3|0:3,0:0:0:0:
281,108,210411,2,0,L|142:119,1,99.0000030212403,10|4,0:0|0:3,0:0:0:0:
251,149,210786,2,0,L|365:167,1,99.0000030212403,0|4,1:0|1:3,0:0:0:0:
61,203,211161,2,0,L|60:334,1,99.0000030212403,10|4,0:0|0:3,0:0:0:0:
208,332,211536,6,0,L|315:349,2,99.0000030212403,2|6|8,1:2|0:3|0:0,0:0:0:0:
480,200,212098,2,0,P|472:138|329:95,1,198.000006042481,6|4,0:3|0:3,0:0:0:0:
302,144,212661,2,0,L|445:144,1,99.0000030212403,10|4,0:0|0:3,0:0:0:0:
136,160,213036,6,0,L|32:160,2,99.0000030212403,6|6|10,1:2|0:3|0:0,0:0:0:0:
240,160,213598,1,4,0:3:0:0:
104,160,213786,2,0,L|104:259,1,99.0000030212403,0|4,1:0|1:3,0:0:0:0:
280,192,214161,5,10,0:0:0:0:
368,192,214348,1,4,0:3:0:0:
368,272,214536,1,2,1:2:0:0:
280,272,214723,1,4,0:3:0:0:
24,192,214911,2,0,L|24:296,1,99.0000030212403,10|4,0:0|0:3,0:0:0:0:
176,192,215286,2,0,L|176:304,1,99.0000030212403,2|4,1:2|0:3,0:0:0:0:
24,192,215661,1,10,0:0:0:0:
296,56,215848,6,0,P|368:96|296:144,1,198.000006042481,6|6,1:3|0:3,0:0:0:0:
152,112,216411,2,0,L|48:112,1,99.0000030212403,10|4,0:0|0:3,0:0:0:0:
208,192,216786,2,0,P|280:232|208:280,1,198.000006042481,2|10,1:2|0:0,0:0:0:0:
88,192,217348,1,2,0:0:0:0:
352,48,217536,6,0,P|424:88|352:136,1,198.000006042481,2|8,1:2|0:0,0:0:0:0:
232,48,218098,1,4,0:3:0:0:
392,296,218286,2,0,L|192:296,1,198.000006042481,2|8,1:2|0:0,0:0:0:0:
88,296,218848,1,4,0:3:0:0:
360,192,219036,6,0,L|464:192,1,99.0000030212403,6|4,1:2|0:3,0:0:0:0:
304,112,219411,2,0,L|192:112,1,99.0000030212403,10|4,0:0|0:3,0:0:0:0:
344,192,219786,2,0,P|416:232|344:280,1,198.000006042481,2|10,1:2|0:0,0:0:0:0:
88,192,220348,6,0,L|24:280,2,99.0000030212403,6|0|4,1:3|0:0|0:3,0:0:0:0:
336,88,220911,2,0,L|448:88,1,99.0000030212403,10|4,0:0|0:3,0:0:0:0:
280,144,221286,2,0,L|280:264,1,99.0000030212403,2|4,1:2|0:3,0:0:0:0:
432,192,221661,1,10,0:0:0:0:
168,192,221848,1,6,1:3:0:0:
64,192,222036,6,0,L|64:312,1,99.0000030212403,0|4,0:0|0:3,0:0:0:0:
216,64,222411,2,0,L|320:64,1,99.0000030212403,8|4,0:0|0:3,0:0:0:0:
168,112,222786,2,0,L|56:112,1,99.0000030212403,0|6,1:0|1:3,0:0:0:0:
224,192,223161,2,0,L|96:192,1,99.0000030212403,8|4,0:0|0:3,0:0:0:0:
384,256,223536,6,0,L|488:256,1,99.0000030212403,2|4,1:2|0:3,0:0:0:0:
328,120,223911,2,0,L|448:120,1,99.0000030212403,8|6,0:0|0:3,0:0:0:0:
168,192,224286,2,0,L|384:192,1,198.000006042481,2|8,1:2|0:0,0:0:0:0:
366,192,224848,1,6,0:3:0:0:
112,192,225036,6,0,P|40:232|112:280,1,198.000006042481,6|10,1:2|0:0,0:0:0:0:
208,280,225598,1,6,0:3:0:0:
56,192,225786,2,0,L|56:93,1,99.0000030212403,0|2,1:0|0:0,0:0:0:0:
208,64,226161,2,0,L|88:64,1,99.0000030212403,8|6,0:0|1:3,0:0:0:0:
368,160,226536,6,0,L|480:160,1,99.0000030212403,0|6,0:0|0:3,0:0:0:0:
312,192,226911,2,0,L|312:296,1,99.0000030212403,8|4,0:0|0:3,0:0:0:0:
464,200,227286,2,0,L|464:320,1,99.0000030212403,2|6,1:2|1:3,0:0:0:0:
208,192,227661,2,0,L|96:192,1,99.0000030212403,8|4,0:0|0:3,0:0:0:0:
360,104,228036,6,0,P|432:144|360:192,1,198.000006042481,6|0,1:2|1:0,0:0:0:0:
109,192,228598,1,10,0:0:0:0:
312,280,228973,2,0,L|424:280,1,99.0000030212403,10|0,0:0|0:0,0:0:0:0:
152,48,229348,6,0,P|48:120|160:192,1,297.000009063721,14|0,0:0|0:0,0:0:0:0:
248,192,230098,2,0,L|320:192,1,49.5000015106202
240,240,230286,2,0,L|168:240,2,49.5000015106202
344,240,230661,2,0,L|216:240,1,99.0000030212403
496,112,231036,6,0,L|288:112,2,198.000006042481,14|2|0,1:2|0:0|1:0,0:0:0:0:
216,192,232161,1,2,0:0:0:0:
416,192,232536,6,0,B|416:288|416:288|312:288,1,198.000006042481,0|2,1:0|0:0,0:0:0:0:
32,64,233286,2,0,L|256:64,1,198.000006042481,0|2,1:0|0:0,0:0:0:0:
104,112,233848,1,0,0:0:0:0:
360,72,234036,6,0,L|480:72,2,99.0000030212403,2|0|2,1:2|0:0|0:0,0:0:0:0:
256,72,234598,1,0,0:0:0:0:
152,72,234786,2,0,L|152:176,1,99.0000030212403,0|0,1:0|0:0,0:0:0:0:
304,192,235161,1,2,0:0:0:0:
176,192,235348,1,0,0:0:0:0:
48,192,235536,6,0,L|48:296,1,99.0000030212403,0|0,1:0|0:0,0:0:0:0:
200,64,235911,2,0,P|264:128|200:192,1,198.000006042481,2|0,0:0|0:0,0:0:0:0:
96,192,236473,1,0,0:0:0:0:
352,40,236661,1,2,1:2:0:0:
408,80,236754,1,0,1:0:0:0:
408,128,236848,1,0,1:0:0:0:
352,88,236942,1,0,1:0:0:0:
176,192,237036,6,0,P|112:256|176:320,1,198.000006042481,6|10,1:2|0:0,0:0:0:0:
320,304,237598,2,0,L|419:304,1,99.0000030212403,6|0,0:3|1:0,0:0:0:0:
152,64,237973,2,0,L|264:64,2,99.0000030212403,6|10|6,0:3|0:0|0:3,0:0:0:0:
304,192,238536,5,2,1:2:0:0:
192,192,238723,1,4,0:3:0:0:
80,192,238911,1,10,0:0:0:0:
336,272,239098,2,0,P|432:272|480:352,1,198.000006042481,6|6,0:3|0:3,0:0:0:0:
352,200,239661,2,0,L|456:200,1,99.0000030212403,8|2,0:0|0:0,0:0:0:0:
136,192,240036,6,0,P|72:256|144:320,1,198.000006042481,6|10,1:2|0:0,0:0:0:0:
296,120,240598,1,4,0:3:0:0:
352,120,240692,1,0,1:0:0:0:
408,120,240786,2,0,L|296:120,1,99.0000030212403,2|4,1:2|1:3,0:0:0:0:
176,120,241161,1,10,0:0:0:0:
424,192,241348,5,6,1:3:0:0:
472,192,241442,1,0,1:0:0:0:
424,240,241536,2,0,L|296:240,2,99.0000030212403,2|4|8,1:2|0:3|0:0,0:0:0:0:
176,192,242098,1,4,0:3:0:0:
320,72,242286,2,0,L|424:72,1,99.0000030212403,2|6,1:2|1:3,0:0:0:0:
168,72,242661,1,8,0:0:0:0:
121,61,242754,1,8,0:0:0:0:
76,80,242848,1,8,0:0:0:0:
50,122,242942,1,8,0:0:0:0:
280,328,243036,6,0,L|384:328,1,99.0000030212403,6|4,1:2|0:3,0:0:0:0:
224,256,243411,2,0,L|120:256,2,99.0000030212403,8|6|0,0:0|0:3|1:0,0:0:0:0:
320,128,243973,1,4,1:3:0:0:
320,40,244161,1,8,0:0:0:0:
224,192,244348,1,6,1:3:0:0:
392,176,244536,6,0,L|491:176,1,99.0000030212403,0|4,0:0|0:3,0:0:0:0:
344,272,244911,2,0,L|240:272,1,99.0000030212403,8|6,0:0|0:3,0:0:0:0:
496,96,245286,2,0,L|384:96,1,99.0000030212403,2|6,1:2|0:3,0:0:0:0:
248,40,245661,2,0,L|144:40,1,99.0000030212403,10|0,0:0|0:0,0:0:0:0:
440,192,246036,6,0,L|224:192,1,198.000006042481,6|8,1:2|0:0,0:0:0:0:
384,248,246598,2,0,L|384:352,1,99.0000030212403,6|0,0:3|1:0,0:0:0:0:
136,256,246973,2,0,L|32:256,1,99.0000030212403,6|8,0:3|0:0,0:0:0:0:
304,64,247348,6,0,P|404:64|462:144,1,198.000006042481,6|4,1:2|0:3,0:0:0:0:
304,192,247911,2,0,P|235:245|312:296,2,198.000006042481,10|2|10,0:0|1:2|0:0,0:0:0:0:
408,192,248848,1,4,0:3:0:0:
136,120,249036,6,0,L|16:120,1,99.0000030212403,6|4,1:2|0:3,0:0:0:0:
312,160,249411,2,0,L|312:56,1,99.0000030212403,10|0,0:0|0:0,0:0:0:0:
160,64,249786,2,0,L|56:64,1,99.0000030212403,2|4,1:2|0:3,0:0:0:0:
216,136,250161,1,10,0:0:0:0:
64,192,250348,6,0,P|32:264|128:304,1,198.000006042481,6|4,1:3|0:3,0:0:0:0:
384,144,250911,2,0,L|496:144,1,99.0000030212403,10|4,0:0|0:3,0:0:0:0:
336,224,251286,2,0,L|216:224,1,99.0000030212403,2|4,1:2|0:3,0:0:0:0:
384,304,251661,1,10,0:0:0:0:
136,304,251848,1,2,0:0:0:0:
296,48,252036,5,8,0:0:0:0:
344,39,252129,1,8,0:0:0:0:
387,62,252223,1,8,0:0:0:0:
408,106,252317,1,8,0:0:0:0:
224,144,252411,2,0,L|144:144,1,49.5000015106202,8|8,0:0|0:0,0:0:0:0:
344,216,252598,2,0,L|448:216,1,99.0000030212403,8|0,0:0|1:0,0:0:0:0:
312,304,252973,2,0,L|424:304,1,99.0000030212403,10|10,0:0|1:2,0:0:0:0:
264,240,253348,2,0,L|200:240,1,49.5000015106202,4|0,1:3|1:0,0:0:0:0:
397,56,253536,6,0,L|496:56,2,99.0000030212403,6|0|0,1:2|1:0|1:2,0:0:0:0:
144,192,254098,2,0,L|32:192,1,99.0000030212403,2|0,1:2|1:0,0:0:0:0:
96,232,254379,1,0,1:0:0:0:
280,248,254473,2,0,L|360:248,1,49.5000015106202,2|0,1:2|1:0,0:0:0:0:
152,64,254661,1,0,1:0:0:0:
104,64,254754,1,0,1:0:0:0:
104,64,254848,1,0,1:0:0:0:
152,64,254942,1,0,1:0:0:0:
402,75,255036,6,0,L|399:194,1,99.0000030212403,6|4,1:2|0:3,0:0:0:0:
242,213,255411,2,0,L|134:227,1,99.0000030212403,8|4,0:0|0:3,0:0:0:0:
391,251,255786,2,0,L|502:254,2,99.0000030212403,2|6|8,1:2|0:3|0:0,0:0:0:0:
143,225,256348,6,0,P|72:172|158:128,1,198.000006042481,6|4,1:3|0:3,0:0:0:0:
313,143,256911,2,0,L|313:36,1,99.0000030212403,8|4,0:0|0:3,0:0:0:0:
48,59,257286,2,0,L|215:53,2,148.50000453186,2|2|6,1:2|1:2|0:3,0:0:0:0:
356,78,258036,6,0,L|474:78,1,99.0000030212403,6|0,1:2|0:0,0:0:0:0:
303,141,258411,2,0,L|181:142,1,99.0000030212403,10|4,0:0|0:3,0:0:0:0:
356,78,258786,2,0,L|471:78,1,99.0000030212403,2|6,1:2|0:3,0:0:0:0:
356,78,259161,1,8,0:0:0:0:
78,204,259348,6,0,P|65:274|173:321,1,198.000006042481,6|4,1:3|0:3,0:0:0:0:
320,275,259911,2,0,L|201:271,1,99.0000030212403,8|4,0:0|0:3,0:0:0:0:
476,202,260286,2,0,L|474:31,1,148.50000453186,2|2,1:2|1:2,0:0:0:0:
348,56,260848,1,6,0:3:0:0:
85,66,261036,6,0,L|87:178,1,99.0000030212403,6|0,1:2|0:0,0:0:0:0:
249,143,261411,2,0,L|247:255,1,99.0000030212403,10|4,0:0|0:3,0:0:0:0:
89,163,261786,2,0,L|213:154,2,99.0000030212403,2|6|8,1:2|0:3|0:0,0:0:0:0:
357,72,262348,6,0,P|453:125|440:219,1,198.000006042481,6|4,1:3|0:3,0:0:0:0:
174,222,262911,2,0,L|66:232,1,99.0000030212403,10|4,0:0|0:3,0:0:0:0:
234,268,263286,2,0,L|332:277,1,99.0000030212403,2|4,1:2|0:3,0:0:0:0:
174,222,263661,2,0,L|66:232,1,99.0000030212403,10|4,0:0|0:3,0:0:0:0:
391,55,264036,6,0,P|416:104|383:174,1,99.0000030212403,2|4,1:2|0:3,0:0:0:0:
247,148,264411,2,0,L|132:158,1,99.0000030212403,8|4,0:0|0:3,0:0:0:0:
345,202,264692,1,0,1:2:0:0:
282,247,265161,2,0,L|428:267,1,99.0000030212403,8|6,0:0|0:3,0:0:0:0:
183,313,265442,1,0,1:0:0:0:
256,242,265911,6,0,L|371:256,1,99.0000030212403,8|4,0:0|0:3,0:0:0:0:
295,282,266192,1,0,0:0:0:0:
85,237,266286,2,0,L|84:137,1,99.0000030212403,2|6,1:2|0:3,0:0:0:0:
338,41,266661,1,8,0:0:0:0:
402,62,266754,1,8,0:0:0:0:
413,122,266848,1,8,0:0:0:0:
369,167,266942,1,8,0:0:0:0:
127,193,267036,6,0,L|17:198,1,99.0000030212403,6|0,1:2|0:0,0:0:0:0:
180,250,267411,2,0,L|322:260,1,99.0000030212403,8|6,0:0|0:3,0:0:0:0:
129,192,267786,2,0,L|16:204,3,99.0000030212403,2|6|8|6,1:2|0:3|0:0|1:3,0:0:0:0:
321,76,268536,6,0,L|338:204,1,99.0000030212403,0|4,0:0|0:3,0:0:0:0:
184,179,268911,2,0,L|151:309,1,99.0000030212403,8|4,0:0|0:3,0:0:0:0:
414,127,269286,2,0,L|512:116,3,99.0000030212403,2|6|10|6,1:2|1:3|0:0|0:3,0:0:0:0:
218,83,270036,6,0,P|149:137|222:194,1,198.000006042481,6|8,1:2|0:0,0:0:0:0:
474,229,270598,2,0,L|477:341,1,99.0000030212403,6|0,0:3|1:0,0:0:0:0:
309,200,270973,2,0,L|422:198,1,99.0000030212403,6|8,0:3|0:0,0:0:0:0:
127,67,271348,6,0,L|333:68,1,198.000006042481,6|4,0:2|0:3,0:0:0:0:
478,136,271911,2,0,L|373:141,1,99.0000030212403,8|4,0:0|0:3,0:0:0:0:
121,143,272286,1,2,1:2:0:0:
26,200,272473,1,6,0:3:0:0:
21,328,272661,1,10,0:0:0:0:
125,356,272848,1,4,0:3:0:0:
400,334,273036,6,0,P|383:275|249:235,1,198.000006042481,6|10,1:2|0:0,0:0:0:0:
174,235,273598,1,4,0:3:0:0:
330,112,273786,2,0,L|459:124,2,99.0000030212403,2|4|10,1:2|1:3|0:0,0:0:0:0:
75,65,274348,6,0,P|35:110|120:194,1,198.000006042481,6|4,1:3|0:3,0:0:0:0:
265,205,274911,2,0,P|276:252|252:323,1,99.0000030212403,10|4,0:2|0:3,0:0:0:0:
115,303,275286,2,0,L|-3:332,1,99.0000030212403,2|4,1:2|0:3,0:0:0:0:
288,140,275661,2,0,L|413:161,1,99.0000030212403,10|4,0:0|0:3,0:0:0:0:
109,52,276036,5,8,0:0:0:0:
46,79,276129,1,8,0:0:0:0:
26,140,276223,1,8,0:0:0:0:
44,199,276317,1,8,0:0:0:0:
101,217,276411,1,8,0:0:0:0:
166,217,276504,1,8,0:0:0:0:
386,98,276598,1,8,0:0:0:0:
449,125,276691,1,8,0:0:0:0:
469,186,276785,5,8,0:0:0:0:
451,245,276879,1,8,0:0:0:0:
394,263,276973,1,8,0:0:0:0:
334,265,277067,1,8,0:0:0:0:
101,217,277161,1,8,0:0:0:0:
51,228,277254,1,8,0:0:0:0:
243,264,277348,1,8,0:0:0:0:
300,263,277442,1,8,0:0:0:0:
100,336,277536,6,0,P|37:289|122:231,1,198.000006042481,2|0,1:2|0:0,0:0:0:0:
367,161,278098,2,0,L|467:159,1,99.0000030212403,2|0,1:2|0:0,0:0:0:0:
146,152,278473,2,0,L|44:150,1,99.0000030212403,2|0,1:2|0:0,0:0:0:0:
110,80,278848,2,0,L|154:81,1,33.0000010070801,0|0,1:0|1:0,1:0:0:0:
176,80,278973,1,0,1:0:0:0:
359,85,279036,6,0,B|497:111|465:180|465:180|421:189,1,198.000006042481,6|4,1:2|1:3,1:0:0:0:
344,199,279598,1,0,0:0:0:0:
298,223,279692,1,0,0:0:0:0:
284,266,279786,1,0,0:0:0:0:
301,313,279879,1,0,0:0:0:0:
346,321,279973,1,0,0:0:0:0:
431,339,280161,1,4,0:3:0:0:
351,349,280348,1,0,1:0:0:0:
192,166,280723,5,0,0:0:0:0:
175,224,280817,1,0,0:0:0:0:
159,271,280911,1,4,0:3:0:0:
264,143,281098,1,0,0:0:0:0:
316,157,281192,1,0,1:0:0:0:
340,199,281286,1,0,1:3:0:0:
320,264,281379,1,0,1:0:0:0:
264,273,281473,1,0,1:0:0:0:
170,272,281661,1,4,0:3:0:0:
259,307,281848,1,0,1:0:0:0:
170,272,282036,6,0,P|116:261|61:119,1,198.000006042481,0|4,1:0|0:3,0:0:0:0:
158,120,282598,1,0,0:0:0:0:
160,79,282692,1,0,1:0:0:0:
106,65,282786,1,0,1:0:0:0:
105,23,282879,1,0,1:0:0:0:
161,23,282973,1,0,1:0:0:0:
253,27,283161,1,4,0:3:0:0:
161,23,283348,1,0,1:0:0:0:
285,60,283723,5,0,1:0:0:0:
310,112,283817,1,0,1:0:0:0:
336,163,283911,1,4,0:3:0:0:
430,161,284098,1,0,0:0:0:0:
471,200,284192,1,0,1:0:0:0:
483,263,284286,1,0,1:0:0:0:
455,325,284379,1,0,1:0:0:0:
393,336,284473,1,0,1:0:0:0:
299,334,284661,1,4,0:3:0:0:
393,336,284848,1,0,0:0:0:0:
67,263,285036,5,14,1:2:0:0:
256,192,285411,12,0,292348,0:0:0:0:
